  0
SECTION
  2
HEADER
  9
$ACADVER
  1
AC1006
  9
$INSBASE
 10
0.0
 20
0.0
 30
0.0
  9
$EXTMIN
 10
      -20.314024
 20
      -18.921606
  9
$EXTMAX
 10
       82.398491
 20
       28.463551
  9
$LIMMIN
 10
      -20.314024
 20
      -18.921606
  9
$LIMMAX
 10
       82.398491
 20
       28.463551
  9
$VIEWCTR
 10
       31.042233
 20
       31.042233
  9
$ORTHOMODE
 70
     0
  9
$ANGBASE
 50
0.0
  9
$ANGDIR
 70
     0
  9
$SPLINETYPE
 70
     6
  9
$SPLINESEGS
 70
     8
9
$DIMASZ
 40
        2.500000
9
$DIMEXE
 40
        0.500000
9
$DIMEXO
 40
        1.000000
9
$DIMTXT
 40
        2.500000
9
$DIMGAP
 40
        0.500000
9
$DIMTAD
 70
1
9
$DIMTIH
 70
0
9
$DIMTOH
 70
0
  0
ENDSEC
  0
SECTION
  2
TABLES
  0
TABLE
  2
LTYPE
 70
     5
  0
LTYPE
  2
CONTINUOUS
 70
    64
  3
SOLID LINE
 72
    65
 73
     0
 40
0.0
  0
LTYPE
  2
DASHED
 70
    64
  3
-- -- -- -- -- --
 72
    65
 73
     2
 40
  0.75  
 49
  0.50  
 49
 -0.25  
  0
LTYPE
  2
DOT
 70
    64
  3
....................
 72
    65
 73
     2
 40
  0.25  
 49
  0.02  
 49
 -0.23  
  0
LTYPE
  2
CENTER
 70
    64
  3
-- . -- . -- . -- .
 72
    65
 73
    4
 40
  2.00  
 49
  1.25  
 49
 -0.25  
 49
  0.25  
 49
 -0.25  
  0
LTYPE
  2
PHANTOM
 70
    64
  3
-- .. -- .. -- ..
 72
    65
 73
    6
 40
  2.50  
 49
  1.25  
 49
 -0.25  
 49
  0.25  
 49
 -0.25  
 49
  0.25  
 49
 -0.25  
  0
ENDTAB
  0
TABLE
  2
LAYER
 70
     3
  0
LAYER
  2
0
 70
    64
 62
     2
  6
CONTINUOUS
  0
LAYER
  2
1
 70
    64
 62
     3
  6
CENTER
  0
LAYER
  2
2
 70
    64
 62
     3
  6
CONTINUOUS
  0
ENDTAB
  0
TABLE
  2
STYLE
 70
     2
  0
STYLE
  2
STANDARD
 70
    64
 40
0.0
 41
1.0
 50
0.0
 71
     0
 42
5.0
  3
ROMANS
  4
BIGFONT
  0
STYLE
  2
BIGFONT
 70
    64
 40
0.0
 41
1.0
 50
0.0
 71
     0
 42
5.0
  3
ROMANS
  4
BIGFONT
  0
ENDTAB
  0
TABLE
  2
VIEW
 70
     0
  0
ENDTAB
  0
TABLE
  2
UCS
 70
     0
  0
ENDTAB
  0
TABLE
  2
DWGMGR
 70
     0
  0
ENDTAB
  0
ENDSEC
  0
SECTION
  2
BLOCKS
  0
BLOCK
  8
0
  2
BLK0001
 70
    64
 10
        0.000000
 20
        0.000000
  0
TEXT
  8
0
 62
  5
 10
       57.398495
 20
      -23.979275
 30
        0.000000
 40
        2.500000
  1
３７
 50
        0.000000
 41
        1.000000
 51
        0.000000
  7
BIGFONT
  0
LINE
  8
0
 62
  5
 10
       41.398495
 20
      -16.500000
 30
        0.000000
 11
       41.398495
 21
      -24.979275
 31
        0.000000
  0
LINE
  8
0
 62
  5
 10
       78.398491
 20
      -15.200000
 30
        0.000000
 11
       78.398491
 21
      -24.979275
 31
        0.000000
  0
LINE
  8
0
 62
  5
 10
       43.898495
 20
      -23.824776
 30
        0.000000
 11
       41.398495
 21
      -24.479275
 31
        0.000000
  0
LINE
  8
0
 62
  5
 10
       41.398495
 20
      -24.479275
 30
        0.000000
 11
       43.898495
 21
      -25.133774
 31
        0.000000
  0
LINE
  8
0
 62
  5
 10
       75.898491
 20
      -25.133774
 30
        0.000000
 11
       78.398491
 21
      -24.479275
 31
        0.000000
  0
LINE
  8
0
 62
  5
 10
       78.398491
 20
      -24.479275
 30
        0.000000
 11
       75.898491
 21
      -23.824776
 31
        0.000000
  0
LINE
  8
0
 62
  5
 10
       41.398495
 20
      -24.479275
 30
        0.000000
 11
       78.398491
 21
      -24.479275
 31
        0.000000
  0
ENDBLK
  0
BLOCK
  8
0
  2
BLK0002
 70
    64
 10
        0.000000
 20
        0.000000
  0
TEXT
  8
0
 62
  5
 10
       -3.750000
 20
      -23.979275
 30
        0.000000
 40
        2.500000
  1
φ３２
 50
        0.000000
 41
        1.000000
 51
        0.000000
  7
BIGFONT
  0
LINE
  8
0
 62
  5
 10
       16.000000
 20
       -1.000000
 30
        0.000000
 11
       16.000000
 21
      -24.979275
 31
        0.000000
  0
LINE
  8
0
 62
  5
 10
      -16.000000
 20
       -1.000000
 30
        0.000000
 11
      -16.000000
 21
      -24.979275
 31
        0.000000
  0
LINE
  8
0
 62
  5
 10
       13.500000
 20
      -25.133774
 30
        0.000000
 11
       16.000000
 21
      -24.479275
 31
        0.000000
  0
LINE
  8
0
 62
  5
 10
       16.000000
 20
      -24.479275
 30
        0.000000
 11
       13.500000
 21
      -23.824776
 31
        0.000000
  0
LINE
  8
0
 62
  5
 10
      -13.500000
 20
      -23.824776
 30
        0.000000
 11
      -16.000000
 21
      -24.479275
 31
        0.000000
  0
LINE
  8
0
 62
  5
 10
      -16.000000
 20
      -24.479275
 30
        0.000000
 11
      -13.500000
 21
      -25.133774
 31
        0.000000
  0
LINE
  8
0
 62
  5
 10
       16.000000
 20
      -24.479275
 30
        0.000000
 11
      -16.000000
 21
      -24.479275
 31
        0.000000
  0
ENDBLK
  0
ENDSEC
  0
SECTION
  2
ENTITIES
  0
TEXT
  8
0
 10
       22.329179
 20
       28.463550
 30
        0.000000
 40
        2.000000
  1
ＩＶ－１Ａ０１０６
 50
        0.000000
 41
        1.000000
 51
        0.000000
  7
BIGFONT
  0
DIMENSION
  8
0
 62
  3
  2
BLK0001
 10
       41.398495
 20
      -24.479275
 11
       57.398495
 21
      -23.979275
 13
       41.398495
 23
      -15.500000
 14
       78.398491
 24
      -14.200000
 50
        0.0
 70
  0
  0
DIMENSION
  8
0
 62
  3
  2
BLK0002
 10
       16.000000
 20
      -24.479275
 11
       -3.750000
 21
      -23.979275
 13
       16.000000
 23
        0.000000
 14
      -16.000000
 24
        0.000000
 50
        0.0
 70
  0
  0
LINE
  8
1
 10
        0.000000
 20
       22.364644
 30
        0.000000
 11
        0.000000
 21
      -18.921606
 31
        0.000000
  0
LINE
  8
1
 10
       86.557111
 20
        0.000000
 30
        0.000000
 11
      -20.314025
 21
        0.000000
 31
        0.000000
  0
LINE
  8
1
 10
       16.000000
 20
        0.000000
 30
        0.000000
 11
      -16.000000
 21
        0.000000
 31
        0.000000
  0
LINE
  8
1
  6
CONTINUOUS
 10
       77.898494
 20
       14.700000
 30
        0.000000
 11
       74.098494
 21
       14.700000
 31
        0.000000
  0
LINE
  8
1
  6
CONTINUOUS
 10
       48.598494
 20
       15.500000
 30
        0.000000
 11
       49.098494
 21
       16.000000
 31
        0.000000
  0
LINE
  8
1
  6
CONTINUOUS
 10
       46.398494
 20
       15.250000
 30
        0.000000
 11
       45.648494
 21
       16.000000
 31
        0.000000
  0
LINE
  8
1
  6
CONTINUOUS
 10
       46.398494
 20
       15.250000
 30
        0.000000
 11
       48.598494
 21
       15.250000
 31
        0.000000
  0
LINE
  8
1
  6
CONTINUOUS
 10
       41.898494
 20
       16.000000
 30
        0.000000
 11
       41.398494
 21
       15.500000
 31
        0.000000
  0
LINE
  8
1
  6
CONTINUOUS
 10
       41.898494
 20
       16.000000
 30
        0.000000
 11
       45.648494
 21
       16.000000
 31
        0.000000
  0
LINE
  8
1
  6
CONTINUOUS
 10
       59.598494
 20
       -8.000000
 30
        0.000000
 11
       49.098494
 21
       -8.000000
 31
        0.000000
  0
LINE
  8
1
  6
CONTINUOUS
 10
       59.598494
 20
       -7.000000
 30
        0.000000
 11
       49.098494
 21
       -7.000000
 31
        0.000000
  0
LINE
  8
1
  6
CONTINUOUS
 10
       49.098494
 20
        0.000000
 30
        0.000000
 11
       59.598494
 21
        0.000000
 31
        0.000000
  0
LINE
  8
1
  6
CONTINUOUS
 10
       59.598494
 20
       15.500000
 30
        0.000000
 11
       49.098494
 21
       15.500000
 31
        0.000000
  0
LINE
  8
1
  6
CONTINUOUS
 10
       59.598494
 20
       15.000000
 30
        0.000000
 11
       49.098494
 21
       15.000000
 31
        0.000000
  0
LINE
  8
1
  6
CONTINUOUS
 10
       59.598494
 20
       14.500000
 30
        0.000000
 11
       49.098494
 21
       14.500000
 31
        0.000000
  0
LINE
  8
1
  6
CONTINUOUS
 10
       59.598494
 20
       13.750000
 30
        0.000000
 11
       49.098494
 21
       13.750000
 31
        0.000000
  0
LINE
  8
1
  6
CONTINUOUS
 10
       59.598494
 20
       13.000000
 30
        0.000000
 11
       49.098494
 21
       13.000000
 31
        0.000000
  0
LINE
  8
1
  6
CONTINUOUS
 10
       59.598494
 20
       12.000000
 30
        0.000000
 11
       49.098494
 21
       12.000000
 31
        0.000000
  0
LINE
  8
1
  6
CONTINUOUS
 10
       59.598494
 20
       11.000000
 30
        0.000000
 11
       49.098494
 21
       11.000000
 31
        0.000000
  0
LINE
  8
1
  6
CONTINUOUS
 10
       59.598494
 20
       10.000000
 30
        0.000000
 11
       49.098494
 21
       10.000000
 31
        0.000000
  0
LINE
  8
1
  6
CONTINUOUS
 10
       59.598494
 20
        9.000000
 30
        0.000000
 11
       49.098494
 21
        9.000000
 31
        0.000000
  0
LINE
  8
1
  6
CONTINUOUS
 10
       59.598494
 20
        8.000000
 30
        0.000000
 11
       49.098494
 21
        8.000000
 31
        0.000000
  0
LINE
  8
1
  6
CONTINUOUS
 10
       59.598494
 20
        7.000000
 30
        0.000000
 11
       49.098494
 21
        7.000000
 31
        0.000000
  0
LINE
  8
1
  6
CONTINUOUS
 10
       59.598494
 20
        6.000000
 30
        0.000000
 11
       49.098494
 21
        6.000000
 31
        0.000000
  0
LINE
  8
1
  6
CONTINUOUS
 10
       59.598494
 20
       -6.000000
 30
        0.000000
 11
       49.098494
 21
       -6.000000
 31
        0.000000
  0
LINE
  8
1
  6
CONTINUOUS
 10
       59.598494
 20
        5.000000
 30
        0.000000
 11
       49.098494
 21
        5.000000
 31
        0.000000
  0
LINE
  8
1
  6
CONTINUOUS
 10
       59.598494
 20
       -5.000000
 30
        0.000000
 11
       49.098494
 21
       -5.000000
 31
        0.000000
  0
LINE
  8
1
  6
CONTINUOUS
 10
       59.598494
 20
        4.000000
 30
        0.000000
 11
       49.098494
 21
        4.000000
 31
        0.000000
  0
LINE
  8
1
  6
CONTINUOUS
 10
       59.598494
 20
       -4.000000
 30
        0.000000
 11
       49.098494
 21
       -4.000000
 31
        0.000000
  0
LINE
  8
1
  6
CONTINUOUS
 10
       59.598494
 20
        3.000000
 30
        0.000000
 11
       49.098494
 21
        3.000000
 31
        0.000000
  0
LINE
  8
1
  6
CONTINUOUS
 10
       59.598494
 20
       -3.000000
 30
        0.000000
 11
       49.098494
 21
       -3.000000
 31
        0.000000
  0
LINE
  8
1
  6
CONTINUOUS
 10
       59.598494
 20
        2.000000
 30
        0.000000
 11
       49.098494
 21
        2.000000
 31
        0.000000
  0
LINE
  8
1
  6
CONTINUOUS
 10
       59.598494
 20
       -2.000000
 30
        0.000000
 11
       49.098494
 21
       -2.000000
 31
        0.000000
  0
LINE
  8
1
  6
CONTINUOUS
 10
       59.598494
 20
        1.000000
 30
        0.000000
 11
       49.098494
 21
        1.000000
 31
        0.000000
  0
LINE
  8
1
  6
CONTINUOUS
 10
       59.598494
 20
       -1.000000
 30
        0.000000
 11
       49.098494
 21
       -1.000000
 31
        0.000000
  0
LINE
  8
1
  6
CONTINUOUS
 10
       49.098494
 20
       16.000000
 30
        0.000000
 11
       59.598494
 21
       16.000000
 31
        0.000000
  0
LINE
  8
1
  6
CONTINUOUS
 10
       82.398494
 20
      -12.200000
 30
        0.000000
 11
       81.898494
 21
      -12.700000
 31
        0.000000
  0
LINE
  8
1
  6
CONTINUOUS
 10
       79.398494
 20
      -12.200000
 30
        0.000000
 11
       78.398494
 21
      -12.200000
 31
        0.000000
  0
LINE
  8
1
  6
CONTINUOUS
 10
       81.898494
 20
      -12.700000
 30
        0.000000
 11
       79.398494
 21
      -12.700000
 31
        0.000000
  0
LINE
  8
1
  6
CONTINUOUS
 10
       82.398494
 20
      -12.200000
 30
        0.000000
 11
       79.398494
 21
      -12.200000
 31
        0.000000
  0
LINE
  8
1
  6
CONTINUOUS
 10
       74.098494
 20
      -14.750000
 30
        0.000000
 11
       73.598494
 21
      -15.250000
 31
        0.000000
  0
LINE
  8
1
  6
CONTINUOUS
 10
       70.698494
 20
      -14.750000
 30
        0.000000
 11
       71.198494
 21
      -15.250000
 31
        0.000000
  0
LINE
  8
1
  6
CONTINUOUS
 10
       71.198494
 20
      -15.000000
 30
        0.000000
 11
       73.598494
 21
      -15.000000
 31
        0.000000
  0
LINE
  8
1
  6
CONTINUOUS
 10
       71.198494
 20
      -14.500000
 30
        0.000000
 11
       73.598494
 21
      -14.500000
 31
        0.000000
  0
LINE
  8
1
  6
CONTINUOUS
 10
       71.198494
 20
      -13.750000
 30
        0.000000
 11
       73.598494
 21
      -13.750000
 31
        0.000000
  0
LINE
  8
1
  6
CONTINUOUS
 10
       71.198494
 20
      -13.000000
 30
        0.000000
 11
       73.598494
 21
      -13.000000
 31
        0.000000
  0
LINE
  8
1
  6
CONTINUOUS
 10
       71.198494
 20
      -12.000000
 30
        0.000000
 11
       73.598494
 21
      -12.000000
 31
        0.000000
  0
LINE
  8
1
  6
CONTINUOUS
 10
       71.198494
 20
      -11.000000
 30
        0.000000
 11
       73.598494
 21
      -11.000000
 31
        0.000000
  0
LINE
  8
1
  6
CONTINUOUS
 10
       71.198494
 20
      -10.000000
 30
        0.000000
 11
       73.598494
 21
      -10.000000
 31
        0.000000
  0
LINE
  8
1
  6
CONTINUOUS
 10
       71.198494
 20
       -9.000000
 30
        0.000000
 11
       73.598494
 21
       -9.000000
 31
        0.000000
  0
LINE
  8
1
  6
CONTINUOUS
 10
       73.598494
 20
      -15.250000
 30
        0.000000
 11
       71.198494
 21
      -15.250000
 31
        0.000000
  0
LINE
  8
1
  6
CONTINUOUS
 10
       66.598494
 20
      -14.000000
 30
        0.000000
 11
       66.698494
 21
      -14.000000
 31
        0.000000
  0
LINE
  8
1
  6
CONTINUOUS
 10
       60.098494
 20
      -15.500000
 30
        0.000000
 11
       59.598494
 21
      -16.000000
 31
        0.000000
  0
LINE
  8
1
  6
CONTINUOUS
 10
       60.098494
 20
      -15.375000
 30
        0.000000
 11
       63.098494
 21
      -15.375000
 31
        0.000000
  0
LINE
  8
1
  6
CONTINUOUS
 10
       48.598494
 20
      -15.500000
 30
        0.000000
 11
       49.098494
 21
      -16.000000
 31
        0.000000
  0
LINE
  8
1
  6
CONTINUOUS
 10
       46.398494
 20
      -15.250000
 30
        0.000000
 11
       45.648494
 21
      -16.000000
 31
        0.000000
  0
LINE
  8
1
  6
CONTINUOUS
 10
       46.398494
 20
      -15.250000
 30
        0.000000
 11
       48.598494
 21
      -15.250000
 31
        0.000000
  0
LINE
  8
1
  6
CONTINUOUS
 10
       41.898494
 20
      -16.000000
 30
        0.000000
 11
       41.398494
 21
      -15.500000
 31
        0.000000
  0
LINE
  8
1
  6
CONTINUOUS
 10
       41.898494
 20
      -16.000000
 30
        0.000000
 11
       45.648494
 21
      -16.000000
 31
        0.000000
  0
LINE
  8
1
  6
CONTINUOUS
 10
       59.598494
 20
      -15.500000
 30
        0.000000
 11
       49.098494
 21
      -15.500000
 31
        0.000000
  0
LINE
  8
1
  6
CONTINUOUS
 10
       59.598494
 20
      -15.000000
 30
        0.000000
 11
       49.098494
 21
      -15.000000
 31
        0.000000
  0
LINE
  8
1
  6
CONTINUOUS
 10
       59.598494
 20
      -14.500000
 30
        0.000000
 11
       49.098494
 21
      -14.500000
 31
        0.000000
  0
LINE
  8
1
  6
CONTINUOUS
 10
       59.598494
 20
      -13.750000
 30
        0.000000
 11
       49.098494
 21
      -13.750000
 31
        0.000000
  0
LINE
  8
1
  6
CONTINUOUS
 10
       59.598494
 20
      -13.000000
 30
        0.000000
 11
       49.098494
 21
      -13.000000
 31
        0.000000
  0
LINE
  8
1
  6
CONTINUOUS
 10
       59.598494
 20
      -12.000000
 30
        0.000000
 11
       49.098494
 21
      -12.000000
 31
        0.000000
  0
LINE
  8
1
  6
CONTINUOUS
 10
       59.598494
 20
      -11.000000
 30
        0.000000
 11
       49.098494
 21
      -11.000000
 31
        0.000000
  0
LINE
  8
1
  6
CONTINUOUS
 10
       59.598494
 20
      -10.000000
 30
        0.000000
 11
       49.098494
 21
      -10.000000
 31
        0.000000
  0
LINE
  8
1
  6
CONTINUOUS
 10
       59.598494
 20
       -9.000000
 30
        0.000000
 11
       49.098494
 21
       -9.000000
 31
        0.000000
  0
LINE
  8
1
  6
CONTINUOUS
 10
       59.598494
 20
      -16.000000
 30
        0.000000
 11
       49.098494
 21
      -16.000000
 31
        0.000000
  0
LINE
  8
1
  6
CONTINUOUS
 10
       41.898494
 20
       16.000000
 30
        0.000000
 11
       41.898494
 21
      -16.000000
 31
        0.000000
  0
LINE
  8
1
  6
CONTINUOUS
 10
       45.648494
 20
      -16.000000
 30
        0.000000
 11
       45.648494
 21
       16.000000
 31
        0.000000
  0
LINE
  8
1
  6
CONTINUOUS
 10
       49.098494
 20
       16.000000
 30
        0.000000
 11
       49.098494
 21
      -16.000000
 31
        0.000000
  0
LINE
  8
1
  6
CONTINUOUS
 10
       59.598494
 20
       16.000000
 30
        0.000000
 11
       59.598494
 21
      -16.000000
 31
        0.000000
  0
LINE
  8
1
  6
CONTINUOUS
 10
       60.098494
 20
       15.500000
 30
        0.000000
 11
       60.098494
 21
      -15.500000
 31
        0.000000
  0
LINE
  8
1
  6
CONTINUOUS
 10
       48.598494
 20
       15.500000
 30
        0.000000
 11
       48.598494
 21
      -15.500000
 31
        0.000000
  0
LINE
  8
1
  6
CONTINUOUS
 10
       46.398494
 20
       15.250000
 30
        0.000000
 11
       46.398494
 21
      -15.250000
 31
        0.000000
  0
LINE
  8
1
  6
CONTINUOUS
 10
       41.398494
 20
      -15.500000
 30
        0.000000
 11
       41.398494
 21
       15.500000
 31
        0.000000
  0
LINE
  8
1
  6
CONTINUOUS
 10
       71.198494
 20
       15.250000
 30
        0.000000
 11
       71.198494
 21
      -15.250000
 31
        0.000000
  0
LINE
  8
1
  6
CONTINUOUS
 10
       73.598494
 20
       15.250000
 30
        0.000000
 11
       73.598494
 21
      -15.250000
 31
        0.000000
  0
LINE
  8
1
  6
CONTINUOUS
 10
       77.898494
 20
       14.700000
 30
        0.000000
 11
       77.898494
 21
      -14.700000
 31
        0.000000
  0
LINE
  8
1
  6
CONTINUOUS
 10
       74.098494
 20
       14.750000
 30
        0.000000
 11
       74.098494
 21
      -14.750000
 31
        0.000000
  0
LINE
  8
1
  6
CONTINUOUS
 10
       70.698494
 20
       14.750000
 30
        0.000000
 11
       70.698494
 21
      -14.750000
 31
        0.000000
  0
LINE
  8
1
  6
CONTINUOUS
 10
       66.698494
 20
       13.310875
 30
        0.000000
 11
       66.698494
 21
      -14.700000
 31
        0.000000
  0
LINE
  8
1
  6
CONTINUOUS
 10
       66.598494
 20
       13.204968
 30
        0.000000
 11
       66.598494
 21
      -14.700000
 31
        0.000000
  0
LINE
  8
1
  6
CONTINUOUS
 10
       63.098494
 20
       13.204968
 30
        0.000000
 11
       63.098494
 21
      -15.375000
 31
        0.000000
  0
LINE
  8
1
  6
CONTINUOUS
 10
       81.898494
 20
      -12.700000
 30
        0.000000
 11
       81.898494
 21
       12.700000
 31
        0.000000
  0
LINE
  8
1
  6
CONTINUOUS
 10
       79.398494
 20
       12.700000
 30
        0.000000
 11
       79.398494
 21
      -12.700000
 31
        0.000000
  0
LINE
  8
1
  6
CONTINUOUS
 10
       82.398494
 20
      -12.200000
 30
        0.000000
 11
       82.398494
 21
       12.200000
 31
        0.000000
  0
LINE
  8
1
  6
CONTINUOUS
 10
       78.398494
 20
       14.200000
 30
        0.000000
 11
       78.398494
 21
      -14.200000
 31
        0.000000
  0
CIRCLE
  8
2
 10
        0.000000
 20
        0.000000
 30
        0.000000
 40
       15.500000
  0
LINE
  8
1
  6
CONTINUOUS
 10
       72.398494
 20
       16.250000
 30
        0.000000
 11
       72.398494
 21
       19.750000
 31
        0.000000
  0
LINE
  8
1
  6
CONTINUOUS
 10
       70.898494
 20
       20.250000
 30
        0.000000
 11
       73.898494
 21
       20.250000
 31
        0.000000
  0
CIRCLE
  8
0
 62
  3
 10
        0.000000
 20
        0.000000
 30
        0.000000
 40
       15.250000
  0
CIRCLE
  8
0
 62
  3
 10
        0.000000
 20
        0.000000
 30
        0.000000
 40
       15.000000
  0
CIRCLE
  8
2
 10
        0.000000
 20
        0.000000
 30
        0.000000
 40
       13.000000
  0
LINE
  8
1
  6
CONTINUOUS
 10
       11.230304
 20
       15.773642
 30
        0.000000
 11
        9.575071
 21
       12.818659
 31
        0.000000
  0
LINE
  8
1
  6
CONTINUOUS
 10
        9.412828
 20
       12.938264
 30
        0.000000
 11
       11.055814
 21
       15.871383
 31
        0.000000
  0
LINE
  8
1
  6
CONTINUOUS
 10
        9.084605
 20
       13.170800
 30
        0.000000
 11
       10.706834
 21
       16.066864
 31
        0.000000
  0
LINE
  8
1
  6
CONTINUOUS
 10
        8.582993
 20
       13.503045
 30
        0.000000
 11
       10.183363
 21
       16.360086
 31
        0.000000
  0
LINE
  8
1
  6
CONTINUOUS
 10
        7.740502
 20
       17.728453
 30
        0.000000
 11
        6.096262
 21
       14.793093
 31
        0.000000
  0
LINE
  8
1
  6
CONTINUOUS
 10
        6.281885
 20
       14.715228
 30
        0.000000
 11
        7.914992
 21
       17.630713
 31
        0.000000
  0
LINE
  8
1
  6
CONTINUOUS
 10
        6.649407
 20
       14.552848
 30
        0.000000
 11
        8.263973
 21
       17.435232
 31
        0.000000
  0
LINE
  8
1
  6
CONTINUOUS
 10
        7.191441
 20
       14.292767
 30
        0.000000
 11
        8.787443
 21
       17.142010
 31
        0.000000
  0
LINE
  8
2
 10
        7.896998
 20
       13.915367
 30
        0.000000
 11
        9.729754
 21
       17.187273
 31
        0.000000
  0
LINE
  8
1
  6
CONTINUOUS
 10
        8.421079
 20
       17.920327
 30
        0.000000
 11
       11.038430
 21
       16.454219
 31
        0.000000
  0
LINE
  8
1
  6
CONTINUOUS
 10
       -1.500000
 20
       20.250000
 30
        0.000000
 11
        1.500000
 21
       20.250000
 31
        0.000000
  0
LINE
  8
1
  6
CONTINUOUS
 10
        0.850000
 20
       15.977406
 30
        0.000000
 11
        0.850000
 21
       16.250000
 31
        0.000000
  0
LINE
  8
1
  6
CONTINUOUS
 10
        0.672000
 20
       15.985882
 30
        0.000000
 11
        0.672000
 21
       16.250000
 31
        0.000000
  0
LINE
  8
1
  6
CONTINUOUS
 10
       -0.672000
 20
       15.985882
 30
        0.000000
 11
       -0.672000
 21
       16.250000
 31
        0.000000
  0
LINE
  8
1
  6
CONTINUOUS
 10
       -0.850000
 20
       15.977406
 30
        0.000000
 11
       -0.850000
 21
       16.250000
 31
        0.000000
  0
LINE
  8
1
  6
CONTINUOUS
 10
        7.740502
 20
       17.728453
 30
        0.000000
 11
       11.230304
 21
       15.773642
 31
        0.000000
  0
LINE
  8
1
  6
CONTINUOUS
 10
        8.421079
 20
       17.920327
 30
        0.000000
 11
        7.740502
 21
       17.728453
 31
        0.000000
  0
LINE
  8
1
  6
CONTINUOUS
 10
       11.038430
 20
       16.454219
 30
        0.000000
 11
       11.230304
 21
       15.773642
 31
        0.000000
  0
LINE
  8
1
  6
CONTINUOUS
 10
       -2.000000
 20
       19.750000
 30
        0.000000
 11
        2.000000
 21
       19.750000
 31
        0.000000
  0
LINE
  8
1
  6
CONTINUOUS
 10
        2.000000
 20
       16.250000
 30
        0.000000
 11
       -2.000000
 21
       16.250000
 31
        0.000000
  0
LINE
  8
1
  6
CONTINUOUS
 10
       -0.800000
 20
       16.250000
 30
        0.000000
 11
       -0.800000
 21
       19.750000
 31
        0.000000
  0
LINE
  8
1
  6
CONTINUOUS
 10
       -1.400000
 20
       16.250000
 30
        0.000000
 11
       -1.400000
 21
       19.750000
 31
        0.000000
  0
LINE
  8
1
  6
CONTINUOUS
 10
       -1.800000
 20
       16.250000
 30
        0.000000
 11
       -1.800000
 21
       19.750000
 31
        0.000000
  0
LINE
  8
1
  6
CONTINUOUS
 10
       -2.000000
 20
       19.750000
 30
        0.000000
 11
       -2.000000
 21
       16.250000
 31
        0.000000
  0
LINE
  8
1
  6
CONTINUOUS
 10
       -1.500000
 20
       20.250000
 30
        0.000000
 11
       -2.000000
 21
       19.750000
 31
        0.000000
  0
LINE
  8
1
  6
CONTINUOUS
 10
        0.800000
 20
       16.250000
 30
        0.000000
 11
        0.800000
 21
       19.750000
 31
        0.000000
  0
LINE
  8
1
  6
CONTINUOUS
 10
        1.400000
 20
       16.250000
 30
        0.000000
 11
        1.400000
 21
       19.750000
 31
        0.000000
  0
LINE
  8
1
  6
CONTINUOUS
 10
        1.800000
 20
       16.250000
 30
        0.000000
 11
        1.800000
 21
       19.750000
 31
        0.000000
  0
LINE
  8
1
  6
CONTINUOUS
 10
        2.000000
 20
       19.750000
 30
        0.000000
 11
        2.000000
 21
       16.250000
 31
        0.000000
  0
LINE
  8
1
  6
CONTINUOUS
 10
        0.000000
 20
       16.250000
 30
        0.000000
 11
        0.000000
 21
       19.750000
 31
        0.000000
  0
LINE
  8
1
  6
CONTINUOUS
 10
        1.500000
 20
       20.250000
 30
        0.000000
 11
        2.000000
 21
       19.750000
 31
        0.000000
  0
LINE
  8
1
  6
CONTINUOUS
 10
        0.000000
 20
       16.250000
 30
        0.000000
 11
        0.000000
 21
       20.250000
 31
        0.000000
  0
CIRCLE
  8
2
 10
        0.000000
 20
        0.000000
 30
        0.000000
 40
       16.000000
  0
LINE
  8
1
  6
CONTINUOUS
 10
       66.779136
 20
       13.419090
 30
        0.000000
 11
       66.818110
 21
       13.513624
 31
        0.000000
  0
LINE
  8
1
  6
CONTINUOUS
 10
       66.727879
 20
       13.345252
 30
        0.000000
 11
       66.779136
 21
       13.419090
 31
        0.000000
  0
LINE
  8
1
  6
CONTINUOUS
 10
       66.658729
 20
       13.264352
 30
        0.000000
 11
       66.727879
 21
       13.345252
 31
        0.000000
  0
LINE
  8
1
  6
CONTINUOUS
 10
       66.580545
 20
       13.187273
 30
        0.000000
 11
       66.658729
 21
       13.264352
 31
        0.000000
  0
LINE
  8
1
  6
CONTINUOUS
 10
       66.483719
 20
       13.110734
 30
        0.000000
 11
       66.580545
 21
       13.187273
 31
        0.000000
  0
LINE
  8
1
  6
CONTINUOUS
 10
       66.840638
 20
       13.622582
 30
        0.000000
 11
       66.848494
 21
       13.687273
 31
        0.000000
  0
LINE
  8
1
  6
CONTINUOUS
 10
       66.818110
 20
       13.513624
 30
        0.000000
 11
       66.840638
 21
       13.622582
 31
        0.000000
  0
LINE
  8
1
  6
CONTINUOUS
 10
       65.195791
 20
       12.702465
 30
        0.000000
 11
       65.364683
 21
       12.721141
 31
        0.000000
  0
LINE
  8
1
  6
CONTINUOUS
 10
       64.164454
 20
       12.747580
 30
        0.000000
 11
       64.332306
 21
       12.721141
 31
        0.000000
  0
LINE
  8
1
  6
CONTINUOUS
 10
       64.005543
 20
       12.780446
 30
        0.000000
 11
       64.164454
 21
       12.747580
 31
        0.000000
  0
LINE
  8
1
  6
CONTINUOUS
 10
       63.848494
 20
       12.821247
 30
        0.000000
 11
       64.005543
 21
       12.780446
 31
        0.000000
  0
LINE
  8
1
  6
CONTINUOUS
 10
       63.704252
 20
       12.867019
 30
        0.000000
 11
       63.848494
 21
       12.821247
 31
        0.000000
  0
LINE
  8
1
  6
CONTINUOUS
 10
       63.562919
 20
       12.921228
 30
        0.000000
 11
       63.704252
 21
       12.867019
 31
        0.000000
  0
LINE
  8
1
  6
CONTINUOUS
 10
       65.022310
 20
       12.691053
 30
        0.000000
 11
       65.195791
 21
       12.702465
 31
        0.000000
  0
LINE
  8
1
  6
CONTINUOUS
 10
       64.848494
 20
       12.687273
 30
        0.000000
 11
       65.022310
 21
       12.691053
 31
        0.000000
  0
LINE
  8
1
  6
CONTINUOUS
 10
       64.674679
 20
       12.691053
 30
        0.000000
 11
       64.848494
 21
       12.687273
 31
        0.000000
  0
LINE
  8
1
  6
CONTINUOUS
 10
       64.501198
 20
       12.702465
 30
        0.000000
 11
       64.674679
 21
       12.691053
 31
        0.000000
  0
LINE
  8
1
  6
CONTINUOUS
 10
       64.332306
 20
       12.721141
 30
        0.000000
 11
       64.501198
 21
       12.702465
 31
        0.000000
  0
LINE
  8
1
  6
CONTINUOUS
 10
       66.259489
 20
       12.978774
 30
        0.000000
 11
       66.380583
 21
       13.044485
 31
        0.000000
  0
LINE
  8
1
  6
CONTINUOUS
 10
       66.134069
 20
       12.921228
 30
        0.000000
 11
       66.259489
 21
       12.978774
 31
        0.000000
  0
LINE
  8
1
  6
CONTINUOUS
 10
       65.992736
 20
       12.867019
 30
        0.000000
 11
       66.134069
 21
       12.921228
 31
        0.000000
  0
LINE
  8
1
  6
CONTINUOUS
 10
       65.848494
 20
       12.821247
 30
        0.000000
 11
       65.992736
 21
       12.867019
 31
        0.000000
  0
LINE
  8
1
  6
CONTINUOUS
 10
       65.691446
 20
       12.780446
 30
        0.000000
 11
       65.848494
 21
       12.821247
 31
        0.000000
  0
LINE
  8
1
  6
CONTINUOUS
 10
       65.532535
 20
       12.747580
 30
        0.000000
 11
       65.691446
 21
       12.780446
 31
        0.000000
  0
LINE
  8
1
  6
CONTINUOUS
 10
       65.364683
 20
       12.721141
 30
        0.000000
 11
       65.532535
 21
       12.747580
 31
        0.000000
  0
LINE
  8
1
  6
CONTINUOUS
 10
       63.213270
 20
       13.110734
 30
        0.000000
 11
       63.316405
 21
       13.044485
 31
        0.000000
  0
LINE
  8
1
  6
CONTINUOUS
 10
       63.116443
 20
       13.187273
 30
        0.000000
 11
       63.213270
 21
       13.110734
 31
        0.000000
  0
LINE
  8
1
  6
CONTINUOUS
 10
       63.038260
 20
       13.264352
 30
        0.000000
 11
       63.116443
 21
       13.187273
 31
        0.000000
  0
LINE
  8
1
  6
CONTINUOUS
 10
       62.969109
 20
       13.345252
 30
        0.000000
 11
       63.038260
 21
       13.264352
 31
        0.000000
  0
LINE
  8
1
  6
CONTINUOUS
 10
       62.917853
 20
       13.419090
 30
        0.000000
 11
       62.969109
 21
       13.345252
 31
        0.000000
  0
LINE
  8
1
  6
CONTINUOUS
 10
       62.878879
 20
       13.513624
 30
        0.000000
 11
       62.917853
 21
       13.419090
 31
        0.000000
  0
LINE
  8
1
  6
CONTINUOUS
 10
       63.316405
 20
       13.044485
 30
        0.000000
 11
       63.437500
 21
       12.978774
 31
        0.000000
  0
LINE
  8
1
  6
CONTINUOUS
 10
       62.848494
 20
       13.687273
 30
        0.000000
 11
       62.856351
 21
       13.622582
 31
        0.000000
  0
LINE
  8
1
  6
CONTINUOUS
 10
       62.856351
 20
       13.622582
 30
        0.000000
 11
       62.878879
 21
       13.513624
 31
        0.000000
  0
LINE
  8
1
  6
CONTINUOUS
 10
       63.437500
 20
       12.978774
 30
        0.000000
 11
       63.562919
 21
       12.921228
 31
        0.000000
  0
LINE
  8
1
  6
CONTINUOUS
 10
       66.380583
 20
       13.044485
 30
        0.000000
 11
       66.483719
 21
       13.110734
 31
        0.000000
  0
LINE
  8
1
  6
CONTINUOUS
 10
       66.801793
 20
       16.472432
 30
        0.000000
 11
       66.832448
 21
       16.559718
 31
        0.000000
  0
LINE
  8
1
  6
CONTINUOUS
 10
       66.753370
 20
       16.382722
 30
        0.000000
 11
       66.801793
 21
       16.472432
 31
        0.000000
  0
LINE
  8
1
  6
CONTINUOUS
 10
       66.692869
 20
       16.300529
 30
        0.000000
 11
       66.753370
 21
       16.382722
 31
        0.000000
  0
LINE
  8
1
  6
CONTINUOUS
 10
       66.612817
 20
       16.216225
 30
        0.000000
 11
       66.692869
 21
       16.300529
 31
        0.000000
  0
LINE
  8
1
  6
CONTINUOUS
 10
       66.523973
 20
       16.141202
 30
        0.000000
 11
       66.612817
 21
       16.216225
 31
        0.000000
  0
LINE
  8
1
  6
CONTINUOUS
 10
       66.415264
 20
       16.065720
 30
        0.000000
 11
       66.523973
 21
       16.141202
 31
        0.000000
  0
LINE
  8
1
  6
CONTINUOUS
 10
       66.591517
 20
       17.253610
 30
        0.000000
 11
       66.571908
 21
       17.317509
 31
        0.000000
  0
LINE
  8
1
  6
CONTINUOUS
 10
       66.656343
 20
       17.111357
 30
        0.000000
 11
       66.598119
 21
       17.171735
 31
        0.000000
  0
LINE
  8
1
  6
CONTINUOUS
 10
       66.743681
 20
       17.006751
 30
        0.000000
 11
       66.656343
 21
       17.111357
 31
        0.000000
  0
LINE
  8
1
  6
CONTINUOUS
 10
       66.796867
 20
       16.918316
 30
        0.000000
 11
       66.743681
 21
       17.006751
 31
        0.000000
  0
LINE
  8
1
  6
CONTINUOUS
 10
       66.827619
 20
       16.831379
 30
        0.000000
 11
       66.796867
 21
       16.918316
 31
        0.000000
  0
LINE
  8
1
  6
CONTINUOUS
 10
       66.844292
 20
       16.743154
 30
        0.000000
 11
       66.827619
 21
       16.831379
 31
        0.000000
  0
LINE
  8
1
  6
CONTINUOUS
 10
       66.847201
 20
       16.651321
 30
        0.000000
 11
       66.844292
 21
       16.743154
 31
        0.000000
  0
LINE
  8
1
  6
CONTINUOUS
 10
       66.591517
 20
       17.120935
 30
        0.000000
 11
       66.598494
 21
       17.187273
 31
        0.000000
  0
LINE
  8
1
  6
CONTINUOUS
 10
       66.571908
 20
       17.057036
 30
        0.000000
 11
       66.591517
 21
       17.120935
 31
        0.000000
  0
LINE
  8
1
  6
CONTINUOUS
 10
       66.537465
 20
       16.990796
 30
        0.000000
 11
       66.571908
 21
       17.057036
 31
        0.000000
  0
LINE
  8
1
  6
CONTINUOUS
 10
       66.492956
 20
       16.930757
 30
        0.000000
 11
       66.537465
 21
       16.990796
 31
        0.000000
  0
LINE
  8
1
  6
CONTINUOUS
 10
       66.431791
 20
       16.867933
 30
        0.000000
 11
       66.492956
 21
       16.930757
 31
        0.000000
  0
LINE
  8
1
  6
CONTINUOUS
 10
       66.598494
 20
       17.187273
 30
        0.000000
 11
       66.591517
 21
       17.253610
 31
        0.000000
  0
LINE
  8
1
  6
CONTINUOUS
 10
       66.492956
 20
       17.443788
 30
        0.000000
 11
       66.431791
 21
       17.506613
 31
        0.000000
  0
LINE
  8
1
  6
CONTINUOUS
 10
       66.537465
 20
       17.383749
 30
        0.000000
 11
       66.492956
 21
       17.443788
 31
        0.000000
  0
LINE
  8
1
  6
CONTINUOUS
 10
       66.571908
 20
       17.317509
 30
        0.000000
 11
       66.537465
 21
       17.383749
 31
        0.000000
  0
LINE
  8
1
  6
CONTINUOUS
 10
       66.832448
 20
       16.559718
 30
        0.000000
 11
       66.847201
 21
       16.651321
 31
        0.000000
  0
LINE
  8
1
  6
CONTINUOUS
 10
       65.206586
 20
       15.703426
 30
        0.000000
 11
       65.383602
 21
       15.723730
 31
        0.000000
  0
LINE
  8
1
  6
CONTINUOUS
 10
       65.152379
 20
       16.448667
 30
        0.000000
 11
       65.438993
 21
       16.481516
 31
        0.000000
  0
LINE
  8
1
  6
CONTINUOUS
 10
       64.143897
 20
       15.751376
 30
        0.000000
 11
       64.313386
 21
       15.723730
 31
        0.000000
  0
LINE
  8
1
  6
CONTINUOUS
 10
       64.257996
 20
       16.481516
 30
        0.000000
 11
       64.544610
 21
       16.448667
 31
        0.000000
  0
LINE
  8
1
  6
CONTINUOUS
 10
       63.976002
 20
       15.787445
 30
        0.000000
 11
       64.143897
 21
       15.751376
 31
        0.000000
  0
LINE
  8
1
  6
CONTINUOUS
 10
       63.820179
 20
       15.829565
 30
        0.000000
 11
       63.976002
 21
       15.787445
 31
        0.000000
  0
LINE
  8
1
  6
CONTINUOUS
 10
       63.666988
 20
       15.880420
 30
        0.000000
 11
       63.820179
 21
       15.829565
 31
        0.000000
  0
LINE
  8
1
  6
CONTINUOUS
 10
       63.529676
 20
       15.935465
 30
        0.000000
 11
       63.666988
 21
       15.880420
 31
        0.000000
  0
LINE
  8
1
  6
CONTINUOUS
 10
       63.973494
 20
       16.537753
 30
        0.000000
 11
       64.257996
 21
       16.481516
 31
        0.000000
  0
LINE
  8
1
  6
CONTINUOUS
 10
       65.028818
 20
       15.691345
 30
        0.000000
 11
       65.206586
 21
       15.703426
 31
        0.000000
  0
LINE
  8
1
  6
CONTINUOUS
 10
       64.848494
 20
       15.687267
 30
        0.000000
 11
       65.028818
 21
       15.691345
 31
        0.000000
  0
LINE
  8
1
  6
CONTINUOUS
 10
       64.668170
 20
       15.691345
 30
        0.000000
 11
       64.848494
 21
       15.687267
 31
        0.000000
  0
LINE
  8
1
  6
CONTINUOUS
 10
       64.490402
 20
       15.703426
 30
        0.000000
 11
       64.668170
 21
       15.691345
 31
        0.000000
  0
LINE
  8
1
  6
CONTINUOUS
 10
       64.313386
 20
       15.723730
 30
        0.000000
 11
       64.490402
 21
       15.703426
 31
        0.000000
  0
LINE
  8
1
  6
CONTINUOUS
 10
       65.000623
 20
       16.440096
 30
        0.000000
 11
       65.152379
 21
       16.448667
 31
        0.000000
  0
LINE
  8
1
  6
CONTINUOUS
 10
       64.848494
 20
       16.437273
 30
        0.000000
 11
       65.000623
 21
       16.440096
 31
        0.000000
  0
LINE
  8
1
  6
CONTINUOUS
 10
       64.696366
 20
       16.440096
 30
        0.000000
 11
       64.848494
 21
       16.437273
 31
        0.000000
  0
LINE
  8
1
  6
CONTINUOUS
 10
       64.544610
 20
       16.448667
 30
        0.000000
 11
       64.696366
 21
       16.440096
 31
        0.000000
  0
LINE
  8
1
  6
CONTINUOUS
 10
       66.167313
 20
       15.935465
 30
        0.000000
 11
       66.300595
 21
       15.999631
 31
        0.000000
  0
LINE
  8
1
  6
CONTINUOUS
 10
       66.030000
 20
       15.880420
 30
        0.000000
 11
       66.167313
 21
       15.935465
 31
        0.000000
  0
LINE
  8
1
  6
CONTINUOUS
 10
       65.876809
 20
       15.829565
 30
        0.000000
 11
       66.030000
 21
       15.880420
 31
        0.000000
  0
LINE
  8
1
  6
CONTINUOUS
 10
       65.720987
 20
       15.787445
 30
        0.000000
 11
       65.876809
 21
       15.829565
 31
        0.000000
  0
LINE
  8
1
  6
CONTINUOUS
 10
       65.553091
 20
       15.751376
 30
        0.000000
 11
       65.720987
 21
       15.787445
 31
        0.000000
  0
LINE
  8
1
  6
CONTINUOUS
 10
       65.383602
 20
       15.723730
 30
        0.000000
 11
       65.553091
 21
       15.751376
 31
        0.000000
  0
LINE
  8
1
  6
CONTINUOUS
 10
       65.438993
 20
       16.481516
 30
        0.000000
 11
       65.723494
 21
       16.537753
 31
        0.000000
  0
LINE
  8
1
  6
CONTINUOUS
 10
       63.173016
 20
       16.141202
 30
        0.000000
 11
       63.281724
 21
       16.065720
 31
        0.000000
  0
LINE
  8
1
  6
CONTINUOUS
 10
       63.084171
 20
       16.216225
 30
        0.000000
 11
       63.173016
 21
       16.141202
 31
        0.000000
  0
LINE
  8
1
  6
CONTINUOUS
 10
       63.004119
 20
       16.300529
 30
        0.000000
 11
       63.084171
 21
       16.216225
 31
        0.000000
  0
LINE
  8
1
  6
CONTINUOUS
 10
       62.943619
 20
       16.382722
 30
        0.000000
 11
       63.004119
 21
       16.300529
 31
        0.000000
  0
LINE
  8
1
  6
CONTINUOUS
 10
       62.895196
 20
       16.472432
 30
        0.000000
 11
       62.943619
 21
       16.382722
 31
        0.000000
  0
LINE
  8
1
  6
CONTINUOUS
 10
       62.864540
 20
       16.559718
 30
        0.000000
 11
       62.895196
 21
       16.472432
 31
        0.000000
  0
LINE
  8
1
  6
CONTINUOUS
 10
       63.281724
 20
       16.065720
 30
        0.000000
 11
       63.396393
 21
       15.999631
 31
        0.000000
  0
LINE
  8
1
  6
CONTINUOUS
 10
       63.396393
 20
       15.999631
 30
        0.000000
 11
       63.529676
 21
       15.935465
 31
        0.000000
  0
LINE
  8
1
  6
CONTINUOUS
 10
       66.059482
 20
       16.643377
 30
        0.000000
 11
       66.364039
 21
       16.812273
 31
        0.000000
  0
LINE
  8
1
  6
CONTINUOUS
 10
       65.438993
 20
       17.893029
 30
        0.000000
 11
       65.152379
 21
       17.925878
 31
        0.000000
  0
LINE
  8
1
  6
CONTINUOUS
 10
       64.544610
 20
       17.925878
 30
        0.000000
 11
       64.257996
 21
       17.893029
 31
        0.000000
  0
LINE
  8
1
  6
CONTINUOUS
 10
       63.973494
 20
       17.836792
 30
        0.000000
 11
       63.637507
 21
       17.731168
 31
        0.000000
  0
LINE
  8
1
  6
CONTINUOUS
 10
       64.257996
 20
       17.893029
 30
        0.000000
 11
       63.973494
 21
       17.836792
 31
        0.000000
  0
LINE
  8
1
  6
CONTINUOUS
 10
       64.696366
 20
       17.934449
 30
        0.000000
 11
       64.544610
 21
       17.925878
 31
        0.000000
  0
LINE
  8
1
  6
CONTINUOUS
 10
       64.848494
 20
       17.937273
 30
        0.000000
 11
       64.696366
 21
       17.934449
 31
        0.000000
  0
LINE
  8
1
  6
CONTINUOUS
 10
       65.000623
 20
       17.934449
 30
        0.000000
 11
       64.848494
 21
       17.937273
 31
        0.000000
  0
LINE
  8
1
  6
CONTINUOUS
 10
       65.152379
 20
       17.925878
 30
        0.000000
 11
       65.000623
 21
       17.934449
 31
        0.000000
  0
LINE
  8
1
  6
CONTINUOUS
 10
       65.723494
 20
       17.836792
 30
        0.000000
 11
       65.438993
 21
       17.893029
 31
        0.000000
  0
LINE
  8
1
  6
CONTINUOUS
 10
       66.059482
 20
       17.731168
 30
        0.000000
 11
       65.723494
 21
       17.836792
 31
        0.000000
  0
LINE
  8
1
  6
CONTINUOUS
 10
       66.364039
 20
       17.562273
 30
        0.000000
 11
       66.059482
 21
       17.731168
 31
        0.000000
  0
LINE
  8
1
  6
CONTINUOUS
 10
       63.125081
 20
       17.317509
 30
        0.000000
 11
       63.105471
 21
       17.253610
 31
        0.000000
  0
LINE
  8
1
  6
CONTINUOUS
 10
       63.204032
 20
       16.930757
 30
        0.000000
 11
       63.265197
 21
       16.867933
 31
        0.000000
  0
LINE
  8
1
  6
CONTINUOUS
 10
       62.852697
 20
       16.743154
 30
        0.000000
 11
       62.849787
 21
       16.651321
 31
        0.000000
  0
LINE
  8
1
  6
CONTINUOUS
 10
       62.869370
 20
       16.831379
 30
        0.000000
 11
       62.852697
 21
       16.743154
 31
        0.000000
  0
LINE
  8
1
  6
CONTINUOUS
 10
       62.900121
 20
       16.918316
 30
        0.000000
 11
       62.869370
 21
       16.831379
 31
        0.000000
  0
LINE
  8
1
  6
CONTINUOUS
 10
       62.953307
 20
       17.006751
 30
        0.000000
 11
       62.900121
 21
       16.918316
 31
        0.000000
  0
LINE
  8
1
  6
CONTINUOUS
 10
       63.040645
 20
       17.111357
 30
        0.000000
 11
       62.953307
 21
       17.006751
 31
        0.000000
  0
LINE
  8
1
  6
CONTINUOUS
 10
       63.098870
 20
       17.171735
 30
        0.000000
 11
       63.040645
 21
       17.111357
 31
        0.000000
  0
LINE
  8
1
  6
CONTINUOUS
 10
       63.159523
 20
       16.990796
 30
        0.000000
 11
       63.204032
 21
       16.930757
 31
        0.000000
  0
LINE
  8
1
  6
CONTINUOUS
 10
       63.125081
 20
       17.057036
 30
        0.000000
 11
       63.159523
 21
       16.990796
 31
        0.000000
  0
LINE
  8
1
  6
CONTINUOUS
 10
       63.105471
 20
       17.120935
 30
        0.000000
 11
       63.125081
 21
       17.057036
 31
        0.000000
  0
LINE
  8
1
  6
CONTINUOUS
 10
       63.098494
 20
       17.187273
 30
        0.000000
 11
       63.105471
 21
       17.120935
 31
        0.000000
  0
LINE
  8
1
  6
CONTINUOUS
 10
       63.105471
 20
       17.253610
 30
        0.000000
 11
       63.098494
 21
       17.187273
 31
        0.000000
  0
LINE
  8
1
  6
CONTINUOUS
 10
       63.265197
 20
       16.867933
 30
        0.000000
 11
       63.332950
 21
       16.812273
 31
        0.000000
  0
LINE
  8
1
  6
CONTINUOUS
 10
       63.265197
 20
       17.506613
 30
        0.000000
 11
       63.204032
 21
       17.443788
 31
        0.000000
  0
LINE
  8
1
  6
CONTINUOUS
 10
       63.159523
 20
       17.383749
 30
        0.000000
 11
       63.125081
 21
       17.317509
 31
        0.000000
  0
LINE
  8
1
  6
CONTINUOUS
 10
       63.204032
 20
       17.443788
 30
        0.000000
 11
       63.159523
 21
       17.383749
 31
        0.000000
  0
LINE
  8
1
  6
CONTINUOUS
 10
       63.332950
 20
       17.562273
 30
        0.000000
 11
       63.265197
 21
       17.506613
 31
        0.000000
  0
LINE
  8
1
  6
CONTINUOUS
 10
       63.332950
 20
       16.812273
 30
        0.000000
 11
       63.637507
 21
       16.643377
 31
        0.000000
  0
LINE
  8
1
  6
CONTINUOUS
 10
       63.637507
 20
       17.731168
 30
        0.000000
 11
       63.332950
 21
       17.562273
 31
        0.000000
  0
LINE
  8
1
  6
CONTINUOUS
 10
       62.849787
 20
       16.651321
 30
        0.000000
 11
       62.864540
 21
       16.559718
 31
        0.000000
  0
LINE
  8
1
  6
CONTINUOUS
 10
       63.637507
 20
       16.643377
 30
        0.000000
 11
       63.973494
 21
       16.537753
 31
        0.000000
  0
LINE
  8
1
  6
CONTINUOUS
 10
       65.723494
 20
       16.537753
 30
        0.000000
 11
       66.059482
 21
       16.643377
 31
        0.000000
  0
LINE
  8
1
  6
CONTINUOUS
 10
       66.300595
 20
       15.999631
 30
        0.000000
 11
       66.415264
 21
       16.065720
 31
        0.000000
  0
LINE
  8
1
  6
CONTINUOUS
 10
       66.364039
 20
       16.812273
 30
        0.000000
 11
       66.431791
 21
       16.867933
 31
        0.000000
  0
LINE
  8
1
  6
CONTINUOUS
 10
       66.431791
 20
       17.506613
 30
        0.000000
 11
       66.364039
 21
       17.562273
 31
        0.000000
  0
LINE
  8
1
  6
CONTINUOUS
 10
       63.048494
 20
       13.251383
 30
        0.000000
 11
       63.048494
 21
       16.251383
 31
        0.000000
  0
LINE
  8
1
  6
CONTINUOUS
 10
       62.848494
 20
       16.687273
 30
        0.000000
 11
       62.848494
 21
       13.687273
 31
        0.000000
  0
LINE
  8
1
  6
CONTINUOUS
 10
       64.848494
 20
       12.687273
 30
        0.000000
 11
       64.848494
 21
       15.687273
 31
        0.000000
  0
LINE
  8
1
  6
CONTINUOUS
 10
       63.448494
 20
       12.973130
 30
        0.000000
 11
       63.448494
 21
       15.973130
 31
        0.000000
  0
LINE
  8
1
  6
CONTINUOUS
 10
       64.048494
 20
       12.770757
 30
        0.000000
 11
       64.048494
 21
       15.770757
 31
        0.000000
  0
LINE
  8
1
  6
CONTINUOUS
 10
       65.648494
 20
       12.770757
 30
        0.000000
 11
       65.648494
 21
       15.770757
 31
        0.000000
  0
LINE
  8
1
  6
CONTINUOUS
 10
       66.248494
 20
       12.973130
 30
        0.000000
 11
       66.248494
 21
       15.973130
 31
        0.000000
  0
LINE
  8
1
  6
CONTINUOUS
 10
       66.648494
 20
       13.251383
 30
        0.000000
 11
       66.648494
 21
       16.251383
 31
        0.000000
  0
LINE
  8
1
  6
CONTINUOUS
 10
       66.848494
 20
       16.687273
 30
        0.000000
 11
       66.848494
 21
       13.687273
 31
        0.000000
  0
LINE
  8
1
  6
CONTINUOUS
 10
       63.098494
 20
      -14.700000
 30
        0.000000
 11
       66.598494
 21
      -14.700000
 31
        0.000000
  0
LINE
  8
1
  6
CONTINUOUS
 10
       66.698494
 20
      -14.700000
 30
        0.000000
 11
       70.698494
 21
      -14.700000
 31
        0.000000
  0
LINE
  8
1
  6
CONTINUOUS
 10
       77.898494
 20
      -14.700000
 30
        0.000000
 11
       74.098494
 21
      -14.700000
 31
        0.000000
  0
LINE
  8
1
  6
CONTINUOUS
 10
       78.398494
 20
      -14.200000
 30
        0.000000
 11
       77.898494
 21
      -14.700000
 31
        0.000000
  0
LINE
  8
1
  6
CONTINUOUS
 10
       73.248494
 20
       15.250000
 30
        0.000000
 11
       73.248494
 21
       16.250000
 31
        0.000000
  0
LINE
  8
1
  6
CONTINUOUS
 10
       73.070494
 20
       15.250000
 30
        0.000000
 11
       73.070494
 21
       16.250000
 31
        0.000000
  0
LINE
  8
1
  6
CONTINUOUS
 10
       73.898494
 20
       20.250000
 30
        0.000000
 11
       74.398494
 21
       19.750000
 31
        0.000000
  0
LINE
  8
1
  6
CONTINUOUS
 10
       72.398494
 20
       16.250000
 30
        0.000000
 11
       72.398494
 21
       19.750000
 31
        0.000000
  0
LINE
  8
1
  6
CONTINUOUS
 10
       74.398494
 20
       19.750000
 30
        0.000000
 11
       74.398494
 21
       16.250000
 31
        0.000000
  0
LINE
  8
1
  6
CONTINUOUS
 10
       74.198494
 20
       16.250000
 30
        0.000000
 11
       74.198494
 21
       19.750000
 31
        0.000000
  0
LINE
  8
1
  6
CONTINUOUS
 10
       73.798494
 20
       16.250000
 30
        0.000000
 11
       73.798494
 21
       19.750000
 31
        0.000000
  0
LINE
  8
1
  6
CONTINUOUS
 10
       73.198494
 20
       16.250000
 30
        0.000000
 11
       73.198494
 21
       19.750000
 31
        0.000000
  0
LINE
  8
1
  6
CONTINUOUS
 10
       71.726494
 20
       15.250000
 30
        0.000000
 11
       71.726494
 21
       16.250000
 31
        0.000000
  0
LINE
  8
1
  6
CONTINUOUS
 10
       71.548494
 20
       15.250000
 30
        0.000000
 11
       71.548494
 21
       16.250000
 31
        0.000000
  0
LINE
  8
1
  6
CONTINUOUS
 10
       70.898494
 20
       20.250000
 30
        0.000000
 11
       70.398494
 21
       19.750000
 31
        0.000000
  0
LINE
  8
1
  6
CONTINUOUS
 10
       70.398494
 20
       19.750000
 30
        0.000000
 11
       70.398494
 21
       16.250000
 31
        0.000000
  0
LINE
  8
1
  6
CONTINUOUS
 10
       70.598494
 20
       16.250000
 30
        0.000000
 11
       70.598494
 21
       19.750000
 31
        0.000000
  0
LINE
  8
1
  6
CONTINUOUS
 10
       70.998494
 20
       16.250000
 30
        0.000000
 11
       70.998494
 21
       19.750000
 31
        0.000000
  0
LINE
  8
1
  6
CONTINUOUS
 10
       71.598494
 20
       16.250000
 30
        0.000000
 11
       71.598494
 21
       19.750000
 31
        0.000000
  0
LINE
  8
1
  6
CONTINUOUS
 10
       74.398494
 20
       16.250000
 30
        0.000000
 11
       70.398494
 21
       16.250000
 31
        0.000000
  0
LINE
  8
1
  6
CONTINUOUS
 10
       70.398494
 20
       19.750000
 30
        0.000000
 11
       74.398494
 21
       19.750000
 31
        0.000000
  0
LINE
  8
1
  6
CONTINUOUS
 10
       82.398494
 20
       12.200000
 30
        0.000000
 11
       81.898494
 21
       12.700000
 31
        0.000000
  0
LINE
  8
1
  6
CONTINUOUS
 10
       79.398494
 20
       12.200000
 30
        0.000000
 11
       78.398494
 21
       12.200000
 31
        0.000000
  0
LINE
  8
1
  6
CONTINUOUS
 10
       81.898494
 20
       12.700000
 30
        0.000000
 11
       79.398494
 21
       12.700000
 31
        0.000000
  0
LINE
  8
1
  6
CONTINUOUS
 10
       82.398494
 20
       12.200000
 30
        0.000000
 11
       79.398494
 21
       12.200000
 31
        0.000000
  0
LINE
  8
1
  6
CONTINUOUS
 10
       78.398494
 20
       14.200000
 30
        0.000000
 11
       77.898494
 21
       14.700000
 31
        0.000000
  0
LINE
  8
1
  6
CONTINUOUS
 10
       74.098494
 20
       14.750000
 30
        0.000000
 11
       73.598494
 21
       15.250000
 31
        0.000000
  0
LINE
  8
1
  6
CONTINUOUS
 10
       70.698494
 20
       14.750000
 30
        0.000000
 11
       71.198494
 21
       15.250000
 31
        0.000000
  0
LINE
  8
1
  6
CONTINUOUS
 10
       71.198494
 20
       15.000000
 30
        0.000000
 11
       73.598494
 21
       15.000000
 31
        0.000000
  0
LINE
  8
1
  6
CONTINUOUS
 10
       71.198494
 20
       14.500000
 30
        0.000000
 11
       73.598494
 21
       14.500000
 31
        0.000000
  0
LINE
  8
1
  6
CONTINUOUS
 10
       71.198494
 20
       15.250000
 30
        0.000000
 11
       73.598494
 21
       15.250000
 31
        0.000000
  0
LINE
  8
1
  6
CONTINUOUS
 10
       60.098494
 20
       15.500000
 30
        0.000000
 11
       59.598494
 21
       16.000000
 31
        0.000000
  0
LINE
  8
1
  6
CONTINUOUS
 10
       60.098494
 20
       15.375000
 30
        0.000000
 11
       62.848494
 21
       15.375000
 31
        0.000000
  0
LINE
  8
1
  6
CONTINUOUS
 10
       66.848494
 20
       14.700000
 30
        0.000000
 11
       70.698494
 21
       14.700000
 31
        0.000000
  0
LINE
  8
1
  6
CONTINUOUS
 10
       71.198494
 20
        4.000000
 30
        0.000000
 11
       73.598494
 21
        4.000000
 31
        0.000000
  0
LINE
  8
1
  6
CONTINUOUS
 10
       71.198494
 20
        3.000000
 30
        0.000000
 11
       73.598494
 21
        3.000000
 31
        0.000000
  0
LINE
  8
1
  6
CONTINUOUS
 10
       71.198494
 20
       13.750000
 30
        0.000000
 11
       73.598494
 21
       13.750000
 31
        0.000000
  0
LINE
  8
1
  6
CONTINUOUS
 10
       71.198494
 20
       13.000000
 30
        0.000000
 11
       73.598494
 21
       13.000000
 31
        0.000000
  0
LINE
  8
1
  6
CONTINUOUS
 10
       71.198494
 20
       12.000000
 30
        0.000000
 11
       73.598494
 21
       12.000000
 31
        0.000000
  0
LINE
  8
1
  6
CONTINUOUS
 10
       71.198494
 20
       11.000000
 30
        0.000000
 11
       73.598494
 21
       11.000000
 31
        0.000000
  0
LINE
  8
1
  6
CONTINUOUS
 10
       71.198494
 20
       10.000000
 30
        0.000000
 11
       73.598494
 21
       10.000000
 31
        0.000000
  0
LINE
  8
1
  6
CONTINUOUS
 10
       71.198494
 20
        9.000000
 30
        0.000000
 11
       73.598494
 21
        9.000000
 31
        0.000000
  0
LINE
  8
1
  6
CONTINUOUS
 10
       71.198494
 20
        8.000000
 30
        0.000000
 11
       73.598494
 21
        8.000000
 31
        0.000000
  0
LINE
  8
1
  6
CONTINUOUS
 10
       71.198494
 20
        7.000000
 30
        0.000000
 11
       73.598494
 21
        7.000000
 31
        0.000000
  0
LINE
  8
1
  6
CONTINUOUS
 10
       71.198494
 20
        6.000000
 30
        0.000000
 11
       73.598494
 21
        6.000000
 31
        0.000000
  0
LINE
  8
1
  6
CONTINUOUS
 10
       71.198494
 20
        5.000000
 30
        0.000000
 11
       73.598494
 21
        5.000000
 31
        0.000000
  0
LINE
  8
1
  6
CONTINUOUS
 10
       71.198494
 20
       -8.000000
 30
        0.000000
 11
       73.598494
 21
       -8.000000
 31
        0.000000
  0
LINE
  8
1
  6
CONTINUOUS
 10
       71.198494
 20
       -7.000000
 30
        0.000000
 11
       73.598494
 21
       -7.000000
 31
        0.000000
  0
LINE
  8
1
  6
CONTINUOUS
 10
       71.198494
 20
       -6.000000
 30
        0.000000
 11
       73.598494
 21
       -6.000000
 31
        0.000000
  0
LINE
  8
1
  6
CONTINUOUS
 10
       71.198494
 20
       -5.000000
 30
        0.000000
 11
       73.598494
 21
       -5.000000
 31
        0.000000
  0
LINE
  8
1
  6
CONTINUOUS
 10
       71.198494
 20
       -4.000000
 30
        0.000000
 11
       73.598494
 21
       -4.000000
 31
        0.000000
  0
LINE
  8
1
  6
CONTINUOUS
 10
       71.198494
 20
       -3.000000
 30
        0.000000
 11
       73.598494
 21
       -3.000000
 31
        0.000000
  0
LINE
  8
1
  6
CONTINUOUS
 10
       71.198494
 20
        2.000000
 30
        0.000000
 11
       73.598494
 21
        2.000000
 31
        0.000000
  0
LINE
  8
1
  6
CONTINUOUS
 10
       71.198494
 20
       -2.000000
 30
        0.000000
 11
       73.598494
 21
       -2.000000
 31
        0.000000
  0
LINE
  8
1
  6
CONTINUOUS
 10
       71.198494
 20
        1.000000
 30
        0.000000
 11
       73.598494
 21
        1.000000
 31
        0.000000
  0
LINE
  8
1
  6
CONTINUOUS
 10
       71.198494
 20
       -1.000000
 30
        0.000000
 11
       73.598494
 21
       -1.000000
 31
        0.000000
  0
LINE
  8
1
  6
CONTINUOUS
 10
       71.198494
 20
        0.000000
 30
        0.000000
 11
       73.598494
 21
        0.000000
 31
        0.000000
  0
ENDSEC
  0
EOF
