  0
SECTION
  2
HEADER
  9
$ACADVER
  1
AC1006
  9
$INSBASE
 10
0.0
 20
0.0
 30
0.0
  9
$EXTMIN
 10
      -72.599304
 20
      -72.599304
  9
$EXTMAX
 10
      118.169426
 20
      106.078697
  9
$LIMMIN
 10
      -72.599304
 20
      -72.599304
  9
$LIMMAX
 10
      118.169426
 20
      106.078697
  9
$VIEWCTR
 10
       22.785061
 20
       22.785061
  9
$ORTHOMODE
 70
     0
  9
$ANGBASE
 50
0.0
  9
$ANGDIR
 70
     0
  9
$SPLINETYPE
 70
     6
  9
$SPLINESEGS
 70
     8
9
$DIMASZ
 40
        2.500000
9
$DIMEXE
 40
        0.500000
9
$DIMEXO
 40
        1.000000
9
$DIMTXT
 40
        2.500000
9
$DIMGAP
 40
        0.500000
9
$DIMTAD
 70
1
9
$DIMTIH
 70
0
9
$DIMTOH
 70
0
  0
ENDSEC
  0
SECTION
  2
TABLES
  0
TABLE
  2
LTYPE
 70
     5
  0
LTYPE
  2
CONTINUOUS
 70
    64
  3
SOLID LINE
 72
    65
 73
     0
 40
0.0
  0
LTYPE
  2
DASHED
 70
    64
  3
-- -- -- -- -- --
 72
    65
 73
     2
 40
  0.75  
 49
  0.50  
 49
 -0.25  
  0
LTYPE
  2
DOT
 70
    64
  3
....................
 72
    65
 73
     2
 40
  0.25  
 49
  0.02  
 49
 -0.23  
  0
LTYPE
  2
CENTER
 70
    64
  3
-- . -- . -- . -- .
 72
    65
 73
    4
 40
  2.00  
 49
  1.25  
 49
 -0.25  
 49
  0.25  
 49
 -0.25  
  0
LTYPE
  2
PHANTOM
 70
    64
  3
-- .. -- .. -- ..
 72
    65
 73
    6
 40
  2.50  
 49
  1.25  
 49
 -0.25  
 49
  0.25  
 49
 -0.25  
 49
  0.25  
 49
 -0.25  
  0
ENDTAB
  0
TABLE
  2
LAYER
 70
     3
  0
LAYER
  2
0
 70
    64
 62
     2
  6
CONTINUOUS
  0
LAYER
  2
1
 70
    64
 62
     3
  6
CONTINUOUS
  0
LAYER
  2
2
 70
    64
 62
     2
  6
CONTINUOUS
  0
ENDTAB
  0
TABLE
  2
STYLE
 70
     2
  0
STYLE
  2
STANDARD
 70
    64
 40
0.0
 41
1.0
 50
0.0
 71
     0
 42
5.0
  3
ROMANS
  4
BIGFONT
  0
STYLE
  2
BIGFONT
 70
    64
 40
0.0
 41
1.0
 50
0.0
 71
     0
 42
5.0
  3
ROMANS
  4
BIGFONT
  0
ENDTAB
  0
TABLE
  2
VIEW
 70
     0
  0
ENDTAB
  0
TABLE
  2
UCS
 70
     0
  0
ENDTAB
  0
TABLE
  2
DWGMGR
 70
     0
  0
ENDTAB
  0
ENDSEC
  0
SECTION
  2
BLOCKS
  0
BLOCK
  8
0
  2
BLK0001
 70
    64
 10
        0.000000
 20
        0.000000
  0
TEXT
  8
0
 10
      107.693609
 20
      -70.752899
 30
        0.000000
 40
        2.000000
  1
５
 50
        0.000000
 41
        1.000000
 51
        0.000000
  7
BIGFONT
  0
LINE
  8
0
 62
  3
 10
      106.193609
 20
      -64.949570
 30
        0.000000
 11
      106.193609
 21
      -71.752899
 31
        0.000000
  0
LINE
  8
0
 62
  3
 10
      111.193609
 20
      -64.949570
 30
        0.000000
 11
      111.193609
 21
      -71.752899
 31
        0.000000
  0
LINE
  8
0
 62
  3
 10
      104.193609
 20
      -71.776497
 30
        0.000000
 11
      106.193609
 21
      -71.252899
 31
        0.000000
  0
LINE
  8
0
 62
  3
 10
      106.193609
 20
      -71.252899
 30
        0.000000
 11
      104.193609
 21
      -70.729301
 31
        0.000000
  0
LINE
  8
0
 62
  3
 10
      113.193609
 20
      -70.729301
 30
        0.000000
 11
      111.193609
 21
      -71.252899
 31
        0.000000
  0
LINE
  8
0
 62
  3
 10
      111.193609
 20
      -71.252899
 30
        0.000000
 11
      113.193609
 21
      -71.776497
 31
        0.000000
  0
LINE
  8
0
 62
  3
 10
      101.193609
 20
      -71.252899
 30
        0.000000
 11
      116.193609
 21
      -71.252899
 31
        0.000000
  0
ENDBLK
  0
BLOCK
  8
0
  2
BLK0002
 70
    64
 10
        0.000000
 20
        0.000000
  0
TEXT
  8
0
 10
       46.544415
 20
      -23.587418
 30
        0.000000
 40
        2.200000
  1
４
 50
        0.000000
 41
        1.000000
 51
        0.000000
  7
BIGFONT
  0
LINE
  8
0
 62
  3
 10
       45.644417
 20
      -14.700000
 30
        0.000000
 11
       45.644417
 21
      -24.287418
 31
        0.000000
  0
LINE
  8
0
 62
  3
 10
       49.644417
 20
      -12.700000
 30
        0.000000
 11
       49.644417
 21
      -24.287418
 31
        0.000000
  0
LINE
  8
0
 62
  3
 10
       43.894417
 20
      -24.212307
 30
        0.000000
 11
       45.644417
 21
      -23.937418
 31
        0.000000
  0
LINE
  8
0
 62
  3
 10
       45.644417
 20
      -23.937418
 30
        0.000000
 11
       43.894417
 21
      -23.662529
 31
        0.000000
  0
LINE
  8
0
 62
  3
 10
       51.394417
 20
      -23.662529
 30
        0.000000
 11
       49.644417
 21
      -23.937418
 31
        0.000000
  0
LINE
  8
0
 62
  3
 10
       49.644417
 20
      -23.937418
 30
        0.000000
 11
       51.394417
 21
      -24.212307
 31
        0.000000
  0
LINE
  8
0
 62
  3
 10
       42.894417
 20
      -23.937418
 30
        0.000000
 11
       52.394417
 21
      -23.937418
 31
        0.000000
  0
ENDBLK
  0
BLOCK
  8
0
  2
BLK0003
 70
    64
 10
        0.000000
 20
        0.000000
  0
TEXT
  8
0
 10
       39.544415
 20
      -23.589905
 30
        0.000000
 40
        2.200000
  1
Ｌ
 50
        0.000000
 41
        1.000000
 51
        0.000000
  7
BIGFONT
  0
LINE
  8
0
 62
  3
 10
       45.644417
 20
      -14.700000
 30
        0.000000
 11
       45.644417
 21
      -24.289906
 31
        0.000000
  0
LINE
  8
0
 62
  3
 10
       35.644417
 20
      -15.000000
 30
        0.000000
 11
       35.644417
 21
      -24.289906
 31
        0.000000
  0
LINE
  8
0
 62
  3
 10
       43.894417
 20
      -24.214794
 30
        0.000000
 11
       45.644417
 21
      -23.939905
 31
        0.000000
  0
LINE
  8
0
 62
  3
 10
       45.644417
 20
      -23.939905
 30
        0.000000
 11
       43.894417
 21
      -23.665016
 31
        0.000000
  0
LINE
  8
0
 62
  3
 10
       37.394417
 20
      -23.665016
 30
        0.000000
 11
       35.644417
 21
      -23.939905
 31
        0.000000
  0
LINE
  8
0
 62
  3
 10
       35.644417
 20
      -23.939905
 30
        0.000000
 11
       37.394417
 21
      -24.214794
 31
        0.000000
  0
LINE
  8
0
 62
  3
 10
       45.644417
 20
      -23.939905
 30
        0.000000
 11
       35.644417
 21
      -23.939905
 31
        0.000000
  0
ENDBLK
  0
BLOCK
  8
0
  2
BLK0004
 70
    64
 10
        0.000000
 20
        0.000000
  0
TEXT
  8
0
 10
       78.060331
 20
       55.636070
 30
        0.000000
 40
        2.000000
  1
１
 50
        0.000000
 41
        1.000000
 51
        0.000000
  7
BIGFONT
  0
LINE
  8
0
 62
  3
 10
       74.451658
 20
       59.482429
 30
        0.000000
 11
       74.451658
 21
       54.636070
 31
        0.000000
  0
LINE
  8
0
 62
  3
 10
       75.451658
 20
       59.482429
 30
        0.000000
 11
       75.451658
 21
       54.636070
 31
        0.000000
  0
LINE
  8
0
 62
  3
 10
       72.451658
 20
       54.612465
 30
        0.000000
 11
       74.451658
 21
       55.136070
 31
        0.000000
  0
LINE
  8
0
 62
  3
 10
       74.451658
 20
       55.136070
 30
        0.000000
 11
       72.451658
 21
       55.659676
 31
        0.000000
  0
LINE
  8
0
 62
  3
 10
       77.451658
 20
       55.659676
 30
        0.000000
 11
       75.451658
 21
       55.136070
 31
        0.000000
  0
LINE
  8
0
 62
  3
 10
       75.451658
 20
       55.136070
 30
        0.000000
 11
       77.451658
 21
       54.612465
 31
        0.000000
  0
LINE
  8
0
 62
  3
 10
       80.451658
 20
       55.136070
 30
        0.000000
 11
       69.451658
 21
       55.136070
 31
        0.000000
  0
ENDBLK
  0
BLOCK
  8
0
  2
BLK0005
 70
    64
 10
        0.000000
 20
        0.000000
  0
TEXT
  8
0
 10
       36.389769
 20
       55.886513
 30
        0.000000
 40
        2.000000
  1
Ｌ
 50
        0.000000
 41
        1.000000
 51
        0.000000
  7
BIGFONT
  0
LINE
  8
0
 62
  3
 10
       33.381880
 20
       59.482429
 30
        0.000000
 11
       33.381880
 21
       54.886513
 31
        0.000000
  0
LINE
  8
0
 62
  3
 10
       34.381880
 20
       59.482429
 30
        0.000000
 11
       34.381880
 21
       54.886513
 31
        0.000000
  0
LINE
  8
0
 62
  3
 10
       31.381880
 20
       54.862907
 30
        0.000000
 11
       33.381880
 21
       55.386513
 31
        0.000000
  0
LINE
  8
0
 62
  3
 10
       33.381880
 20
       55.386513
 30
        0.000000
 11
       31.381880
 21
       55.910118
 31
        0.000000
  0
LINE
  8
0
 62
  3
 10
       36.381880
 20
       55.910118
 30
        0.000000
 11
       34.381880
 21
       55.386513
 31
        0.000000
  0
LINE
  8
0
 62
  3
 10
       34.381880
 20
       55.386513
 30
        0.000000
 11
       36.381880
 21
       54.862907
 31
        0.000000
  0
LINE
  8
0
 62
  3
 10
       39.381880
 20
       55.386513
 30
        0.000000
 11
       28.381880
 21
       55.386513
 31
        0.000000
  0
ENDBLK
  0
BLOCK
  8
0
  2
BLK0006
 70
    64
 10
        0.000000
 20
        0.000000
  0
TEXT
  8
0
 62
  5
 10
       -3.750000
 20
      -23.439905
 30
        0.000000
 40
        2.500000
  1
φ３０
 50
        0.000000
 41
        1.000000
 51
        0.000000
  7
BIGFONT
  0
LINE
  8
0
 62
  5
 10
       15.000000
 20
       -1.000000
 30
        0.000000
 11
       15.000000
 21
      -24.439905
 31
        0.000000
  0
LINE
  8
0
 62
  5
 10
      -15.000000
 20
       -1.000000
 30
        0.000000
 11
      -15.000000
 21
      -24.439905
 31
        0.000000
  0
LINE
  8
0
 62
  5
 10
       12.500000
 20
      -24.594404
 30
        0.000000
 11
       15.000000
 21
      -23.939905
 31
        0.000000
  0
LINE
  8
0
 62
  5
 10
       15.000000
 20
      -23.939905
 30
        0.000000
 11
       12.500000
 21
      -23.285406
 31
        0.000000
  0
LINE
  8
0
 62
  5
 10
      -12.500000
 20
      -23.285406
 30
        0.000000
 11
      -15.000000
 21
      -23.939905
 31
        0.000000
  0
LINE
  8
0
 62
  5
 10
      -15.000000
 20
      -23.939905
 30
        0.000000
 11
      -12.500000
 21
      -24.594404
 31
        0.000000
  0
LINE
  8
0
 62
  5
 10
       15.000000
 20
      -23.939905
 30
        0.000000
 11
      -15.000000
 21
      -23.939905
 31
        0.000000
  0
ENDBLK
  0
BLOCK
  8
0
  2
BLK0007
 70
    64
 10
        0.000000
 20
        0.000000
  0
TEXT
  8
0
 62
  5
 10
       -3.750000
 20
       55.386513
 30
        0.000000
 40
        2.500000
  1
φ３０
 50
        0.000000
 41
        1.000000
 51
        0.000000
  7
BIGFONT
  0
LINE
  8
0
 62
  5
 10
      -15.000000
 20
       74.482430
 30
        0.000000
 11
      -15.000000
 21
       54.386513
 31
        0.000000
  0
LINE
  8
0
 62
  5
 10
       15.000000
 20
       74.482430
 30
        0.000000
 11
       15.000000
 21
       54.386513
 31
        0.000000
  0
LINE
  8
0
 62
  5
 10
      -12.500000
 20
       55.541012
 30
        0.000000
 11
      -15.000000
 21
       54.886513
 31
        0.000000
  0
LINE
  8
0
 62
  5
 10
      -15.000000
 20
       54.886513
 30
        0.000000
 11
      -12.500000
 21
       54.232014
 31
        0.000000
  0
LINE
  8
0
 62
  5
 10
       12.500000
 20
       54.232014
 30
        0.000000
 11
       15.000000
 21
       54.886513
 31
        0.000000
  0
LINE
  8
0
 62
  5
 10
       15.000000
 20
       54.886513
 30
        0.000000
 11
       12.500000
 21
       55.541012
 31
        0.000000
  0
LINE
  8
0
 62
  5
 10
      -15.000000
 20
       54.886513
 30
        0.000000
 11
       15.000000
 21
       54.886513
 31
        0.000000
  0
ENDBLK
  0
BLOCK
  8
0
  2
BLK0008
 70
    64
 10
        0.000000
 20
        0.000000
  0
TEXT
  8
0
 10
       90.964872
 20
       55.935356
 30
        0.000000
 40
        2.000000
  1
０．５
 50
        0.000000
 41
        1.000000
 51
        0.000000
  7
BIGFONT
  0
LINE
  8
0
 62
  3
 10
       89.869886
 20
       59.482429
 30
        0.000000
 11
       89.869886
 21
       54.935356
 31
        0.000000
  0
LINE
  8
0
 62
  3
 10
       90.369886
 20
       59.482429
 30
        0.000000
 11
       90.369886
 21
       54.935356
 31
        0.000000
  0
LINE
  8
0
 62
  3
 10
       87.869886
 20
       54.911751
 30
        0.000000
 11
       89.869886
 21
       55.435356
 31
        0.000000
  0
LINE
  8
0
 62
  3
 10
       89.869886
 20
       55.435356
 30
        0.000000
 11
       87.869886
 21
       55.958961
 31
        0.000000
  0
LINE
  8
0
 62
  3
 10
       92.369886
 20
       55.958961
 30
        0.000000
 11
       90.369886
 21
       55.435356
 31
        0.000000
  0
LINE
  8
0
 62
  3
 10
       90.369886
 20
       55.435356
 30
        0.000000
 11
       92.369886
 21
       54.911751
 31
        0.000000
  0
LINE
  8
0
 62
  3
 10
       96.964872
 20
       55.435356
 30
        0.000000
 11
       84.869886
 21
       55.435356
 31
        0.000000
  0
ENDBLK
  0
BLOCK
  8
0
  2
BLK0009
 70
    64
 10
        0.000000
 20
        0.000000
  0
TEXT
  8
0
 10
       63.033430
 20
       55.247642
 30
        0.000000
 40
        2.000000
  1
２
 50
        0.000000
 41
        1.000000
 51
        0.000000
  7
BIGFONT
  0
LINE
  8
0
 62
  3
 10
       56.033430
 20
       59.482429
 30
        0.000000
 11
       56.033430
 21
       54.247642
 31
        0.000000
  0
LINE
  8
0
 62
  3
 10
       58.033430
 20
       59.482429
 30
        0.000000
 11
       58.033430
 21
       54.247642
 31
        0.000000
  0
LINE
  8
0
 62
  3
 10
       54.033430
 20
       54.224037
 30
        0.000000
 11
       56.033430
 21
       54.747642
 31
        0.000000
  0
LINE
  8
0
 62
  3
 10
       56.033430
 20
       54.747642
 30
        0.000000
 11
       54.033430
 21
       55.271248
 31
        0.000000
  0
LINE
  8
0
 62
  3
 10
       60.033430
 20
       55.271248
 30
        0.000000
 11
       58.033430
 21
       54.747642
 31
        0.000000
  0
LINE
  8
0
 62
  3
 10
       58.033430
 20
       54.747642
 30
        0.000000
 11
       60.033430
 21
       54.224037
 31
        0.000000
  0
LINE
  8
0
 62
  3
 10
       65.033430
 20
       54.747642
 30
        0.000000
 11
       51.033430
 21
       54.747642
 31
        0.000000
  0
ENDBLK
  0
BLOCK
  8
0
  2
BLK0010
 70
    64
 10
        0.000000
 20
        0.000000
  0
TEXT
  8
0
 10
        4.584654
 20
      -71.575707
 30
        0.000000
 40
        2.000000
  1
４０
 50
        0.000000
 41
        1.000000
 51
        0.000000
  7
BIGFONT
  0
LINE
  8
0
 62
  3
 10
       26.584654
 20
      -64.649567
 30
        0.000000
 11
       26.584654
 21
      -72.575707
 31
        0.000000
  0
LINE
  8
0
 62
  3
 10
      -13.415346
 20
      -64.949570
 30
        0.000000
 11
      -13.415346
 21
      -72.575707
 31
        0.000000
  0
LINE
  8
0
 62
  3
 10
       24.584654
 20
      -72.599304
 30
        0.000000
 11
       26.584654
 21
      -72.075707
 31
        0.000000
  0
LINE
  8
0
 62
  3
 10
       26.584654
 20
      -72.075707
 30
        0.000000
 11
       24.584654
 21
      -71.552109
 31
        0.000000
  0
LINE
  8
0
 62
  3
 10
      -11.415346
 20
      -71.552109
 30
        0.000000
 11
      -13.415346
 21
      -72.075707
 31
        0.000000
  0
LINE
  8
0
 62
  3
 10
      -13.415346
 20
      -72.075707
 30
        0.000000
 11
      -11.415346
 21
      -72.599304
 31
        0.000000
  0
LINE
  8
0
 62
  3
 10
       26.584654
 20
      -72.075707
 30
        0.000000
 11
      -13.415346
 21
      -72.075707
 31
        0.000000
  0
ENDBLK
  0
BLOCK
  8
0
  2
BLK0011
 70
    64
 10
        0.000000
 20
        0.000000
  0
TEXT
  8
0
 10
       51.264425
 20
      -71.225205
 30
        0.000000
 40
        2.000000
  1
２０
 50
        0.000000
 41
        1.000000
 51
        0.000000
  7
BIGFONT
  0
LINE
  8
0
 62
  3
 10
       43.264418
 20
      -64.949570
 30
        0.000000
 11
       43.264418
 21
      -72.225205
 31
        0.000000
  0
LINE
  8
0
 62
  3
 10
       63.264425
 20
      -64.649567
 30
        0.000000
 11
       63.264425
 21
      -72.225205
 31
        0.000000
  0
LINE
  8
0
 62
  3
 10
       45.264418
 20
      -71.201607
 30
        0.000000
 11
       43.264418
 21
      -71.725205
 31
        0.000000
  0
LINE
  8
0
 62
  3
 10
       43.264418
 20
      -71.725205
 30
        0.000000
 11
       45.264418
 21
      -72.248802
 31
        0.000000
  0
LINE
  8
0
 62
  3
 10
       61.264425
 20
      -72.248802
 30
        0.000000
 11
       63.264425
 21
      -71.725205
 31
        0.000000
  0
LINE
  8
0
 62
  3
 10
       63.264425
 20
      -71.725205
 30
        0.000000
 11
       61.264425
 21
      -71.201607
 31
        0.000000
  0
LINE
  8
0
 62
  3
 10
       43.264418
 20
      -71.725205
 30
        0.000000
 11
       63.264425
 21
      -71.725205
 31
        0.000000
  0
ENDBLK
  0
BLOCK
  8
0
  2
BLK0012
 70
    64
 10
        0.000000
 20
        0.000000
  0
TEXT
  8
0
 10
       81.722319
 20
      -71.225205
 30
        0.000000
 40
        2.000000
  1
１０
 50
        0.000000
 41
        1.000000
 51
        0.000000
  7
BIGFONT
  0
LINE
  8
0
 62
  3
 10
       78.722319
 20
      -64.949570
 30
        0.000000
 11
       78.722319
 21
      -72.225205
 31
        0.000000
  0
LINE
  8
0
 62
  3
 10
       88.722319
 20
      -64.649567
 30
        0.000000
 11
       88.722319
 21
      -72.225205
 31
        0.000000
  0
LINE
  8
0
 62
  3
 10
       80.722319
 20
      -71.201607
 30
        0.000000
 11
       78.722319
 21
      -71.725205
 31
        0.000000
  0
LINE
  8
0
 62
  3
 10
       78.722319
 20
      -71.725205
 30
        0.000000
 11
       80.722319
 21
      -72.248802
 31
        0.000000
  0
LINE
  8
0
 62
  3
 10
       86.722319
 20
      -72.248802
 30
        0.000000
 11
       88.722319
 21
      -71.725205
 31
        0.000000
  0
LINE
  8
0
 62
  3
 10
       88.722319
 20
      -71.725205
 30
        0.000000
 11
       86.722319
 21
      -71.201607
 31
        0.000000
  0
LINE
  8
0
 62
  3
 10
       78.722319
 20
      -71.725205
 30
        0.000000
 11
       88.722319
 21
      -71.725205
 31
        0.000000
  0
ENDBLK
  0
ENDSEC
  0
SECTION
  2
ENTITIES
  0
INSERT
  8
0
  2
BLK0001
 10
        0.000000
 20
        0.000000
  0
INSERT
  8
0
  2
BLK0002
 10
        0.000000
 20
        0.000000
  0
INSERT
  8
0
  2
BLK0003
 10
        0.000000
 20
        0.000000
  0
INSERT
  8
0
  2
BLK0004
 10
        0.000000
 20
        0.000000
  0
INSERT
  8
0
  2
BLK0005
 10
        0.000000
 20
        0.000000
  0
CIRCLE
  8
1
 10
        0.000000
 20
       75.482433
 30
        0.000000
 40
       13.000000
  0
LINE
  8
1
  6
CENTER
 10
       53.625220
 20
        0.000000
 30
        0.000000
 11
       30.520745
 21
        0.000000
 31
        0.000000
  0
DIMENSION
  8
0
 62
  3
  2
BLK0006
 10
       15.000000
 20
      -23.939905
 11
       -3.750000
 21
      -23.439905
 13
       15.000000
 23
        0.000000
 14
      -15.000000
 24
        0.000000
 50
        0.0
 70
  0
  0
DIMENSION
  8
0
 62
  3
  2
BLK0007
 10
      -15.000000
 20
       54.886513
 11
       -3.750000
 21
       55.386513
 13
      -15.000000
 23
       75.482430
 14
       15.000000
 24
       75.482430
 50
        0.0
 70
  0
  0
LINE
  8
1
  6
CENTER
 10
        0.000000
 20
      -17.371068
 30
        0.000000
 11
        0.000000
 21
       17.321435
 31
        0.000000
  0
CIRCLE
  8
0
 62
  3
 10
        0.000000
 20
        0.000000
 30
        0.000000
 40
       14.500000
  0
CIRCLE
  8
0
 62
  3
 10
        0.000000
 20
        0.000000
 30
        0.000000
 40
       15.000000
  0
LINE
  8
1
  6
CENTER
 10
      -18.006821
 20
       75.482433
 30
        0.000000
 11
       96.679196
 21
       75.482433
 31
        0.000000
  0
TEXT
  8
2
 10
      -26.262831
 20
      100.939586
 30
        0.000000
 40
        2.073600
  1
ローレットなし寸法図
 50
        0.000000
 41
        1.000000
 51
        0.000000
  7
BIGFONT
  0
TEXT
  8
0
 10
       28.820876
 20
      106.078695
 30
        0.000000
 40
        2.000000
  1
ＩＶ－１Ａ０２０１
 50
        0.000000
 41
        1.000000
 51
        0.000000
  7
BIGFONT
  0
TEXT
  8
2
 10
      -27.257511
 20
       23.259590
 30
        0.000000
 40
        2.073600
  1
ローレット付き寸法図
 50
        0.000000
 41
        1.000000
 51
        0.000000
  7
BIGFONT
  0
LINE
  8
1
 10
       89.869887
 20
       90.482433
 30
        0.000000
 11
       89.869887
 21
       60.482433
 31
        0.000000
  0
LINE
  8
1
 10
       56.033428
 20
       90.482433
 30
        0.000000
 11
       56.033428
 21
       60.482433
 31
        0.000000
  0
LINE
  8
1
 10
       75.451658
 20
       90.482433
 30
        0.000000
 11
       74.451658
 21
       90.482433
 31
        0.000000
  0
LINE
  8
1
 10
       75.451658
 20
       60.482433
 30
        0.000000
 11
       75.451658
 21
       90.482433
 31
        0.000000
  0
LINE
  8
1
 10
       74.451658
 20
       60.482433
 30
        0.000000
 11
       75.451658
 21
       60.482433
 31
        0.000000
  0
LINE
  8
1
 10
       74.451658
 20
       90.482433
 30
        0.000000
 11
       74.451658
 21
       60.482433
 31
        0.000000
  0
LINE
  8
1
 10
       33.381887
 20
       60.482433
 30
        0.000000
 11
       34.381887
 21
       60.482433
 31
        0.000000
  0
LINE
  8
1
 10
       33.381887
 20
       90.482433
 30
        0.000000
 11
       34.381887
 21
       90.482433
 31
        0.000000
  0
LINE
  8
1
 10
       34.381887
 20
       60.482433
 30
        0.000000
 11
       34.381887
 21
       90.482433
 31
        0.000000
  0
LINE
  8
1
 10
       33.381887
 20
       90.482433
 30
        0.000000
 11
       33.381887
 21
       60.482433
 31
        0.000000
  0
LINE
  8
1
 10
       58.033428
 20
       90.482433
 30
        0.000000
 11
       58.033428
 21
       60.482433
 31
        0.000000
  0
LINE
  8
1
 10
       90.369887
 20
       90.482433
 30
        0.000000
 11
       89.869887
 21
       90.482433
 31
        0.000000
  0
LINE
  8
1
 10
       89.869887
 20
       60.482433
 30
        0.000000
 11
       90.369887
 21
       60.482433
 31
        0.000000
  0
LINE
  8
1
 10
       56.033428
 20
       60.482433
 30
        0.000000
 11
       58.033428
 21
       60.482433
 31
        0.000000
  0
LINE
  8
1
 10
       58.033428
 20
       90.482433
 30
        0.000000
 11
       56.033428
 21
       90.482433
 31
        0.000000
  0
LINE
  8
1
 10
       90.369887
 20
       90.482433
 30
        0.000000
 11
       90.369887
 21
       60.482433
 31
        0.000000
  0
CIRCLE
  8
1
 10
        0.000000
 20
        0.000000
 30
        0.000000
 40
       12.300000
  0
CIRCLE
  8
1
 10
        0.000000
 20
        0.000000
 30
        0.000000
 40
       12.700000
  0
CIRCLE
  8
1
 10
        0.000000
 20
        0.000000
 30
        0.000000
 40
       11.000000
  0
LINE
  8
1
  6
CENTER
 10
      -18.781139
 20
        0.000000
 30
        0.000000
 11
        0.000000
 21
        0.000000
 31
        0.000000
  0
LINE
  8
1
  6
CENTER
 10
       18.781138
 20
        0.000000
 30
        0.000000
 11
        0.000000
 21
        0.000000
 31
        0.000000
  0
LINE
  8
1
 10
       35.644416
 20
       14.500000
 30
        0.000000
 11
       35.644416
 21
      -14.500000
 31
        0.000000
  0
LINE
  8
1
 10
       36.144416
 20
      -15.000000
 30
        0.000000
 11
       40.144416
 21
      -15.000000
 31
        0.000000
  0
LINE
  8
1
 10
       40.644416
 20
       14.500000
 30
        0.000000
 11
       40.644416
 21
      -14.500000
 31
        0.000000
  0
LINE
  8
1
 10
       40.644416
 20
       14.500000
 30
        0.000000
 11
       40.644416
 21
      -14.500000
 31
        0.000000
  0
LINE
  8
1
 10
       36.144416
 20
       15.000000
 30
        0.000000
 11
       40.144416
 21
       15.000000
 31
        0.000000
  0
LINE
  8
1
 10
       40.644416
 20
       12.700000
 30
        0.000000
 11
       40.644416
 21
      -12.700000
 31
        0.000000
  0
LINE
  8
1
 10
       46.944416
 20
      -12.700000
 30
        0.000000
 11
       49.144416
 21
      -12.700000
 31
        0.000000
  0
LINE
  8
1
 10
       49.644416
 20
       12.200000
 30
        0.000000
 11
       49.644416
 21
      -12.200000
 31
        0.000000
  0
LINE
  8
1
 10
       46.944416
 20
       12.700000
 30
        0.000000
 11
       49.144416
 21
       12.700000
 31
        0.000000
  0
LINE
  8
1
 10
       49.644416
 20
      -12.200000
 30
        0.000000
 11
       46.444416
 21
      -12.200000
 31
        0.000000
  0
LINE
  8
1
 10
       46.444416
 20
       12.200000
 30
        0.000000
 11
       46.444416
 21
      -12.200000
 31
        0.000000
  0
LINE
  8
1
 10
       40.644416
 20
      -14.500000
 30
        0.000000
 11
       40.144416
 21
      -15.000000
 31
        0.000000
  0
LINE
  8
1
 10
       35.644416
 20
      -14.500000
 30
        0.000000
 11
       36.144416
 21
      -15.000000
 31
        0.000000
  0
LINE
  8
1
 10
       40.644416
 20
       14.500000
 30
        0.000000
 11
       40.144416
 21
       15.000000
 31
        0.000000
  0
LINE
  8
1
 10
       36.144416
 20
       15.000000
 30
        0.000000
 11
       35.644416
 21
       14.500000
 31
        0.000000
  0
LINE
  8
1
 10
       40.644416
 20
        0.000000
 30
        0.000000
 11
       35.644416
 21
        0.000000
 31
        0.000000
  0
LINE
  8
1
 10
       40.644416
 20
       -0.500000
 30
        0.000000
 11
       35.644416
 21
       -0.500000
 31
        0.000000
  0
LINE
  8
1
 10
       40.644416
 20
       -1.000000
 30
        0.000000
 11
       35.644416
 21
       -1.000000
 31
        0.000000
  0
LINE
  8
1
 10
       40.644416
 20
       -1.500000
 30
        0.000000
 11
       35.644416
 21
       -1.500000
 31
        0.000000
  0
LINE
  8
1
 10
       40.644416
 20
       -2.000000
 30
        0.000000
 11
       35.644416
 21
       -2.000000
 31
        0.000000
  0
LINE
  8
1
 10
       40.644416
 20
       -2.500000
 30
        0.000000
 11
       35.644416
 21
       -2.500000
 31
        0.000000
  0
LINE
  8
1
 10
       40.644416
 20
       -3.000000
 30
        0.000000
 11
       35.644416
 21
       -3.000000
 31
        0.000000
  0
LINE
  8
1
 10
       40.644416
 20
       -3.500000
 30
        0.000000
 11
       35.644416
 21
       -3.500000
 31
        0.000000
  0
LINE
  8
1
 10
       40.644416
 20
       -4.000000
 30
        0.000000
 11
       35.644416
 21
       -4.000000
 31
        0.000000
  0
LINE
  8
1
 10
       40.644416
 20
       -4.500000
 30
        0.000000
 11
       35.644416
 21
       -4.500000
 31
        0.000000
  0
LINE
  8
1
 10
       40.644416
 20
       -5.000000
 30
        0.000000
 11
       35.644416
 21
       -5.000000
 31
        0.000000
  0
LINE
  8
1
 10
       40.644416
 20
       -5.500000
 30
        0.000000
 11
       35.644416
 21
       -5.500000
 31
        0.000000
  0
LINE
  8
1
 10
       40.644416
 20
       -6.000000
 30
        0.000000
 11
       35.644416
 21
       -6.000000
 31
        0.000000
  0
LINE
  8
1
 10
       40.644416
 20
       -6.500000
 30
        0.000000
 11
       35.644416
 21
       -6.500000
 31
        0.000000
  0
LINE
  8
1
 10
       40.644416
 20
       -7.000000
 30
        0.000000
 11
       35.644416
 21
       -7.000000
 31
        0.000000
  0
LINE
  8
1
 10
       40.644416
 20
       -7.500000
 30
        0.000000
 11
       35.644416
 21
       -7.500000
 31
        0.000000
  0
LINE
  8
1
 10
       40.644416
 20
       -8.000000
 30
        0.000000
 11
       35.644416
 21
       -8.000000
 31
        0.000000
  0
LINE
  8
1
 10
       40.644416
 20
       -8.500000
 30
        0.000000
 11
       35.644416
 21
       -8.500000
 31
        0.000000
  0
LINE
  8
1
 10
       40.644416
 20
       -9.000000
 30
        0.000000
 11
       35.644416
 21
       -9.000000
 31
        0.000000
  0
LINE
  8
1
 10
       40.644416
 20
       -9.500000
 30
        0.000000
 11
       35.644416
 21
       -9.500000
 31
        0.000000
  0
LINE
  8
1
 10
       40.644416
 20
      -10.000000
 30
        0.000000
 11
       35.644416
 21
      -10.000000
 31
        0.000000
  0
LINE
  8
1
 10
       40.644416
 20
      -10.500000
 30
        0.000000
 11
       35.644416
 21
      -10.500000
 31
        0.000000
  0
LINE
  8
1
 10
       40.644416
 20
      -11.000000
 30
        0.000000
 11
       35.644416
 21
      -11.000000
 31
        0.000000
  0
LINE
  8
1
 10
       40.644416
 20
      -11.500000
 30
        0.000000
 11
       35.644416
 21
      -11.500000
 31
        0.000000
  0
LINE
  8
1
 10
       40.644416
 20
      -12.000000
 30
        0.000000
 11
       35.644416
 21
      -12.000000
 31
        0.000000
  0
LINE
  8
1
 10
       40.644416
 20
      -12.500000
 30
        0.000000
 11
       35.644416
 21
      -12.500000
 31
        0.000000
  0
LINE
  8
1
 10
       40.644416
 20
      -13.000000
 30
        0.000000
 11
       35.644416
 21
      -13.000000
 31
        0.000000
  0
LINE
  8
1
 10
       40.644416
 20
      -13.500000
 30
        0.000000
 11
       35.644416
 21
      -13.500000
 31
        0.000000
  0
LINE
  8
1
 10
       40.644416
 20
      -13.800000
 30
        0.000000
 11
       35.644416
 21
      -13.800000
 31
        0.000000
  0
LINE
  8
1
 10
       40.644416
 20
      -14.100000
 30
        0.000000
 11
       35.644416
 21
      -14.100000
 31
        0.000000
  0
LINE
  8
1
 10
       40.644416
 20
      -14.400000
 30
        0.000000
 11
       35.644416
 21
      -14.400000
 31
        0.000000
  0
LINE
  8
1
 10
       40.444416
 20
      -14.700000
 30
        0.000000
 11
       35.844416
 21
      -14.700000
 31
        0.000000
  0
LINE
  8
1
 10
       36.144416
 20
       15.000000
 30
        0.000000
 11
       40.144416
 21
       15.000000
 31
        0.000000
  0
LINE
  8
1
 10
       40.644416
 20
       14.500000
 30
        0.000000
 11
       40.144416
 21
       15.000000
 31
        0.000000
  0
LINE
  8
1
 10
       35.644416
 20
       14.500000
 30
        0.000000
 11
       36.144416
 21
       15.000000
 31
        0.000000
  0
LINE
  8
1
 10
       40.644416
 20
        0.000000
 30
        0.000000
 11
       35.644416
 21
        0.000000
 31
        0.000000
  0
LINE
  8
1
 10
       40.644416
 20
        0.500000
 30
        0.000000
 11
       35.644416
 21
        0.500000
 31
        0.000000
  0
LINE
  8
1
 10
       40.644416
 20
        1.000000
 30
        0.000000
 11
       35.644416
 21
        1.000000
 31
        0.000000
  0
LINE
  8
1
 10
       40.644416
 20
        1.500000
 30
        0.000000
 11
       35.644416
 21
        1.500000
 31
        0.000000
  0
LINE
  8
1
 10
       40.644416
 20
        2.000000
 30
        0.000000
 11
       35.644416
 21
        2.000000
 31
        0.000000
  0
LINE
  8
1
 10
       40.644416
 20
        2.500000
 30
        0.000000
 11
       35.644416
 21
        2.500000
 31
        0.000000
  0
LINE
  8
1
 10
       40.644416
 20
        3.000000
 30
        0.000000
 11
       35.644416
 21
        3.000000
 31
        0.000000
  0
LINE
  8
1
 10
       40.644416
 20
        3.500000
 30
        0.000000
 11
       35.644416
 21
        3.500000
 31
        0.000000
  0
LINE
  8
1
 10
       40.644416
 20
        4.000000
 30
        0.000000
 11
       35.644416
 21
        4.000000
 31
        0.000000
  0
LINE
  8
1
 10
       40.644416
 20
        4.500000
 30
        0.000000
 11
       35.644416
 21
        4.500000
 31
        0.000000
  0
LINE
  8
1
 10
       40.644416
 20
        5.000000
 30
        0.000000
 11
       35.644416
 21
        5.000000
 31
        0.000000
  0
LINE
  8
1
 10
       40.644416
 20
        5.500000
 30
        0.000000
 11
       35.644416
 21
        5.500000
 31
        0.000000
  0
LINE
  8
1
 10
       40.644416
 20
        6.000000
 30
        0.000000
 11
       35.644416
 21
        6.000000
 31
        0.000000
  0
LINE
  8
1
 10
       40.644416
 20
        6.500000
 30
        0.000000
 11
       35.644416
 21
        6.500000
 31
        0.000000
  0
LINE
  8
1
 10
       40.644416
 20
        7.000000
 30
        0.000000
 11
       35.644416
 21
        7.000000
 31
        0.000000
  0
LINE
  8
1
 10
       40.644416
 20
        7.500000
 30
        0.000000
 11
       35.644416
 21
        7.500000
 31
        0.000000
  0
LINE
  8
1
 10
       40.644416
 20
        8.000000
 30
        0.000000
 11
       35.644416
 21
        8.000000
 31
        0.000000
  0
LINE
  8
1
 10
       40.644416
 20
        8.500000
 30
        0.000000
 11
       35.644416
 21
        8.500000
 31
        0.000000
  0
LINE
  8
1
 10
       40.644416
 20
        9.000000
 30
        0.000000
 11
       35.644416
 21
        9.000000
 31
        0.000000
  0
LINE
  8
1
 10
       40.644416
 20
        9.500000
 30
        0.000000
 11
       35.644416
 21
        9.500000
 31
        0.000000
  0
LINE
  8
1
 10
       40.644416
 20
       10.000000
 30
        0.000000
 11
       35.644416
 21
       10.000000
 31
        0.000000
  0
LINE
  8
1
 10
       40.644416
 20
       10.500000
 30
        0.000000
 11
       35.644416
 21
       10.500000
 31
        0.000000
  0
LINE
  8
1
 10
       40.644416
 20
       11.000000
 30
        0.000000
 11
       35.644416
 21
       11.000000
 31
        0.000000
  0
LINE
  8
1
 10
       40.644416
 20
       11.500000
 30
        0.000000
 11
       35.644416
 21
       11.500000
 31
        0.000000
  0
LINE
  8
1
 10
       40.644416
 20
       12.000000
 30
        0.000000
 11
       35.644416
 21
       12.000000
 31
        0.000000
  0
LINE
  8
1
 10
       40.644416
 20
       12.500000
 30
        0.000000
 11
       35.644416
 21
       12.500000
 31
        0.000000
  0
LINE
  8
1
 10
       40.644416
 20
       13.000000
 30
        0.000000
 11
       35.644416
 21
       13.000000
 31
        0.000000
  0
LINE
  8
1
 10
       40.644416
 20
       13.500000
 30
        0.000000
 11
       35.644416
 21
       13.500000
 31
        0.000000
  0
LINE
  8
1
 10
       40.644416
 20
       13.800000
 30
        0.000000
 11
       35.644416
 21
       13.800000
 31
        0.000000
  0
LINE
  8
1
 10
       40.644416
 20
       14.100000
 30
        0.000000
 11
       35.644416
 21
       14.100000
 31
        0.000000
  0
LINE
  8
1
 10
       40.644416
 20
       14.400000
 30
        0.000000
 11
       35.644416
 21
       14.400000
 31
        0.000000
  0
LINE
  8
1
 10
       40.444416
 20
       14.700000
 30
        0.000000
 11
       35.844416
 21
       14.700000
 31
        0.000000
  0
LINE
  8
1
 10
       49.644416
 20
      -12.200000
 30
        0.000000
 11
       49.144416
 21
      -12.700000
 31
        0.000000
  0
LINE
  8
1
 10
       49.644416
 20
       12.200000
 30
        0.000000
 11
       49.144416
 21
       12.700000
 31
        0.000000
  0
LINE
  8
1
 10
       45.644416
 20
      -12.200000
 30
        0.000000
 11
       46.444416
 21
      -12.200000
 31
        0.000000
  0
LINE
  8
1
 10
       45.644416
 20
       12.200000
 30
        0.000000
 11
       46.444416
 21
       12.200000
 31
        0.000000
  0
LINE
  8
1
 10
       46.444416
 20
      -12.200000
 30
        0.000000
 11
       46.944416
 21
      -12.700000
 31
        0.000000
  0
LINE
  8
1
 10
       46.944416
 20
       12.700000
 30
        0.000000
 11
       46.444416
 21
       12.200000
 31
        0.000000
  0
LINE
  8
1
 10
       49.644416
 20
       12.200000
 30
        0.000000
 11
       46.444416
 21
       12.200000
 31
        0.000000
  0
LINE
  8
1
 10
       45.344416
 20
      -14.500000
 30
        0.000000
 11
       40.644416
 21
      -14.500000
 31
        0.000000
  0
LINE
  8
1
 10
       45.644416
 20
      -14.200000
 30
        0.000000
 11
       45.344416
 21
      -14.500000
 31
        0.000000
  0
LINE
  8
1
 10
       45.644416
 20
       14.200000
 30
        0.000000
 11
       45.344416
 21
       14.500000
 31
        0.000000
  0
LINE
  8
1
 10
       45.644416
 20
       14.200000
 30
        0.000000
 11
       45.644416
 21
      -14.200000
 31
        0.000000
  0
LINE
  8
1
 10
       45.344416
 20
       14.500000
 30
        0.000000
 11
       40.644416
 21
       14.500000
 31
        0.000000
  0
LINE
  8
1
  6
CENTER
 10
        0.000000
 20
       92.415073
 30
        0.000000
 11
        0.000000
 21
       56.942093
 31
        0.000000
  0
LINE
  8
1
 10
       26.284659
 20
      -34.949570
 30
        0.000000
 11
       -8.415341
 21
      -34.949570
 31
        0.000000
  0
LINE
  8
1
 10
       26.584659
 20
      -35.249570
 30
        0.000000
 11
       26.584659
 21
      -63.649570
 31
        0.000000
  0
LINE
  8
1
 10
       26.584659
 20
      -35.249570
 30
        0.000000
 11
       26.284659
 21
      -34.949570
 31
        0.000000
  0
LINE
  8
1
 10
       26.584659
 20
      -63.649570
 30
        0.000000
 11
       26.284659
 21
      -63.949570
 31
        0.000000
  0
LINE
  8
1
 10
       26.284659
 20
      -63.949570
 30
        0.000000
 11
       -8.415341
 21
      -63.949570
 31
        0.000000
  0
LINE
  8
1
 10
       30.584659
 20
      -37.249570
 30
        0.000000
 11
       27.384659
 21
      -37.249570
 31
        0.000000
  0
LINE
  8
1
 10
       27.884659
 20
      -36.749570
 30
        0.000000
 11
       27.384659
 21
      -37.249570
 31
        0.000000
  0
LINE
  8
1
 10
       27.384659
 20
      -61.649570
 30
        0.000000
 11
       27.884659
 21
      -62.149570
 31
        0.000000
  0
LINE
  8
1
 10
       26.584659
 20
      -37.249570
 30
        0.000000
 11
       27.384659
 21
      -37.249570
 31
        0.000000
  0
LINE
  8
1
 10
       26.584659
 20
      -61.649570
 30
        0.000000
 11
       27.384659
 21
      -61.649570
 31
        0.000000
  0
LINE
  8
1
 10
       30.584659
 20
      -37.249570
 30
        0.000000
 11
       30.084659
 21
      -36.749570
 31
        0.000000
  0
LINE
  8
1
 10
       30.584659
 20
      -61.649570
 30
        0.000000
 11
       30.084659
 21
      -62.149570
 31
        0.000000
  0
LINE
  8
1
 10
       -8.615341
 20
      -34.749570
 30
        0.000000
 11
      -13.215341
 21
      -34.749570
 31
        0.000000
  0
LINE
  8
1
 10
       -8.415341
 20
      -35.049570
 30
        0.000000
 11
      -13.415341
 21
      -35.049570
 31
        0.000000
  0
LINE
  8
1
 10
       -8.415341
 20
      -35.349570
 30
        0.000000
 11
      -13.415341
 21
      -35.349570
 31
        0.000000
  0
LINE
  8
1
 10
       -8.415341
 20
      -35.649570
 30
        0.000000
 11
      -13.415341
 21
      -35.649570
 31
        0.000000
  0
LINE
  8
1
 10
       -8.415341
 20
      -35.949570
 30
        0.000000
 11
      -13.415341
 21
      -35.949570
 31
        0.000000
  0
LINE
  8
1
 10
       -8.415341
 20
      -36.449570
 30
        0.000000
 11
      -13.415341
 21
      -36.449570
 31
        0.000000
  0
LINE
  8
1
 10
       -8.415341
 20
      -36.949570
 30
        0.000000
 11
      -13.415341
 21
      -36.949570
 31
        0.000000
  0
LINE
  8
1
 10
       -8.415341
 20
      -37.449570
 30
        0.000000
 11
      -13.415341
 21
      -37.449570
 31
        0.000000
  0
LINE
  8
1
 10
       -8.415341
 20
      -37.949570
 30
        0.000000
 11
      -13.415341
 21
      -37.949570
 31
        0.000000
  0
LINE
  8
1
 10
       -8.415341
 20
      -38.449570
 30
        0.000000
 11
      -13.415341
 21
      -38.449570
 31
        0.000000
  0
LINE
  8
1
 10
       -8.415341
 20
      -38.949570
 30
        0.000000
 11
      -13.415341
 21
      -38.949570
 31
        0.000000
  0
LINE
  8
1
 10
       -8.415341
 20
      -39.449570
 30
        0.000000
 11
      -13.415341
 21
      -39.449570
 31
        0.000000
  0
LINE
  8
1
 10
       -8.415341
 20
      -39.949570
 30
        0.000000
 11
      -13.415341
 21
      -39.949570
 31
        0.000000
  0
LINE
  8
1
 10
       -8.415341
 20
      -40.449570
 30
        0.000000
 11
      -13.415341
 21
      -40.449570
 31
        0.000000
  0
LINE
  8
1
 10
       -8.415341
 20
      -40.949570
 30
        0.000000
 11
      -13.415341
 21
      -40.949570
 31
        0.000000
  0
LINE
  8
1
 10
       -8.415341
 20
      -41.449570
 30
        0.000000
 11
      -13.415341
 21
      -41.449570
 31
        0.000000
  0
LINE
  8
1
 10
       -8.415341
 20
      -41.949570
 30
        0.000000
 11
      -13.415341
 21
      -41.949570
 31
        0.000000
  0
LINE
  8
1
 10
       -8.415341
 20
      -42.449570
 30
        0.000000
 11
      -13.415341
 21
      -42.449570
 31
        0.000000
  0
LINE
  8
1
 10
       -8.415341
 20
      -42.949570
 30
        0.000000
 11
      -13.415341
 21
      -42.949570
 31
        0.000000
  0
LINE
  8
1
 10
       -8.415341
 20
      -43.449570
 30
        0.000000
 11
      -13.415341
 21
      -43.449570
 31
        0.000000
  0
LINE
  8
1
 10
       -8.415341
 20
      -43.949570
 30
        0.000000
 11
      -13.415341
 21
      -43.949570
 31
        0.000000
  0
LINE
  8
1
 10
       -8.415341
 20
      -44.449570
 30
        0.000000
 11
      -13.415341
 21
      -44.449570
 31
        0.000000
  0
LINE
  8
1
 10
       -8.415341
 20
      -44.949570
 30
        0.000000
 11
      -13.415341
 21
      -44.949570
 31
        0.000000
  0
LINE
  8
1
 10
       -8.415341
 20
      -45.449570
 30
        0.000000
 11
      -13.415341
 21
      -45.449570
 31
        0.000000
  0
LINE
  8
1
 10
       -8.415341
 20
      -45.949570
 30
        0.000000
 11
      -13.415341
 21
      -45.949570
 31
        0.000000
  0
LINE
  8
1
 10
       -8.415341
 20
      -46.449570
 30
        0.000000
 11
      -13.415341
 21
      -46.449570
 31
        0.000000
  0
LINE
  8
1
 10
       -8.415341
 20
      -46.949570
 30
        0.000000
 11
      -13.415341
 21
      -46.949570
 31
        0.000000
  0
LINE
  8
1
 10
       -8.415341
 20
      -47.449570
 30
        0.000000
 11
      -13.415341
 21
      -47.449570
 31
        0.000000
  0
LINE
  8
1
 10
       -8.415341
 20
      -47.949570
 30
        0.000000
 11
      -13.415341
 21
      -47.949570
 31
        0.000000
  0
LINE
  8
1
 10
       -8.415341
 20
      -48.449570
 30
        0.000000
 11
      -13.415341
 21
      -48.449570
 31
        0.000000
  0
LINE
  8
1
 10
       -8.415341
 20
      -48.949570
 30
        0.000000
 11
      -13.415341
 21
      -48.949570
 31
        0.000000
  0
LINE
  8
1
 10
       -8.415341
 20
      -49.449570
 30
        0.000000
 11
      -13.415341
 21
      -49.449570
 31
        0.000000
  0
LINE
  8
1
 10
      -13.415341
 20
      -34.949570
 30
        0.000000
 11
      -12.915341
 21
      -34.449570
 31
        0.000000
  0
LINE
  8
1
 10
       -8.415341
 20
      -34.949570
 30
        0.000000
 11
       -8.915341
 21
      -34.449570
 31
        0.000000
  0
LINE
  8
1
 10
      -12.915341
 20
      -34.449570
 30
        0.000000
 11
       -8.915341
 21
      -34.449570
 31
        0.000000
  0
LINE
  8
1
 10
       -8.615341
 20
      -64.149570
 30
        0.000000
 11
      -13.215341
 21
      -64.149570
 31
        0.000000
  0
LINE
  8
1
 10
       -8.415341
 20
      -63.849570
 30
        0.000000
 11
      -13.415341
 21
      -63.849570
 31
        0.000000
  0
LINE
  8
1
 10
       -8.415341
 20
      -63.549570
 30
        0.000000
 11
      -13.415341
 21
      -63.549570
 31
        0.000000
  0
LINE
  8
1
 10
       -8.415341
 20
      -63.249570
 30
        0.000000
 11
      -13.415341
 21
      -63.249570
 31
        0.000000
  0
LINE
  8
1
 10
       -8.415341
 20
      -62.949570
 30
        0.000000
 11
      -13.415341
 21
      -62.949570
 31
        0.000000
  0
LINE
  8
1
 10
       -8.415341
 20
      -62.449570
 30
        0.000000
 11
      -13.415341
 21
      -62.449570
 31
        0.000000
  0
LINE
  8
1
 10
       -8.415341
 20
      -61.949570
 30
        0.000000
 11
      -13.415341
 21
      -61.949570
 31
        0.000000
  0
LINE
  8
1
 10
       -8.415341
 20
      -61.449570
 30
        0.000000
 11
      -13.415341
 21
      -61.449570
 31
        0.000000
  0
LINE
  8
1
 10
       -8.415341
 20
      -60.949570
 30
        0.000000
 11
      -13.415341
 21
      -60.949570
 31
        0.000000
  0
LINE
  8
1
 10
       -8.415341
 20
      -60.449570
 30
        0.000000
 11
      -13.415341
 21
      -60.449570
 31
        0.000000
  0
LINE
  8
1
 10
       -8.415341
 20
      -59.949570
 30
        0.000000
 11
      -13.415341
 21
      -59.949570
 31
        0.000000
  0
LINE
  8
1
 10
       -8.415341
 20
      -59.449570
 30
        0.000000
 11
      -13.415341
 21
      -59.449570
 31
        0.000000
  0
LINE
  8
1
 10
       -8.415341
 20
      -58.949570
 30
        0.000000
 11
      -13.415341
 21
      -58.949570
 31
        0.000000
  0
LINE
  8
1
 10
       -8.415341
 20
      -58.449570
 30
        0.000000
 11
      -13.415341
 21
      -58.449570
 31
        0.000000
  0
LINE
  8
1
 10
       -8.415341
 20
      -57.949570
 30
        0.000000
 11
      -13.415341
 21
      -57.949570
 31
        0.000000
  0
LINE
  8
1
 10
       -8.415341
 20
      -57.449570
 30
        0.000000
 11
      -13.415341
 21
      -57.449570
 31
        0.000000
  0
LINE
  8
1
 10
       -8.415341
 20
      -56.949570
 30
        0.000000
 11
      -13.415341
 21
      -56.949570
 31
        0.000000
  0
LINE
  8
1
 10
       -8.415341
 20
      -56.449570
 30
        0.000000
 11
      -13.415341
 21
      -56.449570
 31
        0.000000
  0
LINE
  8
1
 10
       -8.415341
 20
      -55.949570
 30
        0.000000
 11
      -13.415341
 21
      -55.949570
 31
        0.000000
  0
LINE
  8
1
 10
       -8.415341
 20
      -55.449570
 30
        0.000000
 11
      -13.415341
 21
      -55.449570
 31
        0.000000
  0
LINE
  8
1
 10
       -8.415341
 20
      -54.949570
 30
        0.000000
 11
      -13.415341
 21
      -54.949570
 31
        0.000000
  0
LINE
  8
1
 10
       -8.415341
 20
      -54.449570
 30
        0.000000
 11
      -13.415341
 21
      -54.449570
 31
        0.000000
  0
LINE
  8
1
 10
       -8.415341
 20
      -53.949570
 30
        0.000000
 11
      -13.415341
 21
      -53.949570
 31
        0.000000
  0
LINE
  8
1
 10
       -8.415341
 20
      -53.449570
 30
        0.000000
 11
      -13.415341
 21
      -53.449570
 31
        0.000000
  0
LINE
  8
1
 10
       -8.415341
 20
      -52.949570
 30
        0.000000
 11
      -13.415341
 21
      -52.949570
 31
        0.000000
  0
LINE
  8
1
 10
       -8.415341
 20
      -52.449570
 30
        0.000000
 11
      -13.415341
 21
      -52.449570
 31
        0.000000
  0
LINE
  8
1
 10
       -8.415341
 20
      -51.949570
 30
        0.000000
 11
      -13.415341
 21
      -51.949570
 31
        0.000000
  0
LINE
  8
1
 10
       -8.415341
 20
      -51.449570
 30
        0.000000
 11
      -13.415341
 21
      -51.449570
 31
        0.000000
  0
LINE
  8
1
 10
       -8.415341
 20
      -50.949570
 30
        0.000000
 11
      -13.415341
 21
      -50.949570
 31
        0.000000
  0
LINE
  8
1
 10
       -8.415341
 20
      -50.449570
 30
        0.000000
 11
      -13.415341
 21
      -50.449570
 31
        0.000000
  0
LINE
  8
1
 10
       -8.415341
 20
      -49.949570
 30
        0.000000
 11
      -13.415341
 21
      -49.949570
 31
        0.000000
  0
LINE
  8
1
 10
       -8.415341
 20
      -49.449570
 30
        0.000000
 11
      -13.415341
 21
      -49.449570
 31
        0.000000
  0
LINE
  8
1
 10
      -12.915341
 20
      -34.449570
 30
        0.000000
 11
      -13.415341
 21
      -34.949570
 31
        0.000000
  0
LINE
  8
1
 10
       -8.415341
 20
      -34.949570
 30
        0.000000
 11
       -8.915341
 21
      -34.449570
 31
        0.000000
  0
LINE
  8
1
 10
      -13.415341
 20
      -63.949570
 30
        0.000000
 11
      -12.915341
 21
      -64.449570
 31
        0.000000
  0
LINE
  8
1
 10
       -8.415341
 20
      -63.949570
 30
        0.000000
 11
       -8.915341
 21
      -64.449570
 31
        0.000000
  0
LINE
  8
1
 10
       27.384659
 20
      -37.249570
 30
        0.000000
 11
       27.384659
 21
      -61.649570
 31
        0.000000
  0
LINE
  8
1
 10
       30.584659
 20
      -61.649570
 30
        0.000000
 11
       27.384659
 21
      -61.649570
 31
        0.000000
  0
LINE
  8
1
 10
       27.884659
 20
      -36.749570
 30
        0.000000
 11
       30.084659
 21
      -36.749570
 31
        0.000000
  0
LINE
  8
1
 10
       30.584659
 20
      -37.249570
 30
        0.000000
 11
       30.584659
 21
      -61.649570
 31
        0.000000
  0
LINE
  8
1
 10
       27.884659
 20
      -62.149570
 30
        0.000000
 11
       30.084659
 21
      -62.149570
 31
        0.000000
  0
LINE
  8
1
 10
       -8.415341
 20
      -36.749570
 30
        0.000000
 11
       -8.415341
 21
      -62.149570
 31
        0.000000
  0
LINE
  8
1
 10
      -12.915341
 20
      -34.449570
 30
        0.000000
 11
       -8.915341
 21
      -34.449570
 31
        0.000000
  0
LINE
  8
1
 10
       -8.415341
 20
      -34.949570
 30
        0.000000
 11
       -8.415341
 21
      -63.949570
 31
        0.000000
  0
LINE
  8
1
  6
CENTER
 10
      -19.179307
 20
      -49.449570
 30
        0.000000
 11
       33.050806
 21
      -49.449570
 31
        0.000000
  0
LINE
  8
1
 10
       -8.415341
 20
      -34.949570
 30
        0.000000
 11
       -8.415341
 21
      -63.949570
 31
        0.000000
  0
LINE
  8
1
 10
      -12.915341
 20
      -64.449570
 30
        0.000000
 11
       -8.915341
 21
      -64.449570
 31
        0.000000
  0
LINE
  8
1
 10
      -13.415341
 20
      -34.949570
 30
        0.000000
 11
      -13.415341
 21
      -63.949570
 31
        0.000000
  0
LINE
  8
1
 10
       62.964425
 20
      -34.949570
 30
        0.000000
 11
       48.264425
 21
      -34.949570
 31
        0.000000
  0
LINE
  8
1
 10
       63.264425
 20
      -35.249570
 30
        0.000000
 11
       63.264425
 21
      -63.649570
 31
        0.000000
  0
LINE
  8
1
 10
       63.264425
 20
      -35.249570
 30
        0.000000
 11
       62.964425
 21
      -34.949570
 31
        0.000000
  0
LINE
  8
1
 10
       63.264425
 20
      -63.649570
 30
        0.000000
 11
       62.964425
 21
      -63.949570
 31
        0.000000
  0
LINE
  8
1
 10
       62.964425
 20
      -63.949570
 30
        0.000000
 11
       48.264425
 21
      -63.949570
 31
        0.000000
  0
LINE
  8
1
 10
       67.264425
 20
      -37.249570
 30
        0.000000
 11
       64.064425
 21
      -37.249570
 31
        0.000000
  0
LINE
  8
1
 10
       64.564425
 20
      -36.749570
 30
        0.000000
 11
       64.064425
 21
      -37.249570
 31
        0.000000
  0
LINE
  8
1
 10
       64.064425
 20
      -61.649570
 30
        0.000000
 11
       64.564425
 21
      -62.149570
 31
        0.000000
  0
LINE
  8
1
 10
       63.264425
 20
      -37.249570
 30
        0.000000
 11
       64.064425
 21
      -37.249570
 31
        0.000000
  0
LINE
  8
1
 10
       63.264425
 20
      -61.649570
 30
        0.000000
 11
       64.064425
 21
      -61.649570
 31
        0.000000
  0
LINE
  8
1
 10
       67.264425
 20
      -37.249570
 30
        0.000000
 11
       66.764425
 21
      -36.749570
 31
        0.000000
  0
LINE
  8
1
 10
       67.264425
 20
      -61.649570
 30
        0.000000
 11
       66.764425
 21
      -62.149570
 31
        0.000000
  0
LINE
  8
1
 10
       48.064425
 20
      -34.749570
 30
        0.000000
 11
       43.464425
 21
      -34.749570
 31
        0.000000
  0
LINE
  8
1
 10
       48.264425
 20
      -35.049570
 30
        0.000000
 11
       43.264425
 21
      -35.049570
 31
        0.000000
  0
LINE
  8
1
 10
       48.264425
 20
      -35.349570
 30
        0.000000
 11
       43.264425
 21
      -35.349570
 31
        0.000000
  0
LINE
  8
1
 10
       48.264425
 20
      -35.649570
 30
        0.000000
 11
       43.264425
 21
      -35.649570
 31
        0.000000
  0
LINE
  8
1
 10
       48.264425
 20
      -35.949570
 30
        0.000000
 11
       43.264425
 21
      -35.949570
 31
        0.000000
  0
LINE
  8
1
 10
       48.264425
 20
      -36.449570
 30
        0.000000
 11
       43.264425
 21
      -36.449570
 31
        0.000000
  0
LINE
  8
1
 10
       48.264425
 20
      -36.949570
 30
        0.000000
 11
       43.264425
 21
      -36.949570
 31
        0.000000
  0
LINE
  8
1
 10
       48.264425
 20
      -37.449570
 30
        0.000000
 11
       43.264425
 21
      -37.449570
 31
        0.000000
  0
LINE
  8
1
 10
       48.264425
 20
      -37.949570
 30
        0.000000
 11
       43.264425
 21
      -37.949570
 31
        0.000000
  0
LINE
  8
1
 10
       48.264425
 20
      -38.449570
 30
        0.000000
 11
       43.264425
 21
      -38.449570
 31
        0.000000
  0
LINE
  8
1
 10
       48.264425
 20
      -38.949570
 30
        0.000000
 11
       43.264425
 21
      -38.949570
 31
        0.000000
  0
LINE
  8
1
 10
       48.264425
 20
      -39.449570
 30
        0.000000
 11
       43.264425
 21
      -39.449570
 31
        0.000000
  0
LINE
  8
1
 10
       48.264425
 20
      -39.949570
 30
        0.000000
 11
       43.264425
 21
      -39.949570
 31
        0.000000
  0
LINE
  8
1
 10
       48.264425
 20
      -40.449570
 30
        0.000000
 11
       43.264425
 21
      -40.449570
 31
        0.000000
  0
LINE
  8
1
 10
       48.264425
 20
      -40.949570
 30
        0.000000
 11
       43.264425
 21
      -40.949570
 31
        0.000000
  0
LINE
  8
1
 10
       48.264425
 20
      -41.449570
 30
        0.000000
 11
       43.264425
 21
      -41.449570
 31
        0.000000
  0
LINE
  8
1
 10
       48.264425
 20
      -41.949570
 30
        0.000000
 11
       43.264425
 21
      -41.949570
 31
        0.000000
  0
LINE
  8
1
 10
       48.264425
 20
      -42.449570
 30
        0.000000
 11
       43.264425
 21
      -42.449570
 31
        0.000000
  0
LINE
  8
1
 10
       48.264425
 20
      -42.949570
 30
        0.000000
 11
       43.264425
 21
      -42.949570
 31
        0.000000
  0
LINE
  8
1
 10
       48.264425
 20
      -43.449570
 30
        0.000000
 11
       43.264425
 21
      -43.449570
 31
        0.000000
  0
LINE
  8
1
 10
       48.264425
 20
      -43.949570
 30
        0.000000
 11
       43.264425
 21
      -43.949570
 31
        0.000000
  0
LINE
  8
1
 10
       48.264425
 20
      -44.449570
 30
        0.000000
 11
       43.264425
 21
      -44.449570
 31
        0.000000
  0
LINE
  8
1
 10
       48.264425
 20
      -44.949570
 30
        0.000000
 11
       43.264425
 21
      -44.949570
 31
        0.000000
  0
LINE
  8
1
 10
       48.264425
 20
      -45.449570
 30
        0.000000
 11
       43.264425
 21
      -45.449570
 31
        0.000000
  0
LINE
  8
1
 10
       48.264425
 20
      -45.949570
 30
        0.000000
 11
       43.264425
 21
      -45.949570
 31
        0.000000
  0
LINE
  8
1
 10
       48.264425
 20
      -46.449570
 30
        0.000000
 11
       43.264425
 21
      -46.449570
 31
        0.000000
  0
LINE
  8
1
 10
       48.264425
 20
      -46.949570
 30
        0.000000
 11
       43.264425
 21
      -46.949570
 31
        0.000000
  0
LINE
  8
1
 10
       48.264425
 20
      -47.449570
 30
        0.000000
 11
       43.264425
 21
      -47.449570
 31
        0.000000
  0
LINE
  8
1
 10
       48.264425
 20
      -47.949570
 30
        0.000000
 11
       43.264425
 21
      -47.949570
 31
        0.000000
  0
LINE
  8
1
 10
       48.264425
 20
      -48.449570
 30
        0.000000
 11
       43.264425
 21
      -48.449570
 31
        0.000000
  0
LINE
  8
1
 10
       48.264425
 20
      -48.949570
 30
        0.000000
 11
       43.264425
 21
      -48.949570
 31
        0.000000
  0
LINE
  8
1
 10
       48.264425
 20
      -49.449570
 30
        0.000000
 11
       43.264425
 21
      -49.449570
 31
        0.000000
  0
LINE
  8
1
 10
       43.264425
 20
      -34.949570
 30
        0.000000
 11
       43.764425
 21
      -34.449570
 31
        0.000000
  0
LINE
  8
1
 10
       48.264425
 20
      -34.949570
 30
        0.000000
 11
       47.764425
 21
      -34.449570
 31
        0.000000
  0
LINE
  8
1
 10
       43.764425
 20
      -34.449570
 30
        0.000000
 11
       47.764425
 21
      -34.449570
 31
        0.000000
  0
LINE
  8
1
 10
       48.064425
 20
      -64.149570
 30
        0.000000
 11
       43.464425
 21
      -64.149570
 31
        0.000000
  0
LINE
  8
1
 10
       48.264425
 20
      -63.849570
 30
        0.000000
 11
       43.264425
 21
      -63.849570
 31
        0.000000
  0
LINE
  8
1
 10
       48.264425
 20
      -63.549570
 30
        0.000000
 11
       43.264425
 21
      -63.549570
 31
        0.000000
  0
LINE
  8
1
 10
       48.264425
 20
      -63.249570
 30
        0.000000
 11
       43.264425
 21
      -63.249570
 31
        0.000000
  0
LINE
  8
1
 10
       48.264425
 20
      -62.949570
 30
        0.000000
 11
       43.264425
 21
      -62.949570
 31
        0.000000
  0
LINE
  8
1
 10
       48.264425
 20
      -62.449570
 30
        0.000000
 11
       43.264425
 21
      -62.449570
 31
        0.000000
  0
LINE
  8
1
 10
       48.264425
 20
      -61.949570
 30
        0.000000
 11
       43.264425
 21
      -61.949570
 31
        0.000000
  0
LINE
  8
1
 10
       48.264425
 20
      -61.449570
 30
        0.000000
 11
       43.264425
 21
      -61.449570
 31
        0.000000
  0
LINE
  8
1
 10
       48.264425
 20
      -60.949570
 30
        0.000000
 11
       43.264425
 21
      -60.949570
 31
        0.000000
  0
LINE
  8
1
 10
       48.264425
 20
      -60.449570
 30
        0.000000
 11
       43.264425
 21
      -60.449570
 31
        0.000000
  0
LINE
  8
1
 10
       48.264425
 20
      -59.949570
 30
        0.000000
 11
       43.264425
 21
      -59.949570
 31
        0.000000
  0
LINE
  8
1
 10
       48.264425
 20
      -59.449570
 30
        0.000000
 11
       43.264425
 21
      -59.449570
 31
        0.000000
  0
LINE
  8
1
 10
       48.264425
 20
      -58.949570
 30
        0.000000
 11
       43.264425
 21
      -58.949570
 31
        0.000000
  0
LINE
  8
1
 10
       48.264425
 20
      -58.449570
 30
        0.000000
 11
       43.264425
 21
      -58.449570
 31
        0.000000
  0
LINE
  8
1
 10
       48.264425
 20
      -57.949570
 30
        0.000000
 11
       43.264425
 21
      -57.949570
 31
        0.000000
  0
LINE
  8
1
 10
       48.264425
 20
      -57.449570
 30
        0.000000
 11
       43.264425
 21
      -57.449570
 31
        0.000000
  0
LINE
  8
1
 10
       48.264425
 20
      -56.949570
 30
        0.000000
 11
       43.264425
 21
      -56.949570
 31
        0.000000
  0
LINE
  8
1
 10
       48.264425
 20
      -56.449570
 30
        0.000000
 11
       43.264425
 21
      -56.449570
 31
        0.000000
  0
LINE
  8
1
 10
       48.264425
 20
      -55.949570
 30
        0.000000
 11
       43.264425
 21
      -55.949570
 31
        0.000000
  0
LINE
  8
1
 10
       48.264425
 20
      -55.449570
 30
        0.000000
 11
       43.264425
 21
      -55.449570
 31
        0.000000
  0
LINE
  8
1
 10
       48.264425
 20
      -54.949570
 30
        0.000000
 11
       43.264425
 21
      -54.949570
 31
        0.000000
  0
LINE
  8
1
 10
       48.264425
 20
      -54.449570
 30
        0.000000
 11
       43.264425
 21
      -54.449570
 31
        0.000000
  0
LINE
  8
1
 10
       48.264425
 20
      -53.949570
 30
        0.000000
 11
       43.264425
 21
      -53.949570
 31
        0.000000
  0
LINE
  8
1
 10
       48.264425
 20
      -53.449570
 30
        0.000000
 11
       43.264425
 21
      -53.449570
 31
        0.000000
  0
LINE
  8
1
 10
       48.264425
 20
      -52.949570
 30
        0.000000
 11
       43.264425
 21
      -52.949570
 31
        0.000000
  0
LINE
  8
1
 10
       48.264425
 20
      -52.449570
 30
        0.000000
 11
       43.264425
 21
      -52.449570
 31
        0.000000
  0
LINE
  8
1
 10
       48.264425
 20
      -51.949570
 30
        0.000000
 11
       43.264425
 21
      -51.949570
 31
        0.000000
  0
LINE
  8
1
 10
       48.264425
 20
      -51.449570
 30
        0.000000
 11
       43.264425
 21
      -51.449570
 31
        0.000000
  0
LINE
  8
1
 10
       48.264425
 20
      -50.949570
 30
        0.000000
 11
       43.264425
 21
      -50.949570
 31
        0.000000
  0
LINE
  8
1
 10
       48.264425
 20
      -50.449570
 30
        0.000000
 11
       43.264425
 21
      -50.449570
 31
        0.000000
  0
LINE
  8
1
 10
       48.264425
 20
      -49.949570
 30
        0.000000
 11
       43.264425
 21
      -49.949570
 31
        0.000000
  0
LINE
  8
1
 10
       48.264425
 20
      -49.449570
 30
        0.000000
 11
       43.264425
 21
      -49.449570
 31
        0.000000
  0
LINE
  8
1
 10
       43.764425
 20
      -34.449570
 30
        0.000000
 11
       43.264425
 21
      -34.949570
 31
        0.000000
  0
LINE
  8
1
 10
       48.264425
 20
      -34.949570
 30
        0.000000
 11
       47.764425
 21
      -34.449570
 31
        0.000000
  0
LINE
  8
1
 10
       43.264425
 20
      -63.949570
 30
        0.000000
 11
       43.764425
 21
      -64.449570
 31
        0.000000
  0
LINE
  8
1
 10
       48.264425
 20
      -63.949570
 30
        0.000000
 11
       47.764425
 21
      -64.449570
 31
        0.000000
  0
LINE
  8
1
 10
       64.064425
 20
      -37.249570
 30
        0.000000
 11
       64.064425
 21
      -61.649570
 31
        0.000000
  0
LINE
  8
1
 10
       67.264425
 20
      -61.649570
 30
        0.000000
 11
       64.064425
 21
      -61.649570
 31
        0.000000
  0
LINE
  8
1
 10
       64.564425
 20
      -36.749570
 30
        0.000000
 11
       66.764425
 21
      -36.749570
 31
        0.000000
  0
LINE
  8
1
 10
       67.264425
 20
      -37.249570
 30
        0.000000
 11
       67.264425
 21
      -61.649570
 31
        0.000000
  0
LINE
  8
1
 10
       64.564425
 20
      -62.149570
 30
        0.000000
 11
       66.764425
 21
      -62.149570
 31
        0.000000
  0
LINE
  8
1
 10
       48.264425
 20
      -36.749570
 30
        0.000000
 11
       48.264425
 21
      -62.149570
 31
        0.000000
  0
LINE
  8
1
 10
       43.764425
 20
      -34.449570
 30
        0.000000
 11
       47.764425
 21
      -34.449570
 31
        0.000000
  0
LINE
  8
1
 10
       48.264425
 20
      -34.949570
 30
        0.000000
 11
       48.264425
 21
      -63.949570
 31
        0.000000
  0
LINE
  8
1
  6
CENTER
 10
       70.240242
 20
      -49.449570
 30
        0.000000
 11
       39.292141
 21
      -49.449570
 31
        0.000000
  0
LINE
  8
1
 10
       48.264425
 20
      -34.949570
 30
        0.000000
 11
       48.264425
 21
      -63.949570
 31
        0.000000
  0
LINE
  8
1
 10
       43.764425
 20
      -64.449570
 30
        0.000000
 11
       47.764425
 21
      -64.449570
 31
        0.000000
  0
LINE
  8
1
 10
       43.264425
 20
      -34.949570
 30
        0.000000
 11
       43.264425
 21
      -63.949570
 31
        0.000000
  0
LINE
  8
1
 10
       88.422318
 20
      -34.949570
 30
        0.000000
 11
       83.722318
 21
      -34.949570
 31
        0.000000
  0
LINE
  8
1
 10
       88.722318
 20
      -35.249570
 30
        0.000000
 11
       88.722318
 21
      -63.649570
 31
        0.000000
  0
LINE
  8
1
 10
       88.722318
 20
      -35.249570
 30
        0.000000
 11
       88.422318
 21
      -34.949570
 31
        0.000000
  0
LINE
  8
1
 10
       88.722318
 20
      -63.649570
 30
        0.000000
 11
       88.422318
 21
      -63.949570
 31
        0.000000
  0
LINE
  8
1
 10
       88.422318
 20
      -63.949570
 30
        0.000000
 11
       83.722318
 21
      -63.949570
 31
        0.000000
  0
LINE
  8
1
 10
       92.722318
 20
      -37.249570
 30
        0.000000
 11
       89.522318
 21
      -37.249570
 31
        0.000000
  0
LINE
  8
1
 10
       90.022318
 20
      -36.749570
 30
        0.000000
 11
       89.522318
 21
      -37.249570
 31
        0.000000
  0
LINE
  8
1
 10
       89.522318
 20
      -61.649570
 30
        0.000000
 11
       90.022318
 21
      -62.149570
 31
        0.000000
  0
LINE
  8
1
 10
       88.722318
 20
      -37.249570
 30
        0.000000
 11
       89.522318
 21
      -37.249570
 31
        0.000000
  0
LINE
  8
1
 10
       88.722318
 20
      -61.649570
 30
        0.000000
 11
       89.522318
 21
      -61.649570
 31
        0.000000
  0
LINE
  8
1
 10
       92.722318
 20
      -37.249570
 30
        0.000000
 11
       92.222318
 21
      -36.749570
 31
        0.000000
  0
LINE
  8
1
 10
       92.722318
 20
      -61.649570
 30
        0.000000
 11
       92.222318
 21
      -62.149570
 31
        0.000000
  0
LINE
  8
1
 10
       83.522318
 20
      -34.749570
 30
        0.000000
 11
       78.922318
 21
      -34.749570
 31
        0.000000
  0
LINE
  8
1
 10
       83.722318
 20
      -35.049570
 30
        0.000000
 11
       78.722318
 21
      -35.049570
 31
        0.000000
  0
LINE
  8
1
 10
       83.722318
 20
      -35.349570
 30
        0.000000
 11
       78.722318
 21
      -35.349570
 31
        0.000000
  0
LINE
  8
1
 10
       83.722318
 20
      -35.649570
 30
        0.000000
 11
       78.722318
 21
      -35.649570
 31
        0.000000
  0
LINE
  8
1
 10
       83.722318
 20
      -35.949570
 30
        0.000000
 11
       78.722318
 21
      -35.949570
 31
        0.000000
  0
LINE
  8
1
 10
       83.722318
 20
      -36.449570
 30
        0.000000
 11
       78.722318
 21
      -36.449570
 31
        0.000000
  0
LINE
  8
1
 10
       83.722318
 20
      -36.949570
 30
        0.000000
 11
       78.722318
 21
      -36.949570
 31
        0.000000
  0
LINE
  8
1
 10
       83.722318
 20
      -37.449570
 30
        0.000000
 11
       78.722318
 21
      -37.449570
 31
        0.000000
  0
LINE
  8
1
 10
       83.722318
 20
      -37.949570
 30
        0.000000
 11
       78.722318
 21
      -37.949570
 31
        0.000000
  0
LINE
  8
1
 10
       83.722318
 20
      -38.449570
 30
        0.000000
 11
       78.722318
 21
      -38.449570
 31
        0.000000
  0
LINE
  8
1
 10
       83.722318
 20
      -38.949570
 30
        0.000000
 11
       78.722318
 21
      -38.949570
 31
        0.000000
  0
LINE
  8
1
 10
       83.722318
 20
      -39.449570
 30
        0.000000
 11
       78.722318
 21
      -39.449570
 31
        0.000000
  0
LINE
  8
1
 10
       83.722318
 20
      -39.949570
 30
        0.000000
 11
       78.722318
 21
      -39.949570
 31
        0.000000
  0
LINE
  8
1
 10
       83.722318
 20
      -40.449570
 30
        0.000000
 11
       78.722318
 21
      -40.449570
 31
        0.000000
  0
LINE
  8
1
 10
       83.722318
 20
      -40.949570
 30
        0.000000
 11
       78.722318
 21
      -40.949570
 31
        0.000000
  0
LINE
  8
1
 10
       83.722318
 20
      -41.449570
 30
        0.000000
 11
       78.722318
 21
      -41.449570
 31
        0.000000
  0
LINE
  8
1
 10
       83.722318
 20
      -41.949570
 30
        0.000000
 11
       78.722318
 21
      -41.949570
 31
        0.000000
  0
LINE
  8
1
 10
       83.722318
 20
      -42.449570
 30
        0.000000
 11
       78.722318
 21
      -42.449570
 31
        0.000000
  0
LINE
  8
1
 10
       83.722318
 20
      -42.949570
 30
        0.000000
 11
       78.722318
 21
      -42.949570
 31
        0.000000
  0
LINE
  8
1
 10
       83.722318
 20
      -43.449570
 30
        0.000000
 11
       78.722318
 21
      -43.449570
 31
        0.000000
  0
LINE
  8
1
 10
       83.722318
 20
      -43.949570
 30
        0.000000
 11
       78.722318
 21
      -43.949570
 31
        0.000000
  0
LINE
  8
1
 10
       83.722318
 20
      -44.449570
 30
        0.000000
 11
       78.722318
 21
      -44.449570
 31
        0.000000
  0
LINE
  8
1
 10
       83.722318
 20
      -44.949570
 30
        0.000000
 11
       78.722318
 21
      -44.949570
 31
        0.000000
  0
LINE
  8
1
 10
       83.722318
 20
      -45.449570
 30
        0.000000
 11
       78.722318
 21
      -45.449570
 31
        0.000000
  0
LINE
  8
1
 10
       83.722318
 20
      -45.949570
 30
        0.000000
 11
       78.722318
 21
      -45.949570
 31
        0.000000
  0
LINE
  8
1
 10
       83.722318
 20
      -46.449570
 30
        0.000000
 11
       78.722318
 21
      -46.449570
 31
        0.000000
  0
LINE
  8
1
 10
       83.722318
 20
      -46.949570
 30
        0.000000
 11
       78.722318
 21
      -46.949570
 31
        0.000000
  0
LINE
  8
1
 10
       83.722318
 20
      -47.449570
 30
        0.000000
 11
       78.722318
 21
      -47.449570
 31
        0.000000
  0
LINE
  8
1
 10
       83.722318
 20
      -47.949570
 30
        0.000000
 11
       78.722318
 21
      -47.949570
 31
        0.000000
  0
LINE
  8
1
 10
       83.722318
 20
      -48.449570
 30
        0.000000
 11
       78.722318
 21
      -48.449570
 31
        0.000000
  0
LINE
  8
1
 10
       83.722318
 20
      -48.949570
 30
        0.000000
 11
       78.722318
 21
      -48.949570
 31
        0.000000
  0
LINE
  8
1
 10
       83.722318
 20
      -49.449570
 30
        0.000000
 11
       78.722318
 21
      -49.449570
 31
        0.000000
  0
LINE
  8
1
 10
       78.722318
 20
      -34.949570
 30
        0.000000
 11
       79.222318
 21
      -34.449570
 31
        0.000000
  0
LINE
  8
1
 10
       83.722318
 20
      -34.949570
 30
        0.000000
 11
       83.222318
 21
      -34.449570
 31
        0.000000
  0
LINE
  8
1
 10
       79.222318
 20
      -34.449570
 30
        0.000000
 11
       83.222318
 21
      -34.449570
 31
        0.000000
  0
LINE
  8
1
 10
       83.522318
 20
      -64.149570
 30
        0.000000
 11
       78.922318
 21
      -64.149570
 31
        0.000000
  0
LINE
  8
1
 10
       83.722318
 20
      -63.849570
 30
        0.000000
 11
       78.722318
 21
      -63.849570
 31
        0.000000
  0
LINE
  8
1
 10
       83.722318
 20
      -63.549570
 30
        0.000000
 11
       78.722318
 21
      -63.549570
 31
        0.000000
  0
LINE
  8
1
 10
       83.722318
 20
      -63.249570
 30
        0.000000
 11
       78.722318
 21
      -63.249570
 31
        0.000000
  0
LINE
  8
1
 10
       83.722318
 20
      -62.949570
 30
        0.000000
 11
       78.722318
 21
      -62.949570
 31
        0.000000
  0
LINE
  8
1
 10
       83.722318
 20
      -62.449570
 30
        0.000000
 11
       78.722318
 21
      -62.449570
 31
        0.000000
  0
LINE
  8
1
 10
       83.722318
 20
      -61.949570
 30
        0.000000
 11
       78.722318
 21
      -61.949570
 31
        0.000000
  0
LINE
  8
1
 10
       83.722318
 20
      -61.449570
 30
        0.000000
 11
       78.722318
 21
      -61.449570
 31
        0.000000
  0
LINE
  8
1
 10
       83.722318
 20
      -60.949570
 30
        0.000000
 11
       78.722318
 21
      -60.949570
 31
        0.000000
  0
LINE
  8
1
 10
       83.722318
 20
      -60.449570
 30
        0.000000
 11
       78.722318
 21
      -60.449570
 31
        0.000000
  0
LINE
  8
1
 10
       83.722318
 20
      -59.949570
 30
        0.000000
 11
       78.722318
 21
      -59.949570
 31
        0.000000
  0
LINE
  8
1
 10
       83.722318
 20
      -59.449570
 30
        0.000000
 11
       78.722318
 21
      -59.449570
 31
        0.000000
  0
LINE
  8
1
 10
       83.722318
 20
      -58.949570
 30
        0.000000
 11
       78.722318
 21
      -58.949570
 31
        0.000000
  0
LINE
  8
1
 10
       83.722318
 20
      -58.449570
 30
        0.000000
 11
       78.722318
 21
      -58.449570
 31
        0.000000
  0
LINE
  8
1
 10
       83.722318
 20
      -57.949570
 30
        0.000000
 11
       78.722318
 21
      -57.949570
 31
        0.000000
  0
LINE
  8
1
 10
       83.722318
 20
      -57.449570
 30
        0.000000
 11
       78.722318
 21
      -57.449570
 31
        0.000000
  0
LINE
  8
1
 10
       83.722318
 20
      -56.949570
 30
        0.000000
 11
       78.722318
 21
      -56.949570
 31
        0.000000
  0
LINE
  8
1
 10
       83.722318
 20
      -56.449570
 30
        0.000000
 11
       78.722318
 21
      -56.449570
 31
        0.000000
  0
LINE
  8
1
 10
       83.722318
 20
      -55.949570
 30
        0.000000
 11
       78.722318
 21
      -55.949570
 31
        0.000000
  0
LINE
  8
1
 10
       83.722318
 20
      -55.449570
 30
        0.000000
 11
       78.722318
 21
      -55.449570
 31
        0.000000
  0
LINE
  8
1
 10
       83.722318
 20
      -54.949570
 30
        0.000000
 11
       78.722318
 21
      -54.949570
 31
        0.000000
  0
LINE
  8
1
 10
       83.722318
 20
      -54.449570
 30
        0.000000
 11
       78.722318
 21
      -54.449570
 31
        0.000000
  0
LINE
  8
1
 10
       83.722318
 20
      -53.949570
 30
        0.000000
 11
       78.722318
 21
      -53.949570
 31
        0.000000
  0
LINE
  8
1
 10
       83.722318
 20
      -53.449570
 30
        0.000000
 11
       78.722318
 21
      -53.449570
 31
        0.000000
  0
LINE
  8
1
 10
       83.722318
 20
      -52.949570
 30
        0.000000
 11
       78.722318
 21
      -52.949570
 31
        0.000000
  0
LINE
  8
1
 10
       83.722318
 20
      -52.449570
 30
        0.000000
 11
       78.722318
 21
      -52.449570
 31
        0.000000
  0
LINE
  8
1
 10
       83.722318
 20
      -51.949570
 30
        0.000000
 11
       78.722318
 21
      -51.949570
 31
        0.000000
  0
LINE
  8
1
 10
       83.722318
 20
      -51.449570
 30
        0.000000
 11
       78.722318
 21
      -51.449570
 31
        0.000000
  0
LINE
  8
1
 10
       83.722318
 20
      -50.949570
 30
        0.000000
 11
       78.722318
 21
      -50.949570
 31
        0.000000
  0
LINE
  8
1
 10
       83.722318
 20
      -50.449570
 30
        0.000000
 11
       78.722318
 21
      -50.449570
 31
        0.000000
  0
LINE
  8
1
 10
       83.722318
 20
      -49.949570
 30
        0.000000
 11
       78.722318
 21
      -49.949570
 31
        0.000000
  0
LINE
  8
1
 10
       83.722318
 20
      -49.449570
 30
        0.000000
 11
       78.722318
 21
      -49.449570
 31
        0.000000
  0
LINE
  8
1
 10
       79.222318
 20
      -34.449570
 30
        0.000000
 11
       78.722318
 21
      -34.949570
 31
        0.000000
  0
LINE
  8
1
 10
       83.722318
 20
      -34.949570
 30
        0.000000
 11
       83.222318
 21
      -34.449570
 31
        0.000000
  0
LINE
  8
1
 10
       78.722318
 20
      -63.949570
 30
        0.000000
 11
       79.222318
 21
      -64.449570
 31
        0.000000
  0
LINE
  8
1
 10
       83.722318
 20
      -63.949570
 30
        0.000000
 11
       83.222318
 21
      -64.449570
 31
        0.000000
  0
LINE
  8
1
 10
       89.522318
 20
      -37.249570
 30
        0.000000
 11
       89.522318
 21
      -61.649570
 31
        0.000000
  0
LINE
  8
1
 10
       92.722318
 20
      -61.649570
 30
        0.000000
 11
       89.522318
 21
      -61.649570
 31
        0.000000
  0
LINE
  8
1
 10
       90.022318
 20
      -36.749570
 30
        0.000000
 11
       92.222318
 21
      -36.749570
 31
        0.000000
  0
LINE
  8
1
 10
       92.722318
 20
      -37.249570
 30
        0.000000
 11
       92.722318
 21
      -61.649570
 31
        0.000000
  0
LINE
  8
1
 10
       90.022318
 20
      -62.149570
 30
        0.000000
 11
       92.222318
 21
      -62.149570
 31
        0.000000
  0
LINE
  8
1
 10
       83.722318
 20
      -36.749570
 30
        0.000000
 11
       83.722318
 21
      -62.149570
 31
        0.000000
  0
LINE
  8
1
 10
       79.222318
 20
      -34.449570
 30
        0.000000
 11
       83.222318
 21
      -34.449570
 31
        0.000000
  0
LINE
  8
1
 10
       83.722318
 20
      -34.949570
 30
        0.000000
 11
       83.722318
 21
      -63.949570
 31
        0.000000
  0
LINE
  8
1
  6
CENTER
 10
       95.698135
 20
      -49.449570
 30
        0.000000
 11
       77.056976
 21
      -49.449570
 31
        0.000000
  0
LINE
  8
1
 10
       83.722318
 20
      -34.949570
 30
        0.000000
 11
       83.722318
 21
      -63.949570
 31
        0.000000
  0
LINE
  8
1
 10
       79.222318
 20
      -64.449570
 30
        0.000000
 11
       83.222318
 21
      -64.449570
 31
        0.000000
  0
LINE
  8
1
 10
       78.722318
 20
      -34.949570
 30
        0.000000
 11
       78.722318
 21
      -63.949570
 31
        0.000000
  0
LINE
  8
1
  6
CENTER
 10
      103.098114
 20
      -49.449570
 30
        0.000000
 11
      118.169428
 21
      -49.449570
 31
        0.000000
  0
LINE
  8
1
 10
      111.993611
 20
      -37.249570
 30
        0.000000
 11
      111.993611
 21
      -61.649570
 31
        0.000000
  0
LINE
  8
1
 10
      115.193611
 20
      -37.249570
 30
        0.000000
 11
      111.993611
 21
      -37.249570
 31
        0.000000
  0
LINE
  8
1
 10
      115.193611
 20
      -61.649570
 30
        0.000000
 11
      111.993611
 21
      -61.649570
 31
        0.000000
  0
LINE
  8
1
 10
      111.193611
 20
      -61.649570
 30
        0.000000
 11
      111.993611
 21
      -61.649570
 31
        0.000000
  0
LINE
  8
1
 10
      112.493611
 20
      -36.749570
 30
        0.000000
 11
      111.993611
 21
      -37.249570
 31
        0.000000
  0
LINE
  8
1
 10
      111.993611
 20
      -61.649570
 30
        0.000000
 11
      112.493611
 21
      -62.149570
 31
        0.000000
  0
LINE
  8
1
 10
      111.993611
 20
      -37.249570
 30
        0.000000
 11
      111.193611
 21
      -37.249570
 31
        0.000000
  0
LINE
  8
1
 10
      115.193611
 20
      -37.249570
 30
        0.000000
 11
      114.693611
 21
      -36.749570
 31
        0.000000
  0
LINE
  8
1
 10
      115.193611
 20
      -61.649570
 30
        0.000000
 11
      114.693611
 21
      -62.149570
 31
        0.000000
  0
LINE
  8
1
 10
      110.993611
 20
      -34.749570
 30
        0.000000
 11
      106.393611
 21
      -34.749570
 31
        0.000000
  0
LINE
  8
1
 10
      111.193611
 20
      -35.049570
 30
        0.000000
 11
      106.193611
 21
      -35.049570
 31
        0.000000
  0
LINE
  8
1
 10
      111.193611
 20
      -35.349570
 30
        0.000000
 11
      106.193611
 21
      -35.349570
 31
        0.000000
  0
LINE
  8
1
 10
      111.193611
 20
      -35.649570
 30
        0.000000
 11
      106.193611
 21
      -35.649570
 31
        0.000000
  0
LINE
  8
1
 10
      111.193611
 20
      -35.949570
 30
        0.000000
 11
      106.193611
 21
      -35.949570
 31
        0.000000
  0
LINE
  8
1
 10
      111.193611
 20
      -36.449570
 30
        0.000000
 11
      106.193611
 21
      -36.449570
 31
        0.000000
  0
LINE
  8
1
 10
      111.193611
 20
      -36.949570
 30
        0.000000
 11
      106.193611
 21
      -36.949570
 31
        0.000000
  0
LINE
  8
1
 10
      111.193611
 20
      -37.449570
 30
        0.000000
 11
      106.193611
 21
      -37.449570
 31
        0.000000
  0
LINE
  8
1
 10
      111.193611
 20
      -37.949570
 30
        0.000000
 11
      106.193611
 21
      -37.949570
 31
        0.000000
  0
LINE
  8
1
 10
      111.193611
 20
      -38.449570
 30
        0.000000
 11
      106.193611
 21
      -38.449570
 31
        0.000000
  0
LINE
  8
1
 10
      111.193611
 20
      -38.949570
 30
        0.000000
 11
      106.193611
 21
      -38.949570
 31
        0.000000
  0
LINE
  8
1
 10
      111.193611
 20
      -39.449570
 30
        0.000000
 11
      106.193611
 21
      -39.449570
 31
        0.000000
  0
LINE
  8
1
 10
      111.193611
 20
      -39.949570
 30
        0.000000
 11
      106.193611
 21
      -39.949570
 31
        0.000000
  0
LINE
  8
1
 10
      111.193611
 20
      -40.449570
 30
        0.000000
 11
      106.193611
 21
      -40.449570
 31
        0.000000
  0
LINE
  8
1
 10
      111.193611
 20
      -40.949570
 30
        0.000000
 11
      106.193611
 21
      -40.949570
 31
        0.000000
  0
LINE
  8
1
 10
      111.193611
 20
      -41.449570
 30
        0.000000
 11
      106.193611
 21
      -41.449570
 31
        0.000000
  0
LINE
  8
1
 10
      111.193611
 20
      -41.949570
 30
        0.000000
 11
      106.193611
 21
      -41.949570
 31
        0.000000
  0
LINE
  8
1
 10
      111.193611
 20
      -42.449570
 30
        0.000000
 11
      106.193611
 21
      -42.449570
 31
        0.000000
  0
LINE
  8
1
 10
      111.193611
 20
      -42.949570
 30
        0.000000
 11
      106.193611
 21
      -42.949570
 31
        0.000000
  0
LINE
  8
1
 10
      111.193611
 20
      -43.449570
 30
        0.000000
 11
      106.193611
 21
      -43.449570
 31
        0.000000
  0
LINE
  8
1
 10
      111.193611
 20
      -43.949570
 30
        0.000000
 11
      106.193611
 21
      -43.949570
 31
        0.000000
  0
LINE
  8
1
 10
      111.193611
 20
      -44.449570
 30
        0.000000
 11
      106.193611
 21
      -44.449570
 31
        0.000000
  0
LINE
  8
1
 10
      111.193611
 20
      -44.949570
 30
        0.000000
 11
      106.193611
 21
      -44.949570
 31
        0.000000
  0
LINE
  8
1
 10
      111.193611
 20
      -45.449570
 30
        0.000000
 11
      106.193611
 21
      -45.449570
 31
        0.000000
  0
LINE
  8
1
 10
      111.193611
 20
      -45.949570
 30
        0.000000
 11
      106.193611
 21
      -45.949570
 31
        0.000000
  0
LINE
  8
1
 10
      111.193611
 20
      -46.449570
 30
        0.000000
 11
      106.193611
 21
      -46.449570
 31
        0.000000
  0
LINE
  8
1
 10
      111.193611
 20
      -46.949570
 30
        0.000000
 11
      106.193611
 21
      -46.949570
 31
        0.000000
  0
LINE
  8
1
 10
      111.193611
 20
      -47.449570
 30
        0.000000
 11
      106.193611
 21
      -47.449570
 31
        0.000000
  0
LINE
  8
1
 10
      111.193611
 20
      -47.949570
 30
        0.000000
 11
      106.193611
 21
      -47.949570
 31
        0.000000
  0
LINE
  8
1
 10
      111.193611
 20
      -48.449570
 30
        0.000000
 11
      106.193611
 21
      -48.449570
 31
        0.000000
  0
LINE
  8
1
 10
      111.193611
 20
      -48.949570
 30
        0.000000
 11
      106.193611
 21
      -48.949570
 31
        0.000000
  0
LINE
  8
1
 10
      111.193611
 20
      -49.449570
 30
        0.000000
 11
      106.193611
 21
      -49.449570
 31
        0.000000
  0
LINE
  8
1
 10
      106.193611
 20
      -34.949570
 30
        0.000000
 11
      106.693611
 21
      -34.449570
 31
        0.000000
  0
LINE
  8
1
 10
      111.193611
 20
      -34.949570
 30
        0.000000
 11
      110.693611
 21
      -34.449570
 31
        0.000000
  0
LINE
  8
1
 10
      106.693611
 20
      -34.449570
 30
        0.000000
 11
      110.693611
 21
      -34.449570
 31
        0.000000
  0
LINE
  8
1
 10
      110.993611
 20
      -64.149570
 30
        0.000000
 11
      106.393611
 21
      -64.149570
 31
        0.000000
  0
LINE
  8
1
 10
      111.193611
 20
      -63.849570
 30
        0.000000
 11
      106.193611
 21
      -63.849570
 31
        0.000000
  0
LINE
  8
1
 10
      111.193611
 20
      -63.549570
 30
        0.000000
 11
      106.193611
 21
      -63.549570
 31
        0.000000
  0
LINE
  8
1
 10
      111.193611
 20
      -63.249570
 30
        0.000000
 11
      106.193611
 21
      -63.249570
 31
        0.000000
  0
LINE
  8
1
 10
      111.193611
 20
      -62.949570
 30
        0.000000
 11
      106.193611
 21
      -62.949570
 31
        0.000000
  0
LINE
  8
1
 10
      111.193611
 20
      -62.449570
 30
        0.000000
 11
      106.193611
 21
      -62.449570
 31
        0.000000
  0
LINE
  8
1
 10
      111.193611
 20
      -61.949570
 30
        0.000000
 11
      106.193611
 21
      -61.949570
 31
        0.000000
  0
LINE
  8
1
 10
      111.193611
 20
      -61.449570
 30
        0.000000
 11
      106.193611
 21
      -61.449570
 31
        0.000000
  0
LINE
  8
1
 10
      111.193611
 20
      -60.949570
 30
        0.000000
 11
      106.193611
 21
      -60.949570
 31
        0.000000
  0
LINE
  8
1
 10
      111.193611
 20
      -60.449570
 30
        0.000000
 11
      106.193611
 21
      -60.449570
 31
        0.000000
  0
LINE
  8
1
 10
      111.193611
 20
      -59.949570
 30
        0.000000
 11
      106.193611
 21
      -59.949570
 31
        0.000000
  0
LINE
  8
1
 10
      111.193611
 20
      -59.449570
 30
        0.000000
 11
      106.193611
 21
      -59.449570
 31
        0.000000
  0
LINE
  8
1
 10
      111.193611
 20
      -58.949570
 30
        0.000000
 11
      106.193611
 21
      -58.949570
 31
        0.000000
  0
LINE
  8
1
 10
      111.193611
 20
      -58.449570
 30
        0.000000
 11
      106.193611
 21
      -58.449570
 31
        0.000000
  0
LINE
  8
1
 10
      111.193611
 20
      -57.949570
 30
        0.000000
 11
      106.193611
 21
      -57.949570
 31
        0.000000
  0
LINE
  8
1
 10
      111.193611
 20
      -57.449570
 30
        0.000000
 11
      106.193611
 21
      -57.449570
 31
        0.000000
  0
LINE
  8
1
 10
      111.193611
 20
      -56.949570
 30
        0.000000
 11
      106.193611
 21
      -56.949570
 31
        0.000000
  0
LINE
  8
1
 10
      111.193611
 20
      -56.449570
 30
        0.000000
 11
      106.193611
 21
      -56.449570
 31
        0.000000
  0
LINE
  8
1
 10
      111.193611
 20
      -55.949570
 30
        0.000000
 11
      106.193611
 21
      -55.949570
 31
        0.000000
  0
LINE
  8
1
 10
      111.193611
 20
      -55.449570
 30
        0.000000
 11
      106.193611
 21
      -55.449570
 31
        0.000000
  0
LINE
  8
1
 10
      111.193611
 20
      -54.949570
 30
        0.000000
 11
      106.193611
 21
      -54.949570
 31
        0.000000
  0
LINE
  8
1
 10
      111.193611
 20
      -54.449570
 30
        0.000000
 11
      106.193611
 21
      -54.449570
 31
        0.000000
  0
LINE
  8
1
 10
      111.193611
 20
      -53.949570
 30
        0.000000
 11
      106.193611
 21
      -53.949570
 31
        0.000000
  0
LINE
  8
1
 10
      111.193611
 20
      -53.449570
 30
        0.000000
 11
      106.193611
 21
      -53.449570
 31
        0.000000
  0
LINE
  8
1
 10
      111.193611
 20
      -52.949570
 30
        0.000000
 11
      106.193611
 21
      -52.949570
 31
        0.000000
  0
LINE
  8
1
 10
      111.193611
 20
      -52.449570
 30
        0.000000
 11
      106.193611
 21
      -52.449570
 31
        0.000000
  0
LINE
  8
1
 10
      111.193611
 20
      -51.949570
 30
        0.000000
 11
      106.193611
 21
      -51.949570
 31
        0.000000
  0
LINE
  8
1
 10
      111.193611
 20
      -51.449570
 30
        0.000000
 11
      106.193611
 21
      -51.449570
 31
        0.000000
  0
LINE
  8
1
 10
      111.193611
 20
      -50.949570
 30
        0.000000
 11
      106.193611
 21
      -50.949570
 31
        0.000000
  0
LINE
  8
1
 10
      111.193611
 20
      -50.449570
 30
        0.000000
 11
      106.193611
 21
      -50.449570
 31
        0.000000
  0
LINE
  8
1
 10
      111.193611
 20
      -49.949570
 30
        0.000000
 11
      106.193611
 21
      -49.949570
 31
        0.000000
  0
LINE
  8
1
 10
      111.193611
 20
      -49.449570
 30
        0.000000
 11
      106.193611
 21
      -49.449570
 31
        0.000000
  0
LINE
  8
1
 10
      106.693611
 20
      -34.449570
 30
        0.000000
 11
      106.193611
 21
      -34.949570
 31
        0.000000
  0
LINE
  8
1
 10
      111.193611
 20
      -34.949570
 30
        0.000000
 11
      110.693611
 21
      -34.449570
 31
        0.000000
  0
LINE
  8
1
 10
      106.193611
 20
      -63.949570
 30
        0.000000
 11
      106.693611
 21
      -64.449570
 31
        0.000000
  0
LINE
  8
1
 10
      111.193611
 20
      -63.949570
 30
        0.000000
 11
      110.693611
 21
      -64.449570
 31
        0.000000
  0
LINE
  8
1
 10
      112.493611
 20
      -36.749570
 30
        0.000000
 11
      114.693611
 21
      -36.749570
 31
        0.000000
  0
LINE
  8
1
 10
      115.193611
 20
      -37.249570
 30
        0.000000
 11
      115.193611
 21
      -61.649570
 31
        0.000000
  0
LINE
  8
1
 10
      112.493611
 20
      -62.149570
 30
        0.000000
 11
      114.693611
 21
      -62.149570
 31
        0.000000
  0
LINE
  8
1
 10
      111.193611
 20
      -36.749570
 30
        0.000000
 11
      111.193611
 21
      -62.149570
 31
        0.000000
  0
LINE
  8
1
 10
      106.693611
 20
      -34.449570
 30
        0.000000
 11
      110.693611
 21
      -34.449570
 31
        0.000000
  0
LINE
  8
1
 10
      111.193611
 20
      -34.949570
 30
        0.000000
 11
      111.193611
 21
      -63.949570
 31
        0.000000
  0
LINE
  8
1
 10
      106.693611
 20
      -64.449570
 30
        0.000000
 11
      110.693611
 21
      -64.449570
 31
        0.000000
  0
LINE
  8
1
 10
      106.193611
 20
      -34.949570
 30
        0.000000
 11
      106.193611
 21
      -63.949570
 31
        0.000000
  0
CIRCLE
  8
1
 10
        0.000000
 20
       75.482433
 30
        0.000000
 40
       15.000000
  0
INSERT
  8
0
  2
BLK0008
 10
        0.000000
 20
        0.000000
  0
INSERT
  8
0
  2
BLK0009
 10
        0.000000
 20
        0.000000
  0
INSERT
  8
0
  2
BLK0010
 10
        0.000000
 20
        0.000000
  0
INSERT
  8
0
  2
BLK0011
 10
        0.000000
 20
        0.000000
  0
INSERT
  8
0
  2
BLK0012
 10
        0.000000
 20
        0.000000
  0
ENDSEC
  0
EOF
