  0
SECTION
  2
HEADER
  9
$ACADVER
  1
AC1006
  9
$INSBASE
 10
0.0
 20
0.0
 30
0.0
  9
$EXTMIN
 10
      -18.972494
 20
      -18.972494
  9
$EXTMAX
 10
       87.995636
 20
       34.528786
  9
$LIMMIN
 10
      -18.972494
 20
      -18.972494
  9
$LIMMAX
 10
       87.995636
 20
       34.528786
  9
$VIEWCTR
 10
       34.511570
 20
       34.511570
  9
$ORTHOMODE
 70
     0
  9
$ANGBASE
 50
0.0
  9
$ANGDIR
 70
     0
  9
$SPLINETYPE
 70
     6
  9
$SPLINESEGS
 70
     8
9
$DIMASZ
 40
        2.500000
9
$DIMEXE
 40
        0.500000
9
$DIMEXO
 40
        1.000000
9
$DIMTXT
 40
        2.500000
9
$DIMGAP
 40
        0.500000
9
$DIMTAD
 70
1
9
$DIMTIH
 70
0
9
$DIMTOH
 70
0
  0
ENDSEC
  0
SECTION
  2
TABLES
  0
TABLE
  2
LTYPE
 70
     5
  0
LTYPE
  2
CONTINUOUS
 70
    64
  3
SOLID LINE
 72
    65
 73
     0
 40
0.0
  0
LTYPE
  2
DASHED
 70
    64
  3
-- -- -- -- -- --
 72
    65
 73
     2
 40
  0.75  
 49
  0.50  
 49
 -0.25  
  0
LTYPE
  2
DOT
 70
    64
  3
....................
 72
    65
 73
     2
 40
  0.25  
 49
  0.02  
 49
 -0.23  
  0
LTYPE
  2
CENTER
 70
    64
  3
-- . -- . -- . -- .
 72
    65
 73
    4
 40
  2.00  
 49
  1.25  
 49
 -0.25  
 49
  0.25  
 49
 -0.25  
  0
LTYPE
  2
PHANTOM
 70
    64
  3
-- .. -- .. -- ..
 72
    65
 73
    6
 40
  2.50  
 49
  1.25  
 49
 -0.25  
 49
  0.25  
 49
 -0.25  
 49
  0.25  
 49
 -0.25  
  0
ENDTAB
  0
TABLE
  2
LAYER
 70
     2
  0
LAYER
  2
0
 70
    64
 62
     3
  6
CENTER
  0
LAYER
  2
1
 70
    64
 62
     3
  6
CONTINUOUS
  0
ENDTAB
  0
TABLE
  2
STYLE
 70
     2
  0
STYLE
  2
STANDARD
 70
    64
 40
0.0
 41
1.0
 50
0.0
 71
     0
 42
5.0
  3
ROMANS
  4
BIGFONT
  0
STYLE
  2
BIGFONT
 70
    64
 40
0.0
 41
1.0
 50
0.0
 71
     0
 42
5.0
  3
ROMANS
  4
BIGFONT
  0
ENDTAB
  0
TABLE
  2
VIEW
 70
     0
  0
ENDTAB
  0
TABLE
  2
UCS
 70
     0
  0
ENDTAB
  0
TABLE
  2
DWGMGR
 70
     0
  0
ENDTAB
  0
ENDSEC
  0
SECTION
  2
BLOCKS
  0
BLOCK
  8
0
  2
BLK0001
 70
    64
 10
        0.000000
 20
        0.000000
  0
TEXT
  8
0
  6
CONTINUOUS
 62
  5
 10
       53.932751
 20
      -25.348709
 30
        0.000000
 40
        2.500000
  1
４１．６
 50
        0.000000
 41
        1.000000
 51
        0.000000
  7
BIGFONT
  0
LINE
  8
0
  6
CONTINUOUS
 62
  5
 10
       35.873634
 20
      -14.950000
 30
        0.000000
 11
       35.873634
 21
      -26.348709
 31
        0.000000
  0
LINE
  8
0
  6
CONTINUOUS
 62
  5
 10
       77.473602
 20
      -15.400000
 30
        0.000000
 11
       77.473602
 21
      -26.348709
 31
        0.000000
  0
LINE
  8
0
  6
CONTINUOUS
 62
  5
 10
       38.373634
 20
      -25.194210
 30
        0.000000
 11
       35.873634
 21
      -25.848709
 31
        0.000000
  0
LINE
  8
0
  6
CONTINUOUS
 62
  5
 10
       35.873634
 20
      -25.848709
 30
        0.000000
 11
       38.373634
 21
      -26.503208
 31
        0.000000
  0
LINE
  8
0
  6
CONTINUOUS
 62
  5
 10
       74.973602
 20
      -26.503208
 30
        0.000000
 11
       77.473602
 21
      -25.848709
 31
        0.000000
  0
LINE
  8
0
  6
CONTINUOUS
 62
  5
 10
       77.473602
 20
      -25.848709
 30
        0.000000
 11
       74.973602
 21
      -25.194210
 31
        0.000000
  0
LINE
  8
0
  6
CONTINUOUS
 62
  5
 10
       35.873634
 20
      -25.848709
 30
        0.000000
 11
       77.473602
 21
      -25.848709
 31
        0.000000
  0
ENDBLK
  0
BLOCK
  8
0
  2
BLK0002
 70
    64
 10
        0.000000
 20
        0.000000
  0
TEXT
  8
0
  6
CONTINUOUS
 62
  5
 10
       -2.951141
 20
      -25.751518
 30
        0.000000
 40
        2.500000
  1
φ３４
 50
        0.000000
 41
        1.000000
 51
        0.000000
  7
BIGFONT
  0
LINE
  8
0
  6
CONTINUOUS
 62
  5
 10
      -17.000000
 20
       -1.000000
 30
        0.000000
 11
      -17.000000
 21
      -26.751518
 31
        0.000000
  0
LINE
  8
0
  6
CONTINUOUS
 62
  5
 10
       17.000000
 20
       -1.000000
 30
        0.000000
 11
       17.000000
 21
      -26.751518
 31
        0.000000
  0
LINE
  8
0
  6
CONTINUOUS
 62
  5
 10
      -14.500000
 20
      -25.597019
 30
        0.000000
 11
      -17.000000
 21
      -26.251518
 31
        0.000000
  0
LINE
  8
0
  6
CONTINUOUS
 62
  5
 10
      -17.000000
 20
      -26.251518
 30
        0.000000
 11
      -14.500000
 21
      -26.906017
 31
        0.000000
  0
LINE
  8
0
  6
CONTINUOUS
 62
  5
 10
       14.500000
 20
      -26.906017
 30
        0.000000
 11
       17.000000
 21
      -26.251518
 31
        0.000000
  0
LINE
  8
0
  6
CONTINUOUS
 62
  5
 10
       17.000000
 20
      -26.251518
 30
        0.000000
 11
       14.500000
 21
      -25.597019
 31
        0.000000
  0
LINE
  8
0
  6
CONTINUOUS
 62
  5
 10
      -17.000000
 20
      -26.251518
 30
        0.000000
 11
       17.000000
 21
      -26.251518
 31
        0.000000
  0
ENDBLK
  0
ENDSEC
  0
SECTION
  2
ENTITIES
  0
LINE
  8
0
 10
        0.000000
 20
       21.591110
 30
        0.000000
 11
        0.000000
 21
      -18.972494
 31
        0.000000
  0
LINE
  8
1
 10
       36.173633
 20
       14.250000
 30
        0.000000
 11
       36.173633
 21
      -14.250000
 31
        0.000000
  0
LINE
  8
1
 10
       39.673633
 20
       14.250000
 30
        0.000000
 11
       39.673633
 21
      -14.250000
 31
        0.000000
  0
LINE
  8
1
 10
       40.673633
 20
       15.250000
 30
        0.000000
 11
       40.673633
 21
      -15.250000
 31
        0.000000
  0
LINE
  8
1
 10
       46.173633
 20
       15.250000
 30
        0.000000
 11
       46.173633
 21
      -15.250000
 31
        0.000000
  0
LINE
  8
1
 10
       47.173633
 20
       14.250000
 30
        0.000000
 11
       47.173633
 21
      -14.250000
 31
        0.000000
  0
LINE
  8
1
 10
       48.173633
 20
       15.250000
 30
        0.000000
 11
       48.173633
 21
      -15.250000
 31
        0.000000
  0
LINE
  8
1
 10
       52.373633
 20
       15.250000
 30
        0.000000
 11
       52.373633
 21
      -15.250000
 31
        0.000000
  0
LINE
  8
1
 10
       53.473633
 20
       15.250000
 30
        0.000000
 11
       53.473633
 21
      -15.250000
 31
        0.000000
  0
LINE
  8
1
 10
       56.163270
 20
       15.250000
 30
        0.000000
 11
       56.163270
 21
      -15.250000
 31
        0.000000
  0
LINE
  8
1
 10
       57.173633
 20
       17.000000
 30
        0.000000
 11
       57.173633
 21
      -17.000000
 31
        0.000000
  0
LINE
  8
1
 10
       74.673633
 20
      -15.500000
 30
        0.000000
 11
       73.923633
 21
      -16.250000
 31
        0.000000
  0
LINE
  8
1
 10
       73.923633
 20
      -16.250000
 30
        0.000000
 11
       65.173633
 21
      -16.250000
 31
        0.000000
  0
LINE
  8
1
 10
       65.173633
 20
      -16.250000
 30
        0.000000
 11
       64.423633
 21
      -17.000000
 31
        0.000000
  0
LINE
  8
1
 10
       64.423633
 20
      -17.000000
 30
        0.000000
 11
       57.173633
 21
      -17.000000
 31
        0.000000
  0
LINE
  8
1
 10
       57.173633
 20
      -17.000000
 30
        0.000000
 11
       56.163270
 21
      -15.250000
 31
        0.000000
  0
LINE
  8
1
 10
       56.163270
 20
      -15.250000
 30
        0.000000
 11
       53.473633
 21
      -15.250000
 31
        0.000000
  0
LINE
  8
1
 10
       53.473633
 20
      -15.250000
 30
        0.000000
 11
       53.173633
 21
      -14.950000
 31
        0.000000
  0
LINE
  8
1
 10
       53.173633
 20
      -14.950000
 30
        0.000000
 11
       53.173633
 21
       14.950000
 31
        0.000000
  0
LINE
  8
1
 10
       53.173633
 20
      -13.650000
 30
        0.000000
 11
       52.673633
 21
      -13.650000
 31
        0.000000
  0
LINE
  8
1
 10
       52.673633
 20
       14.950000
 30
        0.000000
 11
       52.673633
 21
      -14.950000
 31
        0.000000
  0
LINE
  8
1
 10
       52.673633
 20
      -14.950000
 30
        0.000000
 11
       52.373633
 21
      -15.250000
 31
        0.000000
  0
LINE
  8
1
 10
       52.373633
 20
      -15.250000
 30
        0.000000
 11
       48.173633
 21
      -15.250000
 31
        0.000000
  0
LINE
  8
1
 10
       48.173633
 20
      -15.250000
 30
        0.000000
 11
       47.173633
 21
      -14.250000
 31
        0.000000
  0
LINE
  8
1
 10
       47.173633
 20
      -14.250000
 30
        0.000000
 11
       46.173633
 21
      -15.250000
 31
        0.000000
  0
LINE
  8
1
 10
       46.173633
 20
      -15.250000
 30
        0.000000
 11
       40.673633
 21
      -15.250000
 31
        0.000000
  0
LINE
  8
1
 10
       40.673633
 20
      -15.250000
 30
        0.000000
 11
       39.673633
 21
      -14.250000
 31
        0.000000
  0
LINE
  8
1
 10
       39.673633
 20
      -14.250000
 30
        0.000000
 11
       36.173633
 21
      -14.250000
 31
        0.000000
  0
LINE
  8
1
 10
       36.173633
 20
      -14.250000
 30
        0.000000
 11
       35.873633
 21
      -13.950000
 31
        0.000000
  0
LINE
  8
1
 10
       35.873633
 20
      -13.950000
 30
        0.000000
 11
       35.873633
 21
       13.950000
 31
        0.000000
  0
LINE
  8
1
 10
       60.173633
 20
       17.750000
 30
        0.000000
 11
       60.173633
 21
       17.000000
 31
        0.000000
  0
LINE
  8
1
 10
       58.173633
 20
       17.750000
 30
        0.000000
 11
       58.173633
 21
       17.000000
 31
        0.000000
  0
LINE
  8
1
 10
       57.173633
 20
       19.950000
 30
        0.000000
 11
       61.173633
 21
       19.950000
 31
        0.000000
  0
LINE
  8
1
 10
       57.173633
 20
       18.050000
 30
        0.000000
 11
       61.173633
 21
       18.050000
 31
        0.000000
  0
LINE
  8
1
 10
       57.173633
 20
       18.050000
 30
        0.000000
 11
       57.473633
 21
       17.750000
 31
        0.000000
  0
LINE
  8
1
 10
       57.173633
 20
       19.950000
 30
        0.000000
 11
       57.173633
 21
       18.050000
 31
        0.000000
  0
LINE
  8
1
 10
       57.473633
 20
       20.250000
 30
        0.000000
 11
       57.173633
 21
       19.950000
 31
        0.000000
  0
LINE
  8
1
 10
       60.873633
 20
       20.250000
 30
        0.000000
 11
       57.473633
 21
       20.250000
 31
        0.000000
  0
LINE
  8
1
 10
       61.173633
 20
       19.950000
 30
        0.000000
 11
       60.873633
 21
       20.250000
 31
        0.000000
  0
LINE
  8
1
 10
       60.873633
 20
       17.750000
 30
        0.000000
 11
       61.173633
 21
       18.050000
 31
        0.000000
  0
LINE
  8
1
 10
       57.473633
 20
       17.750000
 30
        0.000000
 11
       60.873633
 21
       17.750000
 31
        0.000000
  0
LINE
  8
1
 10
       48.673633
 20
       16.550000
 30
        0.000000
 11
       52.673633
 21
       16.550000
 31
        0.000000
  0
LINE
  8
1
 10
       49.673633
 20
       16.250000
 30
        0.000000
 11
       49.673633
 21
       15.250000
 31
        0.000000
  0
LINE
  8
1
 10
       48.673633
 20
       16.550000
 30
        0.000000
 11
       48.973633
 21
       16.250000
 31
        0.000000
  0
LINE
  8
1
 10
       52.373633
 20
       16.250000
 30
        0.000000
 11
       52.673633
 21
       16.550000
 31
        0.000000
  0
LINE
  8
1
 10
       48.973633
 20
       16.250000
 30
        0.000000
 11
       52.373633
 21
       16.250000
 31
        0.000000
  0
LINE
  8
1
 10
       51.673633
 20
       15.250000
 30
        0.000000
 11
       51.673633
 21
       16.250000
 31
        0.000000
  0
LINE
  8
1
 10
       73.923633
 20
       16.250000
 30
        0.000000
 11
       74.673633
 21
       15.500000
 31
        0.000000
  0
LINE
  8
1
 10
       65.173633
 20
       16.250000
 30
        0.000000
 11
       73.923633
 21
       16.250000
 31
        0.000000
  0
LINE
  8
1
 10
       64.423633
 20
       17.000000
 30
        0.000000
 11
       65.173633
 21
       16.250000
 31
        0.000000
  0
LINE
  8
1
 10
       57.173633
 20
       17.000000
 30
        0.000000
 11
       64.423633
 21
       17.000000
 31
        0.000000
  0
LINE
  8
1
 10
       56.163270
 20
       15.250000
 30
        0.000000
 11
       57.173633
 21
       17.000000
 31
        0.000000
  0
LINE
  8
1
 10
       53.473633
 20
       15.250000
 30
        0.000000
 11
       56.163270
 21
       15.250000
 31
        0.000000
  0
LINE
  8
1
 10
       53.173633
 20
       14.950000
 30
        0.000000
 11
       53.473633
 21
       15.250000
 31
        0.000000
  0
LINE
  8
1
 10
       52.673633
 20
       13.650000
 30
        0.000000
 11
       53.173633
 21
       13.650000
 31
        0.000000
  0
LINE
  8
1
 10
       52.373633
 20
       15.250000
 30
        0.000000
 11
       52.673633
 21
       14.950000
 31
        0.000000
  0
LINE
  8
1
 10
       48.173633
 20
       15.250000
 30
        0.000000
 11
       52.373633
 21
       15.250000
 31
        0.000000
  0
LINE
  8
1
 10
       47.173633
 20
       14.250000
 30
        0.000000
 11
       48.173633
 21
       15.250000
 31
        0.000000
  0
LINE
  8
1
 10
       46.173633
 20
       15.250000
 30
        0.000000
 11
       47.173633
 21
       14.250000
 31
        0.000000
  0
LINE
  8
1
 10
       40.673633
 20
       15.250000
 30
        0.000000
 11
       46.173633
 21
       15.250000
 31
        0.000000
  0
LINE
  8
1
 10
       39.673633
 20
       14.250000
 30
        0.000000
 11
       40.673633
 21
       15.250000
 31
        0.000000
  0
LINE
  8
1
 10
       36.173633
 20
       14.250000
 30
        0.000000
 11
       39.673633
 21
       14.250000
 31
        0.000000
  0
LINE
  8
1
 10
       35.873633
 20
       13.950000
 30
        0.000000
 11
       36.173633
 21
       14.250000
 31
        0.000000
  0
LINE
  8
1
 10
       -2.000000
 20
       19.700000
 30
        0.000000
 11
       -2.000000
 21
       17.800000
 31
        0.000000
  0
LINE
  8
0
 10
      -19.790856
 20
        0.000000
 30
        0.000000
 11
       19.257329
 21
        0.000000
 31
        0.000000
  0
LINE
  8
1
 10
       74.673633
 20
       15.500000
 30
        0.000000
 11
       74.673633
 21
      -15.500000
 31
        0.000000
  0
LINE
  8
1
 10
       65.173633
 20
       16.250000
 30
        0.000000
 11
       65.173633
 21
      -16.250000
 31
        0.000000
  0
LINE
  8
1
 10
       73.923633
 20
       16.250000
 30
        0.000000
 11
       73.923633
 21
      -16.250000
 31
        0.000000
  0
LINE
  8
1
 10
       64.423633
 20
       17.000000
 30
        0.000000
 11
       64.423633
 21
      -17.000000
 31
        0.000000
  0
LINE
  8
1
 10
       -0.765367
 20
       19.700000
 30
        0.000000
 11
       -0.765367
 21
       17.800000
 31
        0.000000
  0
LINE
  8
1
 10
       -1.414214
 20
       17.800000
 30
        0.000000
 11
       -1.414214
 21
       19.700000
 31
        0.000000
  0
LINE
  8
1
 10
       -1.847759
 20
       19.700000
 30
        0.000000
 11
       -1.847759
 21
       17.800000
 31
        0.000000
  0
LINE
  8
1
 10
        2.000000
 20
       17.800000
 30
        0.000000
 11
        2.000000
 21
       19.700000
 31
        0.000000
  0
LINE
  8
1
 10
        1.847759
 20
       19.700000
 30
        0.000000
 11
        1.847759
 21
       17.800000
 31
        0.000000
  0
LINE
  8
1
 10
        1.414214
 20
       17.800000
 30
        0.000000
 11
        1.414214
 21
       19.700000
 31
        0.000000
  0
LINE
  8
1
 10
        0.765367
 20
       19.700000
 30
        0.000000
 11
        0.765367
 21
       17.800000
 31
        0.000000
  0
LINE
  8
1
 10
       52.673633
 20
       18.450000
 30
        0.000000
 11
       52.373633
 21
       18.750000
 31
        0.000000
  0
LINE
  8
1
 10
       52.373633
 20
       18.750000
 30
        0.000000
 11
       48.973633
 21
       18.750000
 31
        0.000000
  0
LINE
  8
1
 10
       48.973633
 20
       18.750000
 30
        0.000000
 11
       48.673633
 21
       18.450000
 31
        0.000000
  0
LINE
  8
1
 10
       48.673633
 20
       18.450000
 30
        0.000000
 11
       48.673633
 21
       16.550000
 31
        0.000000
  0
LINE
  8
1
 10
       48.673633
 20
       18.450000
 30
        0.000000
 11
       52.673633
 21
       18.450000
 31
        0.000000
  0
LINE
  8
1
 10
       52.521392
 20
       18.450000
 30
        0.000000
 11
       52.521392
 21
       16.550000
 31
        0.000000
  0
LINE
  8
1
 10
       52.087847
 20
       16.550000
 30
        0.000000
 11
       52.087847
 21
       18.450000
 31
        0.000000
  0
LINE
  8
1
 10
       51.439000
 20
       18.450000
 30
        0.000000
 11
       51.439000
 21
       16.550000
 31
        0.000000
  0
LINE
  8
1
 10
       49.908266
 20
       18.450000
 30
        0.000000
 11
       49.908266
 21
       16.550000
 31
        0.000000
  0
LINE
  8
1
 10
       49.259419
 20
       16.550000
 30
        0.000000
 11
       49.259419
 21
       18.450000
 31
        0.000000
  0
LINE
  8
1
 10
       48.825874
 20
       18.450000
 30
        0.000000
 11
       48.825874
 21
       16.550000
 31
        0.000000
  0
LINE
  8
1
 10
       50.673633
 20
       18.450000
 30
        0.000000
 11
       50.673633
 21
       16.550000
 31
        0.000000
  0
LINE
  8
1
 10
       52.673633
 20
       16.550000
 30
        0.000000
 11
       52.673633
 21
       18.450000
 31
        0.000000
  0
LINE
  8
1
 10
       57.325874
 20
       19.950000
 30
        0.000000
 11
       57.325874
 21
       18.050000
 31
        0.000000
  0
LINE
  8
1
 10
       57.759419
 20
       18.050000
 30
        0.000000
 11
       57.759419
 21
       19.950000
 31
        0.000000
  0
LINE
  8
1
 10
       58.408266
 20
       19.950000
 30
        0.000000
 11
       58.408266
 21
       18.050000
 31
        0.000000
  0
LINE
  8
1
 10
       61.021392
 20
       19.950000
 30
        0.000000
 11
       61.021392
 21
       18.050000
 31
        0.000000
  0
LINE
  8
1
 10
       61.173633
 20
       18.050000
 30
        0.000000
 11
       61.173633
 21
       19.950000
 31
        0.000000
  0
LINE
  8
1
 10
       59.173633
 20
       19.950000
 30
        0.000000
 11
       59.173633
 21
       18.050000
 31
        0.000000
  0
LINE
  8
1
 10
       59.939000
 20
       19.950000
 30
        0.000000
 11
       59.939000
 21
       18.050000
 31
        0.000000
  0
LINE
  8
1
 10
       60.587847
 20
       18.050000
 30
        0.000000
 11
       60.587847
 21
       19.950000
 31
        0.000000
  0
TEXT
  8
0
  6
CONTINUOUS
 62
  2
 10
       -8.708105
 20
       34.528786
 30
        0.000000
 40
        3.000000
  1
ＩＶ－１Ｂ２００８
 50
        0.000000
 41
        1.000000
 51
        0.000000
  7
BIGFONT
  0
LINE
  8
1
 10
       -1.700000
 20
       17.500000
 30
        0.000000
 11
        1.700000
 21
       17.500000
 31
        0.000000
  0
LINE
  8
1
 10
       -1.000000
 20
       16.970563
 30
        0.000000
 11
       -1.000000
 21
       17.500000
 31
        0.000000
  0
LINE
  8
1
 10
        1.000000
 20
       16.970563
 30
        0.000000
 11
        1.000000
 21
       17.500000
 31
        0.000000
  0
LINE
  8
1
 10
       -2.000000
 20
       19.700000
 30
        0.000000
 11
        2.000000
 21
       19.700000
 31
        0.000000
  0
LINE
  8
1
 10
       -2.000000
 20
       17.800000
 30
        0.000000
 11
        2.000000
 21
       17.800000
 31
        0.000000
  0
LINE
  8
1
 10
       -2.000000
 20
       17.800000
 30
        0.000000
 11
       -1.700000
 21
       17.500000
 31
        0.000000
  0
LINE
  8
1
 10
       -1.700000
 20
       20.000000
 30
        0.000000
 11
       -2.000000
 21
       19.700000
 31
        0.000000
  0
LINE
  8
1
 10
        1.700000
 20
       20.000000
 30
        0.000000
 11
       -1.700000
 21
       20.000000
 31
        0.000000
  0
LINE
  8
1
 10
        2.000000
 20
       19.700000
 30
        0.000000
 11
        1.700000
 21
       20.000000
 31
        0.000000
  0
LINE
  8
1
 10
        1.700000
 20
       17.500000
 30
        0.000000
 11
        2.000000
 21
       17.800000
 31
        0.000000
  0
LINE
  8
1
 10
        0.000000
 20
       19.700000
 30
        0.000000
 11
        0.000000
 21
       17.800000
 31
        0.000000
  0
CIRCLE
  8
1
 10
        0.000000
 20
        0.000000
 30
        0.000000
 40
        8.600000
  0
CIRCLE
  8
1
 10
        0.000000
 20
        0.000000
 30
        0.000000
 40
       11.172094
  0
CIRCLE
  8
1
 10
        0.000000
 20
        0.000000
 30
        0.000000
 40
       13.250000
  0
CIRCLE
  8
1
 10
        0.000000
 20
        0.000000
 30
        0.000000
 40
       14.250000
  0
CIRCLE
  8
1
 10
        0.000000
 20
        0.000000
 30
        0.000000
 40
       15.250000
  0
CIRCLE
  8
1
 10
        0.000000
 20
        0.000000
 30
        0.000000
 40
       13.500000
  0
CIRCLE
  8
1
 10
        0.000000
 20
        0.000000
 30
        0.000000
 40
       17.000000
  0
LINE
  8
0
 10
       24.697736
 20
        0.000000
 30
        0.000000
 11
       87.995635
 21
        0.000000
 31
        0.000000
  0
ARC
  8
1
 10
       85.113600
 20
       -8.500000
 30
        0.000000
 40
        0.250073
 50
      268.618042
 51
      326.467835
  0
ARC
  8
1
 10
       85.113600
 20
        8.500000
 30
        0.000000
 40
        0.250073
 50
       33.532165
 51
       91.381958
  0
LINE
  8
1
 10
       83.838473
 20
      -10.500000
 30
        0.000000
 11
       83.636283
 21
      -10.500000
 31
        0.000000
  0
LINE
  8
1
 10
       84.038473
 20
      -10.300000
 30
        0.000000
 11
       83.838473
 21
      -10.500000
 31
        0.000000
  0
LINE
  8
1
 10
       84.485334
 20
       -9.003139
 30
        0.000000
 11
       84.738473
 21
       -8.750000
 31
        0.000000
  0
LINE
  8
1
 10
       85.413600
 20
       -8.500000
 30
        0.000000
 11
       85.322054
 21
       -8.638141
 31
        0.000000
  0
LINE
  8
1
 10
       85.413600
 20
       -8.200000
 30
        0.000000
 11
       85.413600
 21
       -8.500000
 31
        0.000000
  0
LINE
  8
1
 10
       84.738473
 20
       -8.750000
 30
        0.000000
 11
       85.107569
 21
       -8.750000
 31
        0.000000
  0
LINE
  8
1
 10
       84.038473
 20
        0.000000
 30
        0.000000
 11
       84.038473
 21
      -10.300000
 31
        0.000000
  0
LINE
  8
1
 10
       84.485334
 20
        0.000000
 30
        0.000000
 11
       84.485334
 21
       -9.000000
 31
        0.000000
  0
LINE
  8
1
 10
       84.738473
 20
        0.000000
 30
        0.000000
 11
       84.738473
 21
       -8.750000
 31
        0.000000
  0
LINE
  8
1
 10
       84.485334
 20
       -9.000000
 30
        0.000000
 11
       84.038473
 21
       -9.000000
 31
        0.000000
  0
LINE
  8
1
 10
       85.413600
 20
        0.000000
 30
        0.000000
 11
       85.413600
 21
       -8.200000
 31
        0.000000
  0
LINE
  8
1
 10
       85.413600
 20
        8.200000
 30
        0.000000
 11
       85.413600
 21
        0.000000
 31
        0.000000
  0
LINE
  8
1
 10
       84.038473
 20
        9.000000
 30
        0.000000
 11
       84.485334
 21
        9.000000
 31
        0.000000
  0
LINE
  8
1
 10
       84.738473
 20
        8.750000
 30
        0.000000
 11
       84.738473
 21
        0.000000
 31
        0.000000
  0
LINE
  8
1
 10
       84.485334
 20
        9.000000
 30
        0.000000
 11
       84.485334
 21
        0.000000
 31
        0.000000
  0
LINE
  8
1
 10
       84.038473
 20
       10.300000
 30
        0.000000
 11
       84.038473
 21
        0.000000
 31
        0.000000
  0
LINE
  8
1
 10
       85.107569
 20
        8.750000
 30
        0.000000
 11
       84.738473
 21
        8.750000
 31
        0.000000
  0
LINE
  8
1
 10
       85.413600
 20
        8.500000
 30
        0.000000
 11
       85.413600
 21
        8.200000
 31
        0.000000
  0
LINE
  8
1
 10
       85.322054
 20
        8.638141
 30
        0.000000
 11
       85.413600
 21
        8.500000
 31
        0.000000
  0
LINE
  8
1
 10
       84.738473
 20
        8.750000
 30
        0.000000
 11
       84.485334
 21
        9.003139
 31
        0.000000
  0
LINE
  8
1
 10
       83.838473
 20
       10.500000
 30
        0.000000
 11
       84.038473
 21
       10.300000
 31
        0.000000
  0
LINE
  8
1
 10
       83.636283
 20
       10.500000
 30
        0.000000
 11
       83.838473
 21
       10.500000
 31
        0.000000
  0
LINE
  8
1
 10
       81.473600
 20
       10.500000
 30
        0.000000
 11
       83.838473
 21
       10.500000
 31
        0.000000
  0
LINE
  8
1
 10
       83.838473
 20
      -10.500000
 30
        0.000000
 11
       81.473600
 21
      -10.500000
 31
        0.000000
  0
LINE
  8
1
 10
       78.473600
 20
      -12.200000
 30
        0.000000
 11
       77.473600
 21
      -12.200000
 31
        0.000000
  0
LINE
  8
1
 10
       78.473600
 20
       12.200000
 30
        0.000000
 11
       78.473600
 21
      -12.200000
 31
        0.000000
  0
LINE
  8
1
 10
       78.973600
 20
       12.700000
 30
        0.000000
 11
       78.973600
 21
      -12.700000
 31
        0.000000
  0
LINE
  8
1
 10
       80.973600
 20
       12.700000
 30
        0.000000
 11
       80.973600
 21
      -12.700000
 31
        0.000000
  0
LINE
  8
1
 10
       81.473600
 20
      -12.200000
 30
        0.000000
 11
       80.973600
 21
      -12.700000
 31
        0.000000
  0
LINE
  8
1
 10
       78.973600
 20
      -12.700000
 30
        0.000000
 11
       78.473600
 21
      -12.200000
 31
        0.000000
  0
LINE
  8
1
 10
       80.973600
 20
       12.700000
 30
        0.000000
 11
       81.473600
 21
       12.200000
 31
        0.000000
  0
LINE
  8
1
 10
       78.973600
 20
       12.700000
 30
        0.000000
 11
       80.973600
 21
       12.700000
 31
        0.000000
  0
LINE
  8
1
 10
       78.473600
 20
       12.200000
 30
        0.000000
 11
       78.973600
 21
       12.700000
 31
        0.000000
  0
LINE
  8
1
 10
       78.473600
 20
      -12.200000
 30
        0.000000
 11
       81.473600
 21
      -12.200000
 31
        0.000000
  0
LINE
  8
1
 10
       78.473600
 20
       12.200000
 30
        0.000000
 11
       81.473600
 21
       12.200000
 31
        0.000000
  0
LINE
  8
1
 10
       81.473600
 20
       12.200000
 30
        0.000000
 11
       81.473600
 21
      -12.200000
 31
        0.000000
  0
LINE
  8
1
 10
       80.973600
 20
      -12.700000
 30
        0.000000
 11
       78.973600
 21
      -12.700000
 31
        0.000000
  0
LINE
  8
1
 10
       77.473600
 20
       12.200000
 30
        0.000000
 11
       78.473600
 21
       12.200000
 31
        0.000000
  0
LINE
  8
1
 10
       77.473600
 20
       14.400000
 30
        0.000000
 11
       77.473600
 21
      -14.400000
 31
        0.000000
  0
LINE
  8
1
 10
       77.473600
 20
      -14.400000
 30
        0.000000
 11
       76.973600
 21
      -14.900000
 31
        0.000000
  0
LINE
  8
1
 10
       76.973600
 20
      -14.900000
 30
        0.000000
 11
       74.673633
 21
      -14.900000
 31
        0.000000
  0
LINE
  8
1
 10
       76.973600
 20
       14.900000
 30
        0.000000
 11
       77.473600
 21
       14.400000
 31
        0.000000
  0
LINE
  8
1
 10
       74.673633
 20
       14.900000
 30
        0.000000
 11
       76.973600
 21
       14.900000
 31
        0.000000
  0
DIMENSION
  8
0
  6
CONTINUOUS
  2
BLK0001
 10
       35.873634
 20
      -25.848709
 11
       53.932751
 21
      -25.348709
 13
       35.873634
 23
      -13.950000
 14
       77.473602
 24
      -14.400000
 50
        0.0
 70
  0
  0
LINE
  8
1
 10
       76.973600
 20
       14.900000
 30
        0.000000
 11
       76.973600
 21
      -14.900000
 31
        0.000000
  0
DIMENSION
  8
0
  6
CONTINUOUS
  2
BLK0002
 10
      -17.000000
 20
      -26.251518
 11
       -2.951141
 21
      -25.751518
 13
      -17.000000
 23
        0.000000
 14
       17.000000
 24
        0.000000
 50
        0.0
 70
  0
  0
ENDSEC
  0
EOF
