  0
SECTION
  2
HEADER
  9
$ACADVER
  1
AC1006
  9
$INSBASE
 10
0.0
 20
0.0
 30
0.0
  9
$EXTMIN
 10
      -19.219624
 20
      -19.219624
  9
$EXTMAX
 10
       80.363503
 20
       31.737499
  9
$LIMMIN
 10
      -19.219624
 20
      -19.219624
  9
$LIMMAX
 10
       80.363503
 20
       31.737499
  9
$VIEWCTR
 10
       30.571939
 20
       30.571939
  9
$ORTHOMODE
 70
     0
  9
$ANGBASE
 50
0.0
  9
$ANGDIR
 70
     0
  9
$SPLINETYPE
 70
     6
  9
$SPLINESEGS
 70
     8
9
$DIMASZ
 40
        2.500000
9
$DIMEXE
 40
        0.500000
9
$DIMEXO
 40
        1.000000
9
$DIMTXT
 40
        2.500000
9
$DIMGAP
 40
        0.500000
9
$DIMTAD
 70
1
9
$DIMTIH
 70
0
9
$DIMTOH
 70
0
  0
ENDSEC
  0
SECTION
  2
TABLES
  0
TABLE
  2
LTYPE
 70
     5
  0
LTYPE
  2
CONTINUOUS
 70
    64
  3
SOLID LINE
 72
    65
 73
     0
 40
0.0
  0
LTYPE
  2
DASHED
 70
    64
  3
-- -- -- -- -- --
 72
    65
 73
     2
 40
  0.75  
 49
  0.50  
 49
 -0.25  
  0
LTYPE
  2
DOT
 70
    64
  3
....................
 72
    65
 73
     2
 40
  0.25  
 49
  0.02  
 49
 -0.23  
  0
LTYPE
  2
CENTER
 70
    64
  3
-- . -- . -- . -- .
 72
    65
 73
    4
 40
  2.00  
 49
  1.25  
 49
 -0.25  
 49
  0.25  
 49
 -0.25  
  0
LTYPE
  2
PHANTOM
 70
    64
  3
-- .. -- .. -- ..
 72
    65
 73
    6
 40
  2.50  
 49
  1.25  
 49
 -0.25  
 49
  0.25  
 49
 -0.25  
 49
  0.25  
 49
 -0.25  
  0
ENDTAB
  0
TABLE
  2
LAYER
 70
     2
  0
LAYER
  2
0
 70
    64
 62
     5
  6
CONTINUOUS
  0
LAYER
  2
1
 70
    64
 62
     3
  6
CONTINUOUS
  0
ENDTAB
  0
TABLE
  2
STYLE
 70
     2
  0
STYLE
  2
STANDARD
 70
    64
 40
0.0
 41
1.0
 50
0.0
 71
     0
 42
5.0
  3
ROMANS
  4
BIGFONT
  0
STYLE
  2
BIGFONT
 70
    64
 40
0.0
 41
1.0
 50
0.0
 71
     0
 42
5.0
  3
ROMANS
  4
BIGFONT
  0
ENDTAB
  0
TABLE
  2
VIEW
 70
     0
  0
ENDTAB
  0
TABLE
  2
UCS
 70
     0
  0
ENDTAB
  0
TABLE
  2
DWGMGR
 70
     0
  0
ENDTAB
  0
ENDSEC
  0
SECTION
  2
BLOCKS
  0
BLOCK
  8
0
  2
BLK0001
 70
    64
 10
        0.000000
 20
        0.000000
  0
TEXT
  8
0
 10
       50.222744
 20
      -24.592409
 30
        0.000000
 40
        2.500000
  1
３６．５
 50
        0.000000
 41
        1.000000
 51
        0.000000
  7
BIGFONT
  0
LINE
  8
0
 10
       36.972744
 20
      -14.200000
 30
        0.000000
 11
       36.972744
 21
      -25.592409
 31
        0.000000
  0
LINE
  8
0
 10
       73.472748
 20
      -16.000000
 30
        0.000000
 11
       73.472748
 21
      -25.592409
 31
        0.000000
  0
LINE
  8
0
 10
       39.472744
 20
      -24.437910
 30
        0.000000
 11
       36.972744
 21
      -25.092409
 31
        0.000000
  0
LINE
  8
0
 10
       36.972744
 20
      -25.092409
 30
        0.000000
 11
       39.472744
 21
      -25.746908
 31
        0.000000
  0
LINE
  8
0
 10
       70.972748
 20
      -25.746908
 30
        0.000000
 11
       73.472748
 21
      -25.092409
 31
        0.000000
  0
LINE
  8
0
 10
       73.472748
 20
      -25.092409
 30
        0.000000
 11
       70.972748
 21
      -24.437910
 31
        0.000000
  0
LINE
  8
0
 10
       36.972744
 20
      -25.092409
 30
        0.000000
 11
       73.472748
 21
      -25.092409
 31
        0.000000
  0
ENDBLK
  0
BLOCK
  8
0
  2
BLK0002
 70
    64
 10
        0.000000
 20
        0.000000
  0
TEXT
  8
0
 10
       -3.750000
 20
      -24.592409
 30
        0.000000
 40
        2.500000
  1
φ３３
 50
        0.000000
 41
        1.000000
 51
        0.000000
  7
BIGFONT
  0
LINE
  8
0
 10
      -16.500000
 20
       -1.000000
 30
        0.000000
 11
      -16.500000
 21
      -25.592409
 31
        0.000000
  0
LINE
  8
0
 10
       16.500000
 20
       -1.000000
 30
        0.000000
 11
       16.500000
 21
      -25.592409
 31
        0.000000
  0
LINE
  8
0
 10
      -14.000000
 20
      -24.437910
 30
        0.000000
 11
      -16.500000
 21
      -25.092409
 31
        0.000000
  0
LINE
  8
0
 10
      -16.500000
 20
      -25.092409
 30
        0.000000
 11
      -14.000000
 21
      -25.746908
 31
        0.000000
  0
LINE
  8
0
 10
       14.000000
 20
      -25.746908
 30
        0.000000
 11
       16.500000
 21
      -25.092409
 31
        0.000000
  0
LINE
  8
0
 10
       16.500000
 20
      -25.092409
 30
        0.000000
 11
       14.000000
 21
      -24.437910
 31
        0.000000
  0
LINE
  8
0
 10
      -16.500000
 20
      -25.092409
 30
        0.000000
 11
       16.500000
 21
      -25.092409
 31
        0.000000
  0
ENDBLK
  0
ENDSEC
  0
SECTION
  2
ENTITIES
  0
DIMENSION
  8
0
 62
  3
  2
BLK0001
 10
       36.972744
 20
      -25.092409
 11
       50.222744
 21
      -24.592409
 13
       36.972744
 23
      -13.200000
 14
       73.472748
 24
      -15.000000
 50
        0.0
 70
  0
  0
DIMENSION
  8
0
 62
  3
  2
BLK0002
 10
      -16.500000
 20
      -25.092409
 11
       -3.750000
 21
      -24.592409
 13
      -16.500000
 23
        0.000000
 14
       16.500000
 24
        0.000000
 50
        0.0
 70
  0
  0
LINE
  8
1
 10
       77.372767
 20
       11.250000
 30
        0.000000
 11
       77.372767
 21
      -11.250000
 31
        0.000000
  0
LINE
  8
1
 10
       77.872767
 20
       10.750000
 30
        0.000000
 11
       77.872767
 21
      -10.750000
 31
        0.000000
  0
LINE
  8
1
 10
       77.872767
 20
      -10.750000
 30
        0.000000
 11
       77.372767
 21
      -11.250000
 31
        0.000000
  0
LINE
  8
1
 10
       77.372767
 20
      -11.250000
 30
        0.000000
 11
       76.972745
 21
      -11.250000
 31
        0.000000
  0
LINE
  8
1
 10
       77.372767
 20
       11.250000
 30
        0.000000
 11
       77.872767
 21
       10.750000
 31
        0.000000
  0
LINE
  8
1
 10
       76.972745
 20
       11.250000
 30
        0.000000
 11
       77.372767
 21
       11.250000
 31
        0.000000
  0
LINE
  8
1
  6
CENTER
 10
       31.620217
 20
        0.000000
 30
        0.000000
 11
       80.363503
 21
        0.000000
 31
        0.000000
  0
CIRCLE
  8
1
 10
        0.000000
 20
        0.000000
 30
        0.000000
 40
       16.500000
  0
CIRCLE
  8
1
 10
        0.000000
 20
        0.000000
 30
        0.000000
 40
       13.500000
  0
CIRCLE
  8
1
 10
        0.000000
 20
        0.000000
 30
        0.000000
 40
       12.500000
  0
CIRCLE
  8
1
 10
        0.000000
 20
        0.000000
 30
        0.000000
 40
       11.750000
  0
CIRCLE
  8
1
 10
        0.000000
 20
        0.000000
 30
        0.000000
 40
       10.100000
  0
CIRCLE
  8
1
 10
        0.000000
 20
        0.000000
 30
        0.000000
 40
       12.750000
  0
LINE
  8
1
  6
CENTER
 10
      -18.796443
 20
        0.000000
 30
        0.000000
 11
       19.206582
 21
        0.000000
 31
        0.000000
  0
TEXT
  8
0
 62
  2
 10
      -12.950000
 20
       31.737500
 30
        0.000000
 40
        3.000000
  1
ＩＶ－１Ｂ２０１６
 50
        0.000000
 41
        1.000000
 51
        0.000000
  7
BIGFONT
  0
LINE
  8
1
 10
       36.972745
 20
       12.750000
 30
        0.000000
 11
       36.972745
 21
       13.200000
 31
        0.000000
  0
LINE
  8
1
 10
        0.000000
 20
       17.800000
 30
        0.000000
 11
        0.000000
 21
       19.700000
 31
        0.000000
  0
LINE
  8
1
 10
       -2.000000
 20
       17.800000
 30
        0.000000
 11
        2.000000
 21
       17.800000
 31
        0.000000
  0
LINE
  8
1
 10
       -1.700000
 20
       17.500000
 30
        0.000000
 11
       -2.000000
 21
       17.800000
 31
        0.000000
  0
LINE
  8
1
 10
       -1.000000
 20
       16.469669
 30
        0.000000
 11
       -1.000000
 21
       17.500000
 31
        0.000000
  0
LINE
  8
1
 10
        1.700000
 20
       17.500000
 30
        0.000000
 11
       -1.700000
 21
       17.500000
 31
        0.000000
  0
LINE
  8
1
 10
       -1.000000
 20
       17.300000
 30
        0.000000
 11
        1.000000
 21
       17.300000
 31
        0.000000
  0
LINE
  8
1
 10
       -0.800000
 20
       17.300000
 30
        0.000000
 11
       -1.000000
 21
       17.500000
 31
        0.000000
  0
LINE
  8
1
 10
       -0.800000
 20
       16.480595
 30
        0.000000
 11
       -0.800000
 21
       17.300000
 31
        0.000000
  0
LINE
  8
1
 10
        1.700000
 20
       17.500000
 30
        0.000000
 11
        2.000000
 21
       17.800000
 31
        0.000000
  0
LINE
  8
1
 10
        1.000000
 20
       17.500000
 30
        0.000000
 11
        0.800000
 21
       17.300000
 31
        0.000000
  0
LINE
  8
1
 10
        0.800000
 20
       17.300000
 30
        0.000000
 11
        0.800000
 21
       16.480595
 31
        0.000000
  0
LINE
  8
1
 10
        1.000000
 20
       17.500000
 30
        0.000000
 11
        1.000000
 21
       16.469669
 31
        0.000000
  0
LINE
  8
1
 10
       -2.000000
 20
       19.700000
 30
        0.000000
 11
        2.000000
 21
       19.700000
 31
        0.000000
  0
LINE
  8
1
 10
       -1.700000
 20
       20.000000
 30
        0.000000
 11
        1.700000
 21
       20.000000
 31
        0.000000
  0
LINE
  8
1
 10
       -2.000000
 20
       19.700000
 30
        0.000000
 11
       -2.000000
 21
       17.800000
 31
        0.000000
  0
LINE
  8
1
 10
       -2.000000
 20
       19.700000
 30
        0.000000
 11
       -1.700000
 21
       20.000000
 31
        0.000000
  0
LINE
  8
1
 10
       -0.500000
 20
       17.800000
 30
        0.000000
 11
       -0.500000
 21
       19.700000
 31
        0.000000
  0
LINE
  8
1
 10
       -1.000000
 20
       17.800000
 30
        0.000000
 11
       -1.000000
 21
       19.700000
 31
        0.000000
  0
LINE
  8
1
 10
       -1.400000
 20
       17.800000
 30
        0.000000
 11
       -1.400000
 21
       19.700000
 31
        0.000000
  0
LINE
  8
1
 10
       -1.700000
 20
       17.800000
 30
        0.000000
 11
       -1.700000
 21
       19.700000
 31
        0.000000
  0
LINE
  8
1
 10
       -1.900000
 20
       17.800000
 30
        0.000000
 11
       -1.900000
 21
       19.700000
 31
        0.000000
  0
LINE
  8
1
 10
        0.500000
 20
       19.700000
 30
        0.000000
 11
        0.500000
 21
       17.800000
 31
        0.000000
  0
LINE
  8
1
 10
        2.000000
 20
       19.700000
 30
        0.000000
 11
        2.000000
 21
       17.800000
 31
        0.000000
  0
LINE
  8
1
 10
        2.000000
 20
       19.700000
 30
        0.000000
 11
        1.700000
 21
       20.000000
 31
        0.000000
  0
LINE
  8
1
 10
        1.900000
 20
       19.700000
 30
        0.000000
 11
        1.900000
 21
       17.800000
 31
        0.000000
  0
LINE
  8
1
 10
        1.700000
 20
       19.700000
 30
        0.000000
 11
        1.700000
 21
       17.800000
 31
        0.000000
  0
LINE
  8
1
 10
        1.400000
 20
       19.700000
 30
        0.000000
 11
        1.400000
 21
       17.800000
 31
        0.000000
  0
LINE
  8
1
 10
        1.000000
 20
       19.700000
 30
        0.000000
 11
        1.000000
 21
       17.800000
 31
        0.000000
  0
LINE
  8
1
 10
       52.672745
 20
       17.500000
 30
        0.000000
 11
       52.672745
 21
       16.500000
 31
        0.000000
  0
LINE
  8
1
 10
       50.872745
 20
       17.300000
 30
        0.000000
 11
       50.672745
 21
       17.500000
 31
        0.000000
  0
LINE
  8
1
 10
       52.672745
 20
       17.500000
 30
        0.000000
 11
       52.472745
 21
       17.300000
 31
        0.000000
  0
LINE
  8
1
 10
       53.372745
 20
       17.500000
 30
        0.000000
 11
       49.972745
 21
       17.500000
 31
        0.000000
  0
LINE
  8
1
 10
       49.772745
 20
       17.800000
 30
        0.000000
 11
       49.772745
 21
       19.700000
 31
        0.000000
  0
LINE
  8
1
 10
       49.972745
 20
       17.800000
 30
        0.000000
 11
       49.972745
 21
       19.700000
 31
        0.000000
  0
LINE
  8
1
 10
       50.272745
 20
       17.800000
 30
        0.000000
 11
       50.272745
 21
       19.700000
 31
        0.000000
  0
LINE
  8
1
 10
       50.672745
 20
       17.800000
 30
        0.000000
 11
       50.672745
 21
       19.700000
 31
        0.000000
  0
LINE
  8
1
 10
       51.172745
 20
       17.800000
 30
        0.000000
 11
       51.172745
 21
       19.700000
 31
        0.000000
  0
LINE
  8
1
 10
       49.672745
 20
       17.800000
 30
        0.000000
 11
       53.672745
 21
       17.800000
 31
        0.000000
  0
LINE
  8
1
 10
       52.172745
 20
       19.700000
 30
        0.000000
 11
       52.172745
 21
       17.800000
 31
        0.000000
  0
LINE
  8
1
 10
       52.672745
 20
       19.700000
 30
        0.000000
 11
       52.672745
 21
       17.800000
 31
        0.000000
  0
LINE
  8
1
 10
       53.072745
 20
       19.700000
 30
        0.000000
 11
       53.072745
 21
       17.800000
 31
        0.000000
  0
LINE
  8
1
 10
       53.372745
 20
       19.700000
 30
        0.000000
 11
       53.372745
 21
       17.800000
 31
        0.000000
  0
LINE
  8
1
 10
       53.572745
 20
       19.700000
 30
        0.000000
 11
       53.572745
 21
       17.800000
 31
        0.000000
  0
LINE
  8
1
 10
       53.372745
 20
       17.500000
 30
        0.000000
 11
       53.672745
 21
       17.800000
 31
        0.000000
  0
LINE
  8
1
 10
       49.972745
 20
       17.500000
 30
        0.000000
 11
       49.672745
 21
       17.800000
 31
        0.000000
  0
LINE
  8
1
 10
       49.672745
 20
       19.700000
 30
        0.000000
 11
       49.672745
 21
       17.800000
 31
        0.000000
  0
LINE
  8
1
 10
       53.672745
 20
       19.700000
 30
        0.000000
 11
       53.672745
 21
       17.800000
 31
        0.000000
  0
LINE
  8
1
 10
       51.672745
 20
       17.800000
 30
        0.000000
 11
       51.672745
 21
       19.700000
 31
        0.000000
  0
LINE
  8
1
 10
       50.672745
 20
       16.500000
 30
        0.000000
 11
       50.672745
 21
       17.500000
 31
        0.000000
  0
LINE
  8
1
 10
       50.672745
 20
       17.300000
 30
        0.000000
 11
       52.672745
 21
       17.300000
 31
        0.000000
  0
LINE
  8
1
 10
       52.472745
 20
       17.300000
 30
        0.000000
 11
       52.472745
 21
       16.500000
 31
        0.000000
  0
LINE
  8
1
 10
       50.872745
 20
       16.500000
 30
        0.000000
 11
       50.872745
 21
       17.300000
 31
        0.000000
  0
LINE
  8
1
 10
       61.472745
 20
       17.500000
 30
        0.000000
 11
       63.472745
 21
       17.500000
 31
        0.000000
  0
LINE
  8
1
 10
       63.472745
 20
       16.750000
 30
        0.000000
 11
       63.472745
 21
       17.700000
 31
        0.000000
  0
LINE
  8
1
 10
       61.472745
 20
       16.750000
 30
        0.000000
 11
       61.472745
 21
       17.700000
 31
        0.000000
  0
LINE
  8
1
 10
       62.472745
 20
       19.900000
 30
        0.000000
 11
       62.472745
 21
       18.000000
 31
        0.000000
  0
LINE
  8
1
 10
       61.672745
 20
       16.750000
 30
        0.000000
 11
       61.672745
 21
       17.500000
 31
        0.000000
  0
LINE
  8
1
 10
       60.772745
 20
       20.200000
 30
        0.000000
 11
       64.172745
 21
       20.200000
 31
        0.000000
  0
LINE
  8
1
 10
       64.472745
 20
       19.900000
 30
        0.000000
 11
       64.472745
 21
       18.000000
 31
        0.000000
  0
LINE
  8
1
 10
       60.472745
 20
       19.900000
 30
        0.000000
 11
       60.472745
 21
       18.000000
 31
        0.000000
  0
LINE
  8
1
 10
       64.472745
 20
       19.900000
 30
        0.000000
 11
       64.172745
 21
       20.200000
 31
        0.000000
  0
LINE
  8
1
 10
       60.472745
 20
       19.900000
 30
        0.000000
 11
       60.772745
 21
       20.200000
 31
        0.000000
  0
LINE
  8
1
 10
       60.772745
 20
       17.700000
 30
        0.000000
 11
       60.472745
 21
       18.000000
 31
        0.000000
  0
LINE
  8
1
 10
       64.172745
 20
       17.700000
 30
        0.000000
 11
       64.472745
 21
       18.000000
 31
        0.000000
  0
LINE
  8
1
 10
       60.472745
 20
       19.900000
 30
        0.000000
 11
       64.472745
 21
       19.900000
 31
        0.000000
  0
LINE
  8
1
 10
       60.472745
 20
       18.000000
 30
        0.000000
 11
       64.472745
 21
       18.000000
 31
        0.000000
  0
LINE
  8
1
 10
       64.372745
 20
       19.900000
 30
        0.000000
 11
       64.372745
 21
       18.000000
 31
        0.000000
  0
LINE
  8
1
 10
       64.172745
 20
       19.900000
 30
        0.000000
 11
       64.172745
 21
       18.000000
 31
        0.000000
  0
LINE
  8
1
 10
       63.872745
 20
       19.900000
 30
        0.000000
 11
       63.872745
 21
       18.000000
 31
        0.000000
  0
LINE
  8
1
 10
       63.472745
 20
       19.900000
 30
        0.000000
 11
       63.472745
 21
       18.000000
 31
        0.000000
  0
LINE
  8
1
 10
       62.972745
 20
       19.900000
 30
        0.000000
 11
       62.972745
 21
       18.000000
 31
        0.000000
  0
LINE
  8
1
 10
       61.972745
 20
       18.000000
 30
        0.000000
 11
       61.972745
 21
       19.900000
 31
        0.000000
  0
LINE
  8
1
 10
       61.472745
 20
       18.000000
 30
        0.000000
 11
       61.472745
 21
       19.900000
 31
        0.000000
  0
LINE
  8
1
 10
       61.072745
 20
       18.000000
 30
        0.000000
 11
       61.072745
 21
       19.900000
 31
        0.000000
  0
LINE
  8
1
 10
       60.772745
 20
       18.000000
 30
        0.000000
 11
       60.772745
 21
       19.900000
 31
        0.000000
  0
LINE
  8
1
 10
       60.572745
 20
       18.000000
 30
        0.000000
 11
       60.572745
 21
       19.900000
 31
        0.000000
  0
LINE
  8
1
 10
       64.172745
 20
       17.700000
 30
        0.000000
 11
       60.772745
 21
       17.700000
 31
        0.000000
  0
LINE
  8
1
 10
       63.472745
 20
       17.700000
 30
        0.000000
 11
       63.272745
 21
       17.500000
 31
        0.000000
  0
LINE
  8
1
 10
       61.672745
 20
       17.500000
 30
        0.000000
 11
       61.472745
 21
       17.700000
 31
        0.000000
  0
LINE
  8
1
 10
       63.272745
 20
       17.500000
 30
        0.000000
 11
       63.272745
 21
       16.750000
 31
        0.000000
  0
LINE
  8
1
 10
       49.972745
 20
       20.000000
 30
        0.000000
 11
       53.372745
 21
       20.000000
 31
        0.000000
  0
LINE
  8
1
 10
       53.672745
 20
       19.700000
 30
        0.000000
 11
       53.372745
 21
       20.000000
 31
        0.000000
  0
LINE
  8
1
 10
       49.672745
 20
       19.700000
 30
        0.000000
 11
       49.972745
 21
       20.000000
 31
        0.000000
  0
LINE
  8
1
 10
       49.672745
 20
       19.700000
 30
        0.000000
 11
       53.672745
 21
       19.700000
 31
        0.000000
  0
LINE
  8
1
 10
       74.472745
 20
       12.200000
 30
        0.000000
 11
       76.972745
 21
       12.200000
 31
        0.000000
  0
LINE
  8
1
 10
       74.472745
 20
      -12.200000
 30
        0.000000
 11
       76.972745
 21
      -12.200000
 31
        0.000000
  0
LINE
  8
1
 10
       76.472745
 20
       12.700000
 30
        0.000000
 11
       76.472745
 21
      -12.700000
 31
        0.000000
  0
LINE
  8
1
 10
       50.672745
 20
       16.500000
 30
        0.000000
 11
       52.672745
 21
       16.500000
 31
        0.000000
  0
LINE
  8
1
 10
       64.772745
 20
       16.750000
 30
        0.000000
 11
       63.272745
 21
       16.750000
 31
        0.000000
  0
LINE
  8
1
 10
       37.272745
 20
       12.450000
 30
        0.000000
 11
       37.272745
 21
      -13.500000
 31
        0.000000
  0
LINE
  8
1
 10
       40.672745
 20
       14.000000
 30
        0.000000
 11
       40.672745
 21
      -14.000000
 31
        0.000000
  0
LINE
  8
1
 10
       43.172745
 20
       16.500000
 30
        0.000000
 11
       43.172745
 21
      -16.500000
 31
        0.000000
  0
LINE
  8
1
 10
       54.672745
 20
       16.500000
 30
        0.000000
 11
       54.672745
 21
      -16.500000
 31
        0.000000
  0
LINE
  8
1
 10
       55.172745
 20
       16.000000
 30
        0.000000
 11
       55.172745
 21
      -16.000000
 31
        0.000000
  0
LINE
  8
1
 10
       56.472745
 20
       16.750000
 30
        0.000000
 11
       56.472745
 21
      -16.750000
 31
        0.000000
  0
LINE
  8
1
 10
       55.972745
 20
       16.250000
 30
        0.000000
 11
       55.972745
 21
      -16.250000
 31
        0.000000
  0
LINE
  8
1
 10
       65.972745
 20
       16.750000
 30
        0.000000
 11
       65.972745
 21
      -16.750000
 31
        0.000000
  0
LINE
  8
1
 10
       66.972745
 20
       15.750000
 30
        0.000000
 11
       66.972745
 21
      -15.750000
 31
        0.000000
  0
LINE
  8
1
 10
       72.972745
 20
       15.500000
 30
        0.000000
 11
       72.972745
 21
      -15.500000
 31
        0.000000
  0
LINE
  8
1
 10
       73.472745
 20
       15.000000
 30
        0.000000
 11
       73.472745
 21
      -15.000000
 31
        0.000000
  0
LINE
  8
1
 10
       74.472745
 20
       12.700000
 30
        0.000000
 11
       74.472745
 21
      -12.700000
 31
        0.000000
  0
LINE
  8
1
 10
       76.972745
 20
       12.200000
 30
        0.000000
 11
       76.972745
 21
      -12.200000
 31
        0.000000
  0
LINE
  8
1
 10
       76.972745
 20
      -12.200000
 30
        0.000000
 11
       76.472745
 21
      -12.700000
 31
        0.000000
  0
LINE
  8
1
 10
       76.472745
 20
      -12.700000
 30
        0.000000
 11
       74.472745
 21
      -12.700000
 31
        0.000000
  0
LINE
  8
1
 10
       74.472745
 20
      -12.200000
 30
        0.000000
 11
       73.472745
 21
      -12.200000
 31
        0.000000
  0
LINE
  8
1
 10
       73.472745
 20
      -15.000000
 30
        0.000000
 11
       72.972745
 21
      -15.500000
 31
        0.000000
  0
LINE
  8
1
 10
       72.972745
 20
      -15.500000
 30
        0.000000
 11
       66.972745
 21
      -15.500000
 31
        0.000000
  0
LINE
  8
1
 10
       66.972745
 20
      -15.750000
 30
        0.000000
 11
       65.972745
 21
      -16.750000
 31
        0.000000
  0
LINE
  8
1
 10
       65.972745
 20
      -16.750000
 30
        0.000000
 11
       56.472745
 21
      -16.750000
 31
        0.000000
  0
LINE
  8
1
 10
       56.472745
 20
      -16.750000
 30
        0.000000
 11
       55.972745
 21
      -16.250000
 31
        0.000000
  0
LINE
  8
1
 10
       55.972745
 20
      -16.000000
 30
        0.000000
 11
       55.172745
 21
      -16.000000
 31
        0.000000
  0
LINE
  8
1
 10
       55.172745
 20
      -16.000000
 30
        0.000000
 11
       54.672745
 21
      -16.500000
 31
        0.000000
  0
LINE
  8
1
 10
       54.672745
 20
      -16.500000
 30
        0.000000
 11
       43.172745
 21
      -16.500000
 31
        0.000000
  0
LINE
  8
1
 10
       43.172745
 20
      -16.500000
 30
        0.000000
 11
       40.672745
 21
      -14.000000
 31
        0.000000
  0
LINE
  8
1
 10
       40.672745
 20
      -13.500000
 30
        0.000000
 11
       37.272745
 21
      -13.500000
 31
        0.000000
  0
LINE
  8
1
 10
       37.272745
 20
      -13.500000
 30
        0.000000
 11
       36.972745
 21
      -13.200000
 31
        0.000000
  0
LINE
  8
1
 10
       36.972745
 20
      -13.200000
 30
        0.000000
 11
       36.972745
 21
       12.750000
 31
        0.000000
  0
LINE
  8
1
 10
       37.272745
 20
       13.500000
 30
        0.000000
 11
       37.272745
 21
       12.450000
 31
        0.000000
  0
LINE
  8
1
 10
       76.472745
 20
       12.700000
 30
        0.000000
 11
       76.972745
 21
       12.200000
 31
        0.000000
  0
LINE
  8
1
 10
       74.472745
 20
       12.700000
 30
        0.000000
 11
       76.472745
 21
       12.700000
 31
        0.000000
  0
LINE
  8
1
 10
       73.472745
 20
       12.200000
 30
        0.000000
 11
       74.472745
 21
       12.200000
 31
        0.000000
  0
LINE
  8
1
 10
       72.972745
 20
       15.500000
 30
        0.000000
 11
       73.472745
 21
       15.000000
 31
        0.000000
  0
LINE
  8
1
 10
       66.972745
 20
       15.500000
 30
        0.000000
 11
       72.972745
 21
       15.500000
 31
        0.000000
  0
LINE
  8
1
 10
       65.972745
 20
       16.750000
 30
        0.000000
 11
       66.972745
 21
       15.750000
 31
        0.000000
  0
LINE
  8
1
 10
       56.472745
 20
       16.750000
 30
        0.000000
 11
       65.972745
 21
       16.750000
 31
        0.000000
  0
LINE
  8
1
 10
       55.972745
 20
       16.250000
 30
        0.000000
 11
       56.472745
 21
       16.750000
 31
        0.000000
  0
LINE
  8
1
 10
       55.172745
 20
       16.000000
 30
        0.000000
 11
       55.972745
 21
       16.000000
 31
        0.000000
  0
LINE
  8
1
 10
       54.672745
 20
       16.500000
 30
        0.000000
 11
       55.172745
 21
       16.000000
 31
        0.000000
  0
LINE
  8
1
 10
       43.172745
 20
       16.500000
 30
        0.000000
 11
       54.672745
 21
       16.500000
 31
        0.000000
  0
LINE
  8
1
 10
       40.672745
 20
       14.000000
 30
        0.000000
 11
       43.172745
 21
       16.500000
 31
        0.000000
  0
LINE
  8
1
 10
       37.272745
 20
       13.500000
 30
        0.000000
 11
       40.672745
 21
       13.500000
 31
        0.000000
  0
LINE
  8
1
 10
       36.972745
 20
       13.200000
 30
        0.000000
 11
       37.272745
 21
       13.500000
 31
        0.000000
  0
LINE
  8
1
  6
CENTER
 10
        0.000000
 20
       22.368285
 30
        0.000000
 11
        0.000000
 21
      -19.219624
 31
        0.000000
  0
ENDSEC
  0
EOF
