  0
SECTION
  2
HEADER
  9
$ACADVER
  1
AC1006
  9
$INSBASE
 10
0.0
 20
0.0
 30
0.0
  9
$EXTMIN
 10
      -19.761652
 20
      -19.761652
  9
$EXTMAX
 10
       84.479012
 20
       32.820614
  9
$LIMMIN
 10
      -19.761652
 20
      -19.761652
  9
$LIMMAX
 10
       84.479012
 20
       32.820614
  9
$VIEWCTR
 10
       32.358681
 20
       32.358681
  9
$ORTHOMODE
 70
     0
  9
$ANGBASE
 50
0.0
  9
$ANGDIR
 70
     0
  9
$SPLINETYPE
 70
     6
  9
$SPLINESEGS
 70
     8
9
$DIMASZ
 40
        2.500000
9
$DIMEXE
 40
        0.500000
9
$DIMEXO
 40
        1.000000
9
$DIMTXT
 40
        2.500000
9
$DIMGAP
 40
        0.500000
9
$DIMTAD
 70
1
9
$DIMTIH
 70
0
9
$DIMTOH
 70
0
  0
ENDSEC
  0
SECTION
  2
TABLES
  0
TABLE
  2
LTYPE
 70
     5
  0
LTYPE
  2
CONTINUOUS
 70
    64
  3
SOLID LINE
 72
    65
 73
     0
 40
0.0
  0
LTYPE
  2
DASHED
 70
    64
  3
-- -- -- -- -- --
 72
    65
 73
     2
 40
  0.75  
 49
  0.50  
 49
 -0.25  
  0
LTYPE
  2
DOT
 70
    64
  3
....................
 72
    65
 73
     2
 40
  0.25  
 49
  0.02  
 49
 -0.23  
  0
LTYPE
  2
CENTER
 70
    64
  3
-- . -- . -- . -- .
 72
    65
 73
    4
 40
  2.00  
 49
  1.25  
 49
 -0.25  
 49
  0.25  
 49
 -0.25  
  0
LTYPE
  2
PHANTOM
 70
    64
  3
-- .. -- .. -- ..
 72
    65
 73
    6
 40
  2.50  
 49
  1.25  
 49
 -0.25  
 49
  0.25  
 49
 -0.25  
 49
  0.25  
 49
 -0.25  
  0
ENDTAB
  0
TABLE
  2
LAYER
 70
     2
  0
LAYER
  2
0
 70
    64
 62
     5
  6
CONTINUOUS
  0
LAYER
  2
1
 70
    64
 62
     3
  6
CONTINUOUS
  0
ENDTAB
  0
TABLE
  2
STYLE
 70
     2
  0
STYLE
  2
STANDARD
 70
    64
 40
0.0
 41
1.0
 50
0.0
 71
     0
 42
5.0
  3
ROMANS
  4
BIGFONT
  0
STYLE
  2
BIGFONT
 70
    64
 40
0.0
 41
1.0
 50
0.0
 71
     0
 42
5.0
  3
ROMANS
  4
BIGFONT
  0
ENDTAB
  0
TABLE
  2
VIEW
 70
     0
  0
ENDTAB
  0
TABLE
  2
UCS
 70
     0
  0
ENDTAB
  0
TABLE
  2
DWGMGR
 70
     0
  0
ENDTAB
  0
ENDSEC
  0
SECTION
  2
BLOCKS
  0
BLOCK
  8
0
  2
BLK0001
 70
    64
 10
        0.000000
 20
        0.000000
  0
TEXT
  8
0
 10
       54.383099
 20
      -26.225616
 30
        0.000000
 40
        2.500000
  1
３６．５
 50
        0.000000
 41
        1.000000
 51
        0.000000
  7
BIGFONT
  0
LINE
  8
0
 10
       41.133110
 20
      -15.200000
 30
        0.000000
 11
       41.133110
 21
      -27.225616
 31
        0.000000
  0
LINE
  8
0
 10
       77.633087
 20
      -16.750000
 30
        0.000000
 11
       77.633087
 21
      -27.225616
 31
        0.000000
  0
LINE
  8
0
 10
       43.633110
 20
      -26.071117
 30
        0.000000
 11
       41.133110
 21
      -26.725616
 31
        0.000000
  0
LINE
  8
0
 10
       41.133110
 20
      -26.725616
 30
        0.000000
 11
       43.633110
 21
      -27.380116
 31
        0.000000
  0
LINE
  8
0
 10
       75.133087
 20
      -27.380116
 30
        0.000000
 11
       77.633087
 21
      -26.725616
 31
        0.000000
  0
LINE
  8
0
 10
       77.633087
 20
      -26.725616
 30
        0.000000
 11
       75.133087
 21
      -26.071117
 31
        0.000000
  0
LINE
  8
0
 10
       41.133110
 20
      -26.725616
 30
        0.000000
 11
       77.633087
 21
      -26.725616
 31
        0.000000
  0
ENDBLK
  0
BLOCK
  8
0
  2
BLK0002
 70
    64
 10
        0.000000
 20
        0.000000
  0
TEXT
  8
0
 10
       -3.750000
 20
      -26.225616
 30
        0.000000
 40
        2.500000
  1
φ３４
 50
        0.000000
 41
        1.000000
 51
        0.000000
  7
BIGFONT
  0
LINE
  8
0
 10
      -17.000000
 20
       -1.000000
 30
        0.000000
 11
      -17.000000
 21
      -27.225616
 31
        0.000000
  0
LINE
  8
0
 10
       17.000000
 20
       -1.000000
 30
        0.000000
 11
       17.000000
 21
      -27.225616
 31
        0.000000
  0
LINE
  8
0
 10
      -14.500000
 20
      -26.071117
 30
        0.000000
 11
      -17.000000
 21
      -26.725616
 31
        0.000000
  0
LINE
  8
0
 10
      -17.000000
 20
      -26.725616
 30
        0.000000
 11
      -14.500000
 21
      -27.380116
 31
        0.000000
  0
LINE
  8
0
 10
       14.500000
 20
      -27.380116
 30
        0.000000
 11
       17.000000
 21
      -26.725616
 31
        0.000000
  0
LINE
  8
0
 10
       17.000000
 20
      -26.725616
 30
        0.000000
 11
       14.500000
 21
      -26.071117
 31
        0.000000
  0
LINE
  8
0
 10
      -17.000000
 20
      -26.725616
 30
        0.000000
 11
       17.000000
 21
      -26.725616
 31
        0.000000
  0
ENDBLK
  0
ENDSEC
  0
SECTION
  2
ENTITIES
  0
DIMENSION
  8
0
 62
  3
  2
BLK0001
 10
       41.133110
 20
      -26.725616
 11
       54.383099
 21
      -26.225616
 13
       41.133110
 23
      -14.200000
 14
       77.633087
 24
      -15.750000
 50
        0.0
 70
  0
  0
DIMENSION
  8
0
 62
  3
  2
BLK0002
 10
      -17.000000
 20
      -26.725616
 11
       -3.750000
 21
      -26.225616
 13
      -17.000000
 23
        0.000000
 14
       17.000000
 24
        0.000000
 50
        0.0
 70
  0
  0
LINE
  8
1
 10
       77.633090
 20
       15.750000
 30
        0.000000
 11
       77.633090
 21
      -15.750000
 31
        0.000000
  0
LINE
  8
1
 10
       77.633090
 20
       12.200000
 30
        0.000000
 11
       78.433090
 21
       12.200000
 31
        0.000000
  0
LINE
  8
1
 10
       78.433090
 20
       12.200000
 30
        0.000000
 11
       78.933090
 21
       12.700000
 31
        0.000000
  0
LINE
  8
1
 10
       78.933090
 20
       12.700000
 30
        0.000000
 11
       80.633090
 21
       12.700000
 31
        0.000000
  0
LINE
  8
1
 10
       80.633090
 20
       12.700000
 30
        0.000000
 11
       81.133090
 21
       12.200000
 31
        0.000000
  0
LINE
  8
1
 10
       81.133090
 20
       12.200000
 30
        0.000000
 11
       81.133090
 21
      -12.200000
 31
        0.000000
  0
LINE
  8
1
 10
       78.433090
 20
       12.200000
 30
        0.000000
 11
       78.433090
 21
      -12.200000
 31
        0.000000
  0
LINE
  8
1
  6
CENTER
 10
       33.932139
 20
        0.000000
 30
        0.000000
 11
       84.479009
 21
        0.000000
 31
        0.000000
  0
LINE
  8
1
 10
       77.133090
 20
       16.250000
 30
        0.000000
 11
       77.133090
 21
      -16.250000
 31
        0.000000
  0
LINE
  8
1
 10
       74.633090
 20
       16.250000
 30
        0.000000
 11
       74.633090
 21
      -16.250000
 31
        0.000000
  0
LINE
  8
1
 10
       74.383090
 20
       16.500000
 30
        0.000000
 11
       74.383090
 21
      -16.500000
 31
        0.000000
  0
LINE
  8
1
 10
       67.133090
 20
       16.500000
 30
        0.000000
 11
       67.133090
 21
      -16.500000
 31
        0.000000
  0
LINE
  8
1
 10
       66.133090
 20
       15.650000
 30
        0.000000
 11
       66.133090
 21
      -15.650000
 31
        0.000000
  0
LINE
  8
1
 10
       65.283090
 20
       16.500000
 30
        0.000000
 11
       65.283090
 21
      -16.500000
 31
        0.000000
  0
LINE
  8
1
 10
       58.483090
 20
       16.500000
 30
        0.000000
 11
       58.483090
 21
      -16.500000
 31
        0.000000
  0
LINE
  8
1
 10
       57.633090
 20
       15.650000
 30
        0.000000
 11
       57.633090
 21
      -15.650000
 31
        0.000000
  0
LINE
  8
1
 10
       57.633090
 20
      -15.650000
 30
        0.000000
 11
       55.993110
 21
      -15.650000
 31
        0.000000
  0
LINE
  8
1
 10
       58.483090
 20
      -16.500000
 30
        0.000000
 11
       57.633090
 21
      -15.650000
 31
        0.000000
  0
LINE
  8
1
 10
       66.133090
 20
      -15.650000
 30
        0.000000
 11
       65.283090
 21
      -16.500000
 31
        0.000000
  0
LINE
  8
1
 10
       66.633090
 20
      -15.650000
 30
        0.000000
 11
       66.133090
 21
      -15.650000
 31
        0.000000
  0
LINE
  8
1
 10
       67.133090
 20
      -16.500000
 30
        0.000000
 11
       66.633090
 21
      -16.000000
 31
        0.000000
  0
LINE
  8
1
 10
       74.383090
 20
      -16.500000
 30
        0.000000
 11
       67.133090
 21
      -16.500000
 31
        0.000000
  0
LINE
  8
1
 10
       74.633090
 20
      -16.250000
 30
        0.000000
 11
       74.383090
 21
      -16.500000
 31
        0.000000
  0
LINE
  8
1
 10
       77.133090
 20
      -16.250000
 30
        0.000000
 11
       74.633090
 21
      -16.250000
 31
        0.000000
  0
LINE
  8
1
 10
       77.633090
 20
      -15.750000
 30
        0.000000
 11
       77.133090
 21
      -16.250000
 31
        0.000000
  0
LINE
  8
1
 10
       78.433090
 20
      -12.200000
 30
        0.000000
 11
       77.633090
 21
      -12.200000
 31
        0.000000
  0
LINE
  8
1
 10
       78.933090
 20
      -12.700000
 30
        0.000000
 11
       78.433090
 21
      -12.200000
 31
        0.000000
  0
LINE
  8
1
 10
       80.633090
 20
      -12.700000
 30
        0.000000
 11
       78.933090
 21
      -12.700000
 31
        0.000000
  0
LINE
  8
1
 10
       81.133090
 20
      -12.200000
 30
        0.000000
 11
       80.633090
 21
      -12.700000
 31
        0.000000
  0
LINE
  8
1
 10
       65.283090
 20
      -16.500000
 30
        0.000000
 11
       58.483090
 21
      -16.500000
 31
        0.000000
  0
LINE
  8
1
 10
       81.133090
 20
      -12.200000
 30
        0.000000
 11
       78.433090
 21
      -12.200000
 31
        0.000000
  0
LINE
  8
1
 10
       78.433090
 20
       12.200000
 30
        0.000000
 11
       81.133090
 21
       12.200000
 31
        0.000000
  0
LINE
  8
1
 10
       62.633090
 20
       17.500000
 30
        0.000000
 11
       62.633090
 21
       16.500000
 31
        0.000000
  0
LINE
  8
1
 10
       60.633090
 20
       17.500000
 30
        0.000000
 11
       60.633090
 21
       16.500000
 31
        0.000000
  0
LINE
  8
1
 10
       60.833090
 20
       17.500000
 30
        0.000000
 11
       60.833090
 21
       16.500000
 31
        0.000000
  0
LINE
  8
1
 10
       62.433090
 20
       17.500000
 30
        0.000000
 11
       62.433090
 21
       16.500000
 31
        0.000000
  0
LINE
  8
1
 10
       59.730977
 20
       19.700000
 30
        0.000000
 11
       59.730977
 21
       17.800000
 31
        0.000000
  0
LINE
  8
1
 10
       60.015056
 20
       19.700000
 30
        0.000000
 11
       60.015056
 21
       17.800000
 31
        0.000000
  0
LINE
  8
1
 10
       60.457520
 20
       19.700000
 30
        0.000000
 11
       60.457520
 21
       17.800000
 31
        0.000000
  0
LINE
  8
1
 10
       61.015056
 20
       19.700000
 30
        0.000000
 11
       61.015056
 21
       17.800000
 31
        0.000000
  0
LINE
  8
1
 10
       62.251124
 20
       19.700000
 30
        0.000000
 11
       62.251124
 21
       17.800000
 31
        0.000000
  0
LINE
  8
1
 10
       62.808661
 20
       19.700000
 30
        0.000000
 11
       62.808661
 21
       17.800000
 31
        0.000000
  0
LINE
  8
1
 10
       63.251124
 20
       19.700000
 30
        0.000000
 11
       63.251124
 21
       17.800000
 31
        0.000000
  0
LINE
  8
1
 10
       63.535203
 20
       19.700000
 30
        0.000000
 11
       63.535203
 21
       17.800000
 31
        0.000000
  0
LINE
  8
1
 10
       59.633090
 20
       19.700000
 30
        0.000000
 11
       59.633090
 21
       17.800000
 31
        0.000000
  0
LINE
  8
1
 10
       63.633090
 20
       19.700000
 30
        0.000000
 11
       63.633090
 21
       17.800000
 31
        0.000000
  0
LINE
  8
1
 10
       59.633090
 20
       17.800000
 30
        0.000000
 11
       63.633090
 21
       17.800000
 31
        0.000000
  0
LINE
  8
1
 10
       59.633090
 20
       19.700000
 30
        0.000000
 11
       63.633090
 21
       19.700000
 31
        0.000000
  0
LINE
  8
1
 10
       59.933090
 20
       17.500000
 30
        0.000000
 11
       63.333090
 21
       17.500000
 31
        0.000000
  0
LINE
  8
1
 10
       59.633090
 20
       19.700000
 30
        0.000000
 11
       59.933090
 21
       20.000000
 31
        0.000000
  0
LINE
  8
1
 10
       59.633090
 20
       17.800000
 30
        0.000000
 11
       59.933090
 21
       17.500000
 31
        0.000000
  0
LINE
  8
1
 10
       59.633090
 20
       19.700000
 30
        0.000000
 11
       59.933090
 21
       20.000000
 31
        0.000000
  0
LINE
  8
1
 10
       63.333090
 20
       20.000000
 30
        0.000000
 11
       63.633090
 21
       19.700000
 31
        0.000000
  0
LINE
  8
1
 10
       63.333090
 20
       17.500000
 30
        0.000000
 11
       63.633090
 21
       17.800000
 31
        0.000000
  0
LINE
  8
1
 10
       59.633090
 20
       17.800000
 30
        0.000000
 11
       59.933090
 21
       17.500000
 31
        0.000000
  0
LINE
  8
1
 10
       63.333090
 20
       20.000000
 30
        0.000000
 11
       63.633090
 21
       19.700000
 31
        0.000000
  0
LINE
  8
1
 10
       59.633090
 20
       19.700000
 30
        0.000000
 11
       59.933090
 21
       20.000000
 31
        0.000000
  0
LINE
  8
1
 10
       59.933090
 20
       20.000000
 30
        0.000000
 11
       63.333090
 21
       20.000000
 31
        0.000000
  0
LINE
  8
1
 10
       62.483090
 20
       20.000000
 30
        0.000000
 11
       63.333090
 21
       20.000000
 31
        0.000000
  0
LINE
  8
1
 10
       59.933090
 20
       20.000000
 30
        0.000000
 11
       63.333090
 21
       20.000000
 31
        0.000000
  0
LINE
  8
1
 10
       61.633090
 20
       17.800000
 30
        0.000000
 11
       61.633090
 21
       19.700000
 31
        0.000000
  0
LINE
  8
1
 10
       55.993110
 20
       15.650000
 30
        0.000000
 11
       57.633090
 21
       15.650000
 31
        0.000000
  0
LINE
  8
1
 10
       57.633090
 20
       15.650000
 30
        0.000000
 11
       58.483090
 21
       16.500000
 31
        0.000000
  0
LINE
  8
1
 10
       58.483090
 20
       16.500000
 30
        0.000000
 11
       65.283090
 21
       16.500000
 31
        0.000000
  0
LINE
  8
1
 10
       65.283090
 20
       16.500000
 30
        0.000000
 11
       66.133090
 21
       15.650000
 31
        0.000000
  0
LINE
  8
1
 10
       66.133090
 20
       15.650000
 30
        0.000000
 11
       66.633090
 21
       15.650000
 31
        0.000000
  0
LINE
  8
1
 10
       66.633090
 20
      -16.000000
 30
        0.000000
 11
       66.633090
 21
       16.000000
 31
        0.000000
  0
LINE
  8
1
 10
       66.633090
 20
       16.000000
 30
        0.000000
 11
       67.133090
 21
       16.500000
 31
        0.000000
  0
LINE
  8
1
 10
       67.133090
 20
       16.500000
 30
        0.000000
 11
       74.383090
 21
       16.500000
 31
        0.000000
  0
LINE
  8
1
 10
       74.383090
 20
       16.500000
 30
        0.000000
 11
       74.633090
 21
       16.250000
 31
        0.000000
  0
LINE
  8
1
 10
       74.633090
 20
       16.250000
 30
        0.000000
 11
       77.133090
 21
       16.250000
 31
        0.000000
  0
LINE
  8
1
 10
       77.133090
 20
       16.250000
 30
        0.000000
 11
       77.633090
 21
       15.750000
 31
        0.000000
  0
LINE
  8
1
 10
       55.243110
 20
       17.000000
 30
        0.000000
 11
       55.993110
 21
       16.250000
 31
        0.000000
  0
LINE
  8
1
 10
       55.993110
 20
       16.250000
 30
        0.000000
 11
       55.993110
 21
      -16.250000
 31
        0.000000
  0
LINE
  8
1
  6
CENTER
 10
        0.000000
 20
       22.091097
 30
        0.000000
 11
        0.000000
 21
      -19.761652
 31
        0.000000
  0
LINE
  8
1
  6
CENTER
 10
      -19.610824
 20
        0.000000
 30
        0.000000
 11
       19.552310
 21
        0.000000
 31
        0.000000
  0
LINE
  8
1
 10
       55.243110
 20
       17.000000
 30
        0.000000
 11
       55.243110
 21
      -17.000000
 31
        0.000000
  0
LINE
  8
1
 10
       46.359136
 20
       17.000000
 30
        0.000000
 11
       46.359136
 21
      -17.000000
 31
        0.000000
  0
LINE
  8
1
 10
       45.493110
 20
       15.500000
 30
        0.000000
 11
       45.493110
 21
      -15.500000
 31
        0.000000
  0
LINE
  8
1
 10
       44.593110
 20
       15.500000
 30
        0.000000
 11
       44.593110
 21
      -15.500000
 31
        0.000000
  0
LINE
  8
1
 10
       44.098110
 20
       14.500000
 30
        0.000000
 11
       44.098110
 21
      -14.500000
 31
        0.000000
  0
LINE
  8
1
 10
       41.433110
 20
       14.500000
 30
        0.000000
 11
       41.433110
 21
      -14.500000
 31
        0.000000
  0
LINE
  8
1
 10
       41.433110
 20
      -14.500000
 30
        0.000000
 11
       41.133110
 21
      -14.200000
 31
        0.000000
  0
LINE
  8
1
 10
       44.098110
 20
      -14.500000
 30
        0.000000
 11
       41.433110
 21
      -14.500000
 31
        0.000000
  0
LINE
  8
1
 10
       44.093110
 20
      -15.000000
 30
        0.000000
 11
       44.098110
 21
      -14.500000
 31
        0.000000
  0
LINE
  8
1
 10
       44.593110
 20
      -15.500000
 30
        0.000000
 11
       44.093110
 21
      -15.000000
 31
        0.000000
  0
LINE
  8
1
 10
       45.493110
 20
      -15.500000
 30
        0.000000
 11
       44.593110
 21
      -15.500000
 31
        0.000000
  0
LINE
  8
1
 10
       46.359136
 20
      -17.000000
 30
        0.000000
 11
       45.493110
 21
      -15.500000
 31
        0.000000
  0
LINE
  8
1
 10
       55.243110
 20
      -17.000000
 30
        0.000000
 11
       46.359136
 21
      -17.000000
 31
        0.000000
  0
LINE
  8
1
 10
       55.993110
 20
      -16.250000
 30
        0.000000
 11
       55.243110
 21
      -17.000000
 31
        0.000000
  0
LINE
  8
1
 10
        1.000000
 20
       16.970563
 30
        0.000000
 11
        1.000000
 21
       17.500000
 31
        0.000000
  0
LINE
  8
1
 10
       -1.000000
 20
       16.970563
 30
        0.000000
 11
       -1.000000
 21
       17.500000
 31
        0.000000
  0
LINE
  8
1
 10
       -0.800000
 20
       16.981166
 30
        0.000000
 11
       -0.800000
 21
       17.500000
 31
        0.000000
  0
LINE
  8
1
 10
        0.800000
 20
       16.981166
 30
        0.000000
 11
        0.800000
 21
       17.500000
 31
        0.000000
  0
LINE
  8
1
 10
        1.000000
 20
       17.500000
 30
        0.000000
 11
        1.700000
 21
       17.500000
 31
        0.000000
  0
LINE
  8
1
 10
       -1.000000
 20
       17.500000
 30
        0.000000
 11
       -0.800000
 21
       17.500000
 31
        0.000000
  0
LINE
  8
1
 10
       -0.800000
 20
       17.500000
 30
        0.000000
 11
        0.800000
 21
       17.500000
 31
        0.000000
  0
LINE
  8
1
 10
        0.800000
 20
       17.500000
 30
        0.000000
 11
        1.000000
 21
       17.500000
 31
        0.000000
  0
LINE
  8
1
 10
       -1.902113
 20
       17.800000
 30
        0.000000
 11
       -1.618034
 21
       17.800000
 31
        0.000000
  0
LINE
  8
1
 10
       -1.902113
 20
       19.700000
 30
        0.000000
 11
       -1.618034
 21
       19.700000
 31
        0.000000
  0
LINE
  8
1
 10
       -1.902113
 20
       19.700000
 30
        0.000000
 11
       -1.902113
 21
       17.800000
 31
        0.000000
  0
LINE
  8
1
 10
       -1.618034
 20
       17.800000
 30
        0.000000
 11
       -1.175571
 21
       17.800000
 31
        0.000000
  0
LINE
  8
1
 10
       -1.618034
 20
       19.700000
 30
        0.000000
 11
       -1.175571
 21
       19.700000
 31
        0.000000
  0
LINE
  8
1
 10
       -1.618034
 20
       19.700000
 30
        0.000000
 11
       -1.618034
 21
       17.800000
 31
        0.000000
  0
LINE
  8
1
 10
       -1.175571
 20
       17.800000
 30
        0.000000
 11
       -0.618034
 21
       17.800000
 31
        0.000000
  0
LINE
  8
1
 10
       -1.175571
 20
       19.700000
 30
        0.000000
 11
       -0.618034
 21
       19.700000
 31
        0.000000
  0
LINE
  8
1
 10
       -1.175571
 20
       19.700000
 30
        0.000000
 11
       -1.175571
 21
       17.800000
 31
        0.000000
  0
LINE
  8
1
 10
       -0.618034
 20
       17.800000
 30
        0.000000
 11
        0.618034
 21
       17.800000
 31
        0.000000
  0
LINE
  8
1
 10
       -0.618034
 20
       19.700000
 30
        0.000000
 11
        0.618034
 21
       19.700000
 31
        0.000000
  0
LINE
  8
1
 10
       -0.618034
 20
       19.700000
 30
        0.000000
 11
       -0.618034
 21
       17.800000
 31
        0.000000
  0
LINE
  8
1
 10
        0.618034
 20
       17.800000
 30
        0.000000
 11
        1.175570
 21
       17.800000
 31
        0.000000
  0
LINE
  8
1
 10
        0.618034
 20
       19.700000
 30
        0.000000
 11
        1.175570
 21
       19.700000
 31
        0.000000
  0
LINE
  8
1
 10
        0.618034
 20
       19.700000
 30
        0.000000
 11
        0.618034
 21
       17.800000
 31
        0.000000
  0
LINE
  8
1
 10
        1.175570
 20
       17.800000
 30
        0.000000
 11
        1.618034
 21
       17.800000
 31
        0.000000
  0
LINE
  8
1
 10
        1.175570
 20
       19.700000
 30
        0.000000
 11
        1.618034
 21
       19.700000
 31
        0.000000
  0
LINE
  8
1
 10
        1.175570
 20
       19.700000
 30
        0.000000
 11
        1.175570
 21
       17.800000
 31
        0.000000
  0
LINE
  8
1
 10
        1.618034
 20
       17.800000
 30
        0.000000
 11
        1.902113
 21
       17.800000
 31
        0.000000
  0
LINE
  8
1
 10
        1.618034
 20
       19.700000
 30
        0.000000
 11
        1.902113
 21
       19.700000
 31
        0.000000
  0
LINE
  8
1
 10
        1.618034
 20
       19.700000
 30
        0.000000
 11
        1.618034
 21
       17.800000
 31
        0.000000
  0
LINE
  8
1
 10
        1.902113
 20
       17.800000
 30
        0.000000
 11
        2.000000
 21
       17.800000
 31
        0.000000
  0
LINE
  8
1
 10
        1.902113
 20
       19.700000
 30
        0.000000
 11
        2.000000
 21
       19.700000
 31
        0.000000
  0
LINE
  8
1
 10
        1.902113
 20
       19.700000
 30
        0.000000
 11
        1.902113
 21
       17.800000
 31
        0.000000
  0
LINE
  8
1
 10
       -2.000000
 20
       19.700000
 30
        0.000000
 11
       -2.000000
 21
       17.800000
 31
        0.000000
  0
LINE
  8
1
 10
        2.000000
 20
       19.700000
 30
        0.000000
 11
        2.000000
 21
       17.800000
 31
        0.000000
  0
LINE
  8
1
 10
       -2.000000
 20
       17.800000
 30
        0.000000
 11
       -1.902113
 21
       17.800000
 31
        0.000000
  0
LINE
  8
1
 10
       -2.000000
 20
       19.700000
 30
        0.000000
 11
       -1.902113
 21
       19.700000
 31
        0.000000
  0
LINE
  8
1
 10
       -1.700000
 20
       17.500000
 30
        0.000000
 11
       -1.000000
 21
       17.500000
 31
        0.000000
  0
LINE
  8
1
 10
       -2.000000
 20
       19.700000
 30
        0.000000
 11
       -1.700000
 21
       20.000000
 31
        0.000000
  0
LINE
  8
1
 10
       -2.000000
 20
       17.800000
 30
        0.000000
 11
       -1.700000
 21
       17.500000
 31
        0.000000
  0
LINE
  8
1
 10
       -2.000000
 20
       19.700000
 30
        0.000000
 11
       -1.700000
 21
       20.000000
 31
        0.000000
  0
LINE
  8
1
 10
        1.700000
 20
       20.000000
 30
        0.000000
 11
        2.000000
 21
       19.700000
 31
        0.000000
  0
LINE
  8
1
 10
        1.700000
 20
       17.500000
 30
        0.000000
 11
        2.000000
 21
       17.800000
 31
        0.000000
  0
LINE
  8
1
 10
       -2.000000
 20
       17.800000
 30
        0.000000
 11
       -1.700000
 21
       17.500000
 31
        0.000000
  0
LINE
  8
1
 10
        1.700000
 20
       20.000000
 30
        0.000000
 11
        2.000000
 21
       19.700000
 31
        0.000000
  0
LINE
  8
1
 10
       -2.000000
 20
       19.700000
 30
        0.000000
 11
       -1.700000
 21
       20.000000
 31
        0.000000
  0
LINE
  8
1
 10
       -1.700000
 20
       20.000000
 30
        0.000000
 11
        1.700000
 21
       20.000000
 31
        0.000000
  0
LINE
  8
1
 10
        0.850000
 20
       20.000000
 30
        0.000000
 11
        1.700000
 21
       20.000000
 31
        0.000000
  0
LINE
  8
1
 10
       -1.700000
 20
       20.000000
 30
        0.000000
 11
        1.700000
 21
       20.000000
 31
        0.000000
  0
ARC
  8
1
 10
        0.000000
 20
        0.000000
 30
        0.000000
 40
       17.000000
 50
       86.627705
 51
       87.302723
  0
ARC
  8
1
 10
        0.000000
 20
        0.000000
 30
        0.000000
 40
       17.000000
 50
       93.372275
 51
      360.000000
  0
ARC
  8
1
 10
        0.000000
 20
        0.000000
 30
        0.000000
 40
       17.000000
 50
       87.302723
 51
       92.697257
  0
ARC
  8
1
 10
        0.000000
 20
        0.000000
 30
        0.000000
 40
       17.000000
 50
       92.697257
 51
       93.372275
  0
ARC
  8
1
 10
        0.000000
 20
        0.000000
 30
        0.000000
 40
       17.000000
 50
        0.000000
 51
       86.627705
  0
CIRCLE
  8
1
 10
        0.000000
 20
        0.000000
 30
        0.000000
 40
       10.750000
  0
CIRCLE
  8
1
 10
        0.000000
 20
        0.000000
 30
        0.000000
 40
       13.209832
  0
CIRCLE
  8
1
 10
        0.000000
 20
        0.000000
 30
        0.000000
 40
       13.500000
  0
CIRCLE
  8
1
 10
        0.000000
 20
        0.000000
 30
        0.000000
 40
       14.500000
  0
CIRCLE
  8
1
 10
        0.000000
 20
        0.000000
 30
        0.000000
 40
       15.500000
  0
TEXT
  8
0
 62
  2
 10
      -12.225253
 20
       32.820614
 30
        0.000000
 40
        3.000000
  1
ＩＶ－１Ｂ２０３５
 50
        0.000000
 41
        1.000000
 51
        0.000000
  7
BIGFONT
  0
LINE
  8
1
 10
        0.000000
 20
       19.700000
 30
        0.000000
 11
        0.000000
 21
       17.800000
 31
        0.000000
  0
LINE
  8
1
 10
       46.993110
 20
       19.700000
 30
        0.000000
 11
       47.293110
 21
       20.000000
 31
        0.000000
  0
LINE
  8
1
 10
       46.993110
 20
       17.800000
 30
        0.000000
 11
       47.293110
 21
       17.500000
 31
        0.000000
  0
LINE
  8
1
 10
       46.993110
 20
       19.700000
 30
        0.000000
 11
       47.293110
 21
       20.000000
 31
        0.000000
  0
LINE
  8
1
 10
       50.693110
 20
       20.000000
 30
        0.000000
 11
       50.993110
 21
       19.700000
 31
        0.000000
  0
LINE
  8
1
 10
       50.693110
 20
       17.500000
 30
        0.000000
 11
       50.993110
 21
       17.800000
 31
        0.000000
  0
LINE
  8
1
 10
       46.993110
 20
       17.800000
 30
        0.000000
 11
       47.293110
 21
       17.500000
 31
        0.000000
  0
LINE
  8
1
 10
       50.693110
 20
       20.000000
 30
        0.000000
 11
       50.993110
 21
       19.700000
 31
        0.000000
  0
LINE
  8
1
 10
       46.993110
 20
       19.700000
 30
        0.000000
 11
       47.293110
 21
       20.000000
 31
        0.000000
  0
LINE
  8
1
 10
       47.293110
 20
       20.000000
 30
        0.000000
 11
       50.693110
 21
       20.000000
 31
        0.000000
  0
LINE
  8
1
 10
       49.843110
 20
       20.000000
 30
        0.000000
 11
       50.693110
 21
       20.000000
 31
        0.000000
  0
LINE
  8
1
 10
       47.293110
 20
       20.000000
 30
        0.000000
 11
       50.693110
 21
       20.000000
 31
        0.000000
  0
LINE
  8
1
 10
       49.793110
 20
       17.500000
 30
        0.000000
 11
       49.793110
 21
       17.000000
 31
        0.000000
  0
LINE
  8
1
 10
       48.193110
 20
       17.000000
 30
        0.000000
 11
       48.193110
 21
       17.500000
 31
        0.000000
  0
LINE
  8
1
 10
       47.993110
 20
       17.500000
 30
        0.000000
 11
       47.993110
 21
       17.000000
 31
        0.000000
  0
LINE
  8
1
 10
       49.993110
 20
       17.500000
 30
        0.000000
 11
       49.993110
 21
       17.000000
 31
        0.000000
  0
LINE
  8
1
 10
       48.993110
 20
       19.700000
 30
        0.000000
 11
       48.993110
 21
       17.800000
 31
        0.000000
  0
LINE
  8
1
 10
       47.090997
 20
       19.700000
 30
        0.000000
 11
       47.090997
 21
       17.800000
 31
        0.000000
  0
LINE
  8
1
 10
       47.375076
 20
       19.700000
 30
        0.000000
 11
       47.375076
 21
       17.800000
 31
        0.000000
  0
LINE
  8
1
 10
       47.817540
 20
       19.700000
 30
        0.000000
 11
       47.817540
 21
       17.800000
 31
        0.000000
  0
LINE
  8
1
 10
       48.375076
 20
       19.700000
 30
        0.000000
 11
       48.375076
 21
       17.800000
 31
        0.000000
  0
LINE
  8
1
 10
       49.611144
 20
       19.700000
 30
        0.000000
 11
       49.611144
 21
       17.800000
 31
        0.000000
  0
LINE
  8
1
 10
       50.168681
 20
       19.700000
 30
        0.000000
 11
       50.168681
 21
       17.800000
 31
        0.000000
  0
LINE
  8
1
 10
       50.611144
 20
       19.700000
 30
        0.000000
 11
       50.611144
 21
       17.800000
 31
        0.000000
  0
LINE
  8
1
 10
       50.895223
 20
       17.800000
 30
        0.000000
 11
       50.993110
 21
       17.800000
 31
        0.000000
  0
LINE
  8
1
 10
       50.895223
 20
       19.700000
 30
        0.000000
 11
       50.895223
 21
       17.800000
 31
        0.000000
  0
LINE
  8
1
 10
       46.993110
 20
       19.700000
 30
        0.000000
 11
       46.993110
 21
       17.800000
 31
        0.000000
  0
LINE
  8
1
 10
       50.993110
 20
       19.700000
 30
        0.000000
 11
       50.993110
 21
       17.800000
 31
        0.000000
  0
LINE
  8
1
 10
       46.993110
 20
       17.800000
 30
        0.000000
 11
       50.895223
 21
       17.800000
 31
        0.000000
  0
LINE
  8
1
 10
       46.993110
 20
       19.700000
 30
        0.000000
 11
       50.993110
 21
       19.700000
 31
        0.000000
  0
LINE
  8
1
 10
       47.293110
 20
       17.500000
 30
        0.000000
 11
       50.693110
 21
       17.500000
 31
        0.000000
  0
LINE
  8
1
 10
       41.133110
 20
      -14.200000
 30
        0.000000
 11
       41.133110
 21
       14.200000
 31
        0.000000
  0
LINE
  8
1
 10
       41.133110
 20
       14.200000
 30
        0.000000
 11
       41.433110
 21
       14.500000
 31
        0.000000
  0
LINE
  8
1
 10
       41.433110
 20
       14.500000
 30
        0.000000
 11
       44.098110
 21
       14.500000
 31
        0.000000
  0
LINE
  8
1
 10
       44.098110
 20
       14.500000
 30
        0.000000
 11
       44.093110
 21
       15.000000
 31
        0.000000
  0
LINE
  8
1
 10
       44.093110
 20
       15.000000
 30
        0.000000
 11
       44.593110
 21
       15.500000
 31
        0.000000
  0
LINE
  8
1
 10
       44.593110
 20
       15.500000
 30
        0.000000
 11
       45.493110
 21
       15.500000
 31
        0.000000
  0
LINE
  8
1
 10
       45.493110
 20
       15.500000
 30
        0.000000
 11
       46.359136
 21
       17.000000
 31
        0.000000
  0
LINE
  8
1
 10
       46.359136
 20
       17.000000
 30
        0.000000
 11
       55.243110
 21
       17.000000
 31
        0.000000
  0
ENDSEC
  0
EOF
