  0
SECTION
  2
HEADER
  9
$ACADVER
  1
AC1006
  9
$INSBASE
 10
0.0
 20
0.0
 30
0.0
  9
$EXTMIN
 10
      -83.250000
 20
      -17.400000
  9
$EXTMAX
 10
       19.000000
 20
       42.459370
  9
$LIMMIN
 10
      -83.250000
 20
      -17.400000
  9
$LIMMAX
 10
       19.000000
 20
       42.459370
  9
$VIEWCTR
 10
      -32.125000
 20
      -32.125000
  9
$ORTHOMODE
 70
     0
  9
$ANGBASE
 50
0.0
  9
$ANGDIR
 70
     0
  9
$SPLINETYPE
 70
     6
  9
$SPLINESEGS
 70
     8
9
$DIMASZ
 40
        3.000000
9
$DIMEXE
 40
        0.175000
9
$DIMEXO
 40
        0.350000
9
$DIMTXT
 40
        3.500000
9
$DIMGAP
 40
        0.175000
9
$DIMTAD
 70
1
9
$DIMTIH
 70
0
9
$DIMTOH
 70
0
  0
ENDSEC
  0
SECTION
  2
TABLES
  0
TABLE
  2
LTYPE
 70
     5
  0
LTYPE
  2
CONTINUOUS
 70
    64
  3
SOLID LINE
 72
    65
 73
     0
 40
0.0
  0
LTYPE
  2
DASHED
 70
    64
  3
-- -- -- -- -- --
 72
    65
 73
     2
 40
  0.75  
 49
  0.50  
 49
 -0.25  
  0
LTYPE
  2
DOT
 70
    64
  3
....................
 72
    65
 73
     2
 40
  0.25  
 49
  0.02  
 49
 -0.23  
  0
LTYPE
  2
CENTER
 70
    64
  3
-- . -- . -- . -- .
 72
    65
 73
    4
 40
  2.00  
 49
  1.25  
 49
 -0.25  
 49
  0.25  
 49
 -0.25  
  0
LTYPE
  2
PHANTOM
 70
    64
  3
-- .. -- .. -- ..
 72
    65
 73
    6
 40
  2.50  
 49
  1.25  
 49
 -0.25  
 49
  0.25  
 49
 -0.25  
 49
  0.25  
 49
 -0.25  
  0
ENDTAB
  0
TABLE
  2
LAYER
 70
     1
  0
LAYER
  2
LVL0000
 70
    64
 62
     4
  6
CONTINUOUS
  0
ENDTAB
  0
TABLE
  2
STYLE
 70
     2
  0
STYLE
  2
STANDARD
 70
    64
 40
0.0
 41
1.0
 50
0.0
 71
     0
 42
5.0
  3
ROMANS
  4
BIGFONT
  0
STYLE
  2
BIGFONT
 70
    64
 40
0.0
 41
1.0
 50
0.0
 71
     0
 42
5.0
  3
ROMANS
  4
BIGFONT
  0
ENDTAB
  0
TABLE
  2
VIEW
 70
     0
  0
ENDTAB
  0
TABLE
  2
UCS
 70
     0
  0
ENDTAB
  0
TABLE
  2
DWGMGR
 70
     0
  0
ENDTAB
  0
ENDSEC
  0
SECTION
  2
BLOCKS
  0
BLOCK
  8
0
  2
BLK0001
 70
    64
 10
        0.000000
 20
        0.000000
  0
TEXT
  8
LVL0000
 10
       17.040886
 20
       -8.673856
 30
        0.000000
 40
        3.500000
  1
φ２９．５
 50
       90.000000
 41
        0.835000
 51
        0.000000
  7
BIGFONT
  0
LINE
  8
LVL0000
 10
        0.350000
 20
      -14.750000
 30
        0.000000
 11
       17.390886
 21
      -14.750000
 31
        0.000000
  0
LINE
  8
LVL0000
 10
        0.350000
 20
       14.750000
 30
        0.000000
 11
       17.390886
 21
       14.750000
 31
        0.000000
  0
LINE
  8
LVL0000
 10
       16.430489
 20
      -11.750000
 30
        0.000000
 11
       17.215887
 21
      -14.750000
 31
        0.000000
  0
LINE
  8
LVL0000
 10
       17.215887
 20
      -14.750000
 30
        0.000000
 11
       18.001286
 21
      -11.750000
 31
        0.000000
  0
LINE
  8
LVL0000
 10
       18.001286
 20
       11.750000
 30
        0.000000
 11
       17.215887
 21
       14.750000
 31
        0.000000
  0
LINE
  8
LVL0000
 10
       17.215887
 20
       14.750000
 30
        0.000000
 11
       16.430489
 21
       11.750000
 31
        0.000000
  0
LINE
  8
LVL0000
 10
       17.215887
 20
      -14.750000
 30
        0.000000
 11
       17.215887
 21
       14.750000
 31
        0.000000
  0
ENDBLK
  0
BLOCK
  8
0
  2
BLK0002
 70
    64
 10
        0.000000
 20
        0.000000
  0
TEXT
  8
LVL0000
 10
      -18.375923
 20
      -32.127205
 30
        0.000000
 40
        3.500000
  1
３２．５
 50
        0.000000
 41
        0.835000
 51
        0.000000
  7
BIGFONT
  0
LINE
  8
LVL0000
 10
        4.000000
 20
      -13.050000
 30
        0.000000
 11
        4.000000
 21
      -32.477203
 31
        0.000000
  0
LINE
  8
LVL0000
 10
      -28.500000
 20
      -14.350000
 30
        0.000000
 11
      -28.500000
 21
      -32.477203
 31
        0.000000
  0
LINE
  8
LVL0000
 10
        1.000000
 20
      -33.087605
 30
        0.000000
 11
        4.000000
 21
      -32.302204
 31
        0.000000
  0
LINE
  8
LVL0000
 10
        4.000000
 20
      -32.302204
 30
        0.000000
 11
        1.000000
 21
      -31.516806
 31
        0.000000
  0
LINE
  8
LVL0000
 10
      -25.500000
 20
      -31.516806
 30
        0.000000
 11
      -28.500000
 21
      -32.302204
 31
        0.000000
  0
LINE
  8
LVL0000
 10
      -28.500000
 20
      -32.302204
 30
        0.000000
 11
      -25.500000
 21
      -33.087605
 31
        0.000000
  0
LINE
  8
LVL0000
 10
        4.000000
 20
      -32.302204
 30
        0.000000
 11
      -28.500000
 21
      -32.302204
 31
        0.000000
  0
ENDBLK
  0
BLOCK
  8
0
  2
BLK0003
 70
    64
 10
        0.000000
 20
        0.000000
  0
TEXT
  8
LVL0000
 10
      -20.895473
 20
      -22.040194
 30
        0.000000
 40
        3.500000
  1
２８．５
 50
        0.000000
 41
        0.835000
 51
        0.000000
  7
BIGFONT
  0
LINE
  8
LVL0000
 10
      -28.500000
 20
      -14.350000
 30
        0.000000
 11
      -28.500000
 21
      -22.390194
 31
        0.000000
  0
LINE
  8
LVL0000
 10
        0.000000
 20
      -15.100000
 30
        0.000000
 11
        0.000000
 21
      -22.390194
 31
        0.000000
  0
LINE
  8
LVL0000
 10
      -25.500000
 20
      -21.429796
 30
        0.000000
 11
      -28.500000
 21
      -22.215195
 31
        0.000000
  0
LINE
  8
LVL0000
 10
      -28.500000
 20
      -22.215195
 30
        0.000000
 11
      -25.500000
 21
      -23.000593
 31
        0.000000
  0
LINE
  8
LVL0000
 10
       -3.000000
 20
      -23.000593
 30
        0.000000
 11
        0.000000
 21
      -22.215195
 31
        0.000000
  0
LINE
  8
LVL0000
 10
        0.000000
 20
      -22.215195
 30
        0.000000
 11
       -3.000000
 21
      -21.429796
 31
        0.000000
  0
LINE
  8
LVL0000
 10
      -28.500000
 20
      -22.215195
 30
        0.000000
 11
        0.000000
 21
      -22.215195
 31
        0.000000
  0
ENDBLK
  0
BLOCK
  8
0
  2
BLK0004
 70
    64
 10
        0.000000
 20
        0.000000
  0
TEXT
  8
LVL0000
 10
      -36.868370
 20
        6.979992
 30
        0.000000
 40
        3.500000
  1
１９
 50
       90.000000
 41
        0.835000
 51
        0.000000
  7
BIGFONT
  0
LINE
  8
LVL0000
 10
      -30.804441
 20
        0.000000
 30
        0.000000
 11
      -36.868370
 21
        0.000000
 31
        0.000000
  0
LINE
  8
LVL0000
 10
      -14.950001
 20
       19.000000
 30
        0.000000
 11
      -36.868370
 21
       19.000000
 31
        0.000000
  0
LINE
  8
LVL0000
 10
      -37.478771
 20
        3.000000
 30
        0.000000
 11
      -36.693371
 21
        0.000000
 31
        0.000000
  0
LINE
  8
LVL0000
 10
      -36.693371
 20
        0.000000
 30
        0.000000
 11
      -35.907974
 21
        3.000000
 31
        0.000000
  0
LINE
  8
LVL0000
 10
      -35.907970
 20
       16.000000
 30
        0.000000
 11
      -36.693371
 21
       19.000000
 31
        0.000000
  0
LINE
  8
LVL0000
 10
      -36.693371
 20
       19.000000
 30
        0.000000
 11
      -37.478771
 21
       16.000000
 31
        0.000000
  0
LINE
  8
LVL0000
 10
      -36.693371
 20
        0.000000
 30
        0.000000
 11
      -36.693371
 21
       19.000000
 31
        0.000000
  0
ENDBLK
  0
ENDSEC
  0
SECTION
  2
ENTITIES
  0
DIMENSION
  8
LVL0000
  2
BLK0001
 10
       17.215887
 20
      -14.750000
 11
       17.040886
 21
       -8.673856
 13
        0.000000
 23
      -14.750000
 14
        0.000000
 24
       14.750000
 50
        0.0
 70
  0
  0
LINE
  8
LVL0000
  6
CENTER
 62
  1
 10
        9.982234
 20
        0.000000
 30
        0.000000
 11
      -30.454441
 21
        0.000000
 31
        0.000000
  0
DIMENSION
  8
LVL0000
  2
BLK0002
 10
        4.000000
 20
      -32.302204
 11
      -18.375923
 21
      -32.127205
 13
        4.000000
 23
      -12.700000
 14
      -28.500000
 24
      -14.000000
 50
        0.0
 70
  0
  0
DIMENSION
  8
LVL0000
  2
BLK0003
 10
      -28.500000
 20
      -22.215195
 11
      -20.895473
 21
      -22.040194
 13
      -28.500000
 23
      -14.000000
 14
        0.000000
 24
      -14.750000
 50
        0.0
 70
  0
  0
TEXT
  8
LVL0000
 62
  2
 10
      -45.738690
 20
       42.459370
 30
        0.000000
 40
        4.000000
  1
ＩＶＳ２０Ｌ１６
 50
        0.000000
 41
        0.835000
 51
        0.000000
  7
BIGFONT
  0
DIMENSION
  8
LVL0000
  2
BLK0004
 10
      -36.693371
 20
        0.000000
 11
      -36.868370
 21
        6.979992
 13
      -30.454441
 23
        0.000000
 14
      -14.600000
 24
       19.000000
 50
       90.0
 70
  0
  0
CIRCLE
  8
LVL0000
 62
  3
 10
      -68.500000
 20
        0.000000
 30
        0.000000
 40
       14.750000
  0
CIRCLE
  8
LVL0000
 62
  3
 10
      -68.500000
 20
        0.000000
 30
        0.000000
 40
       14.000000
  0
CIRCLE
  8
LVL0000
 62
  3
 10
      -68.500000
 20
        0.000000
 30
        0.000000
 40
       14.500000
  0
CIRCLE
  8
LVL0000
 62
  3
 10
      -68.500000
 20
        0.000000
 30
        0.000000
 40
        5.385837
  0
LINE
  8
LVL0000
 62
  3
 10
      -49.500000
 20
       -2.000000
 30
        0.000000
 11
      -49.500000
 21
        2.000000
 31
        0.000000
  0
LINE
  8
LVL0000
 62
  3
 10
      -53.500000
 20
        2.000000
 30
        0.000000
 11
      -49.500000
 21
        2.000000
 31
        0.000000
  0
LINE
  8
LVL0000
 62
  3
 10
      -53.771711
 20
        0.800000
 30
        0.000000
 11
      -53.500000
 21
        0.800000
 31
        0.000000
  0
LINE
  8
LVL0000
 62
  3
 10
      -53.500000
 20
       -2.000000
 30
        0.000000
 11
      -53.500000
 21
        2.000000
 31
        0.000000
  0
LINE
  8
LVL0000
 62
  3
 10
      -53.500000
 20
       -2.000000
 30
        0.000000
 11
      -49.500000
 21
       -2.000000
 31
        0.000000
  0
LINE
  8
LVL0000
 62
  3
 10
      -53.771711
 20
       -0.800000
 30
        0.000000
 11
      -53.500000
 21
       -0.800000
 31
        0.000000
  0
LINE
  8
LVL0000
 62
  3
 10
      -67.700000
 20
       14.728289
 30
        0.000000
 11
      -67.700000
 21
       15.000000
 31
        0.000000
  0
LINE
  8
LVL0000
 62
  3
 10
      -66.500000
 20
       15.000000
 30
        0.000000
 11
      -66.500000
 21
       19.000000
 31
        0.000000
  0
LINE
  8
LVL0000
 62
  3
 10
      -66.500000
 20
       15.000000
 30
        0.000000
 11
      -70.500000
 21
       15.000000
 31
        0.000000
  0
LINE
  8
LVL0000
 62
  3
 10
      -69.300000
 20
       14.728289
 30
        0.000000
 11
      -69.300000
 21
       15.000000
 31
        0.000000
  0
LINE
  8
LVL0000
 62
  3
 10
      -70.500000
 20
       15.000000
 30
        0.000000
 11
      -70.500000
 21
       19.000000
 31
        0.000000
  0
LINE
  8
LVL0000
 62
  3
 10
      -66.500000
 20
       19.000000
 30
        0.000000
 11
      -70.500000
 21
       19.000000
 31
        0.000000
  0
LINE
  8
LVL0000
 62
  3
 10
      -14.600000
 20
       15.000000
 30
        0.000000
 11
      -10.600000
 21
       15.000000
 31
        0.000000
  0
LINE
  8
LVL0000
 62
  3
 10
      -14.600000
 20
       15.000000
 30
        0.000000
 11
      -14.600000
 21
       19.000000
 31
        0.000000
  0
LINE
  8
LVL0000
 62
  3
 10
      -10.600000
 20
       15.000000
 30
        0.000000
 11
      -10.600000
 21
       19.000000
 31
        0.000000
  0
LINE
  8
LVL0000
 62
  3
 10
      -28.500000
 20
      -14.000000
 30
        0.000000
 11
      -28.500000
 21
       14.000000
 31
        0.000000
  0
LINE
  8
LVL0000
 62
  3
 10
      -14.400000
 20
      -14.500000
 30
        0.000000
 11
      -14.400000
 21
       14.500000
 31
        0.000000
  0
LINE
  8
LVL0000
 62
  3
 10
       -8.700000
 20
      -14.750000
 30
        0.000000
 11
       -8.700000
 21
       14.750000
 31
        0.000000
  0
LINE
  8
LVL0000
 62
  3
 10
        0.000000
 20
      -14.750000
 30
        0.000000
 11
        0.000000
 21
       14.750000
 31
        0.000000
  0
LINE
  8
LVL0000
 62
  3
 10
      -28.500000
 20
      -14.000000
 30
        0.000000
 11
      -14.400000
 21
      -14.000000
 31
        0.000000
  0
LINE
  8
LVL0000
 62
  3
 10
      -28.500000
 20
       14.000000
 30
        0.000000
 11
      -14.400000
 21
       14.000000
 31
        0.000000
  0
LINE
  8
LVL0000
 62
  3
 10
      -14.400000
 20
      -14.500000
 30
        0.000000
 11
       -8.700000
 21
      -14.500000
 31
        0.000000
  0
LINE
  8
LVL0000
 62
  3
 10
      -14.400000
 20
       14.500000
 30
        0.000000
 11
       -8.700000
 21
       14.500000
 31
        0.000000
  0
LINE
  8
LVL0000
 62
  3
 10
       -8.700000
 20
       14.750000
 30
        0.000000
 11
        0.000000
 21
       14.750000
 31
        0.000000
  0
LINE
  8
LVL0000
 62
  3
 10
       -8.700000
 20
      -14.750000
 30
        0.000000
 11
        0.000000
 21
      -14.750000
 31
        0.000000
  0
CIRCLE
  8
LVL0000
 62
  3
 10
       -7.200000
 20
        0.000000
 30
        0.000000
 40
        2.000000
  0
LINE
  8
LVL0000
 62
  3
 10
      -13.400000
 20
       14.500000
 30
        0.000000
 11
      -13.400000
 21
       15.000000
 31
        0.000000
  0
LINE
  8
LVL0000
 62
  3
 10
      -11.800000
 20
       14.500000
 30
        0.000000
 11
      -11.800000
 21
       15.000000
 31
        0.000000
  0
LINE
  8
LVL0000
 62
  3
 10
      -14.600000
 20
       19.000000
 30
        0.000000
 11
      -10.600000
 21
       19.000000
 31
        0.000000
  0
LINE
  8
LVL0000
  6
CENTER
 62
  1
 10
      -68.500000
 20
       17.400000
 30
        0.000000
 11
      -68.500000
 21
      -17.400000
 31
        0.000000
  0
LINE
  8
LVL0000
  6
CENTER
 62
  1
 10
      -85.900000
 20
        0.000000
 30
        0.000000
 11
      -51.100000
 21
        0.000000
 31
        0.000000
  0
LINE
  8
LVL0000
 62
  3
 10
        0.000000
 20
      -12.000000
 30
        0.000000
 11
        1.000000
 21
      -12.000000
 31
        0.000000
  0
LINE
  8
LVL0000
 62
  3
 10
        1.000000
 20
      -12.700000
 30
        0.000000
 11
        4.000000
 21
      -12.700000
 31
        0.000000
  0
LINE
  8
LVL0000
 62
  3
 10
        1.000000
 20
       12.700000
 30
        0.000000
 11
        4.000000
 21
       12.700000
 31
        0.000000
  0
LINE
  8
LVL0000
 62
  3
 10
        0.000000
 20
       12.000000
 30
        0.000000
 11
        1.000000
 21
       12.000000
 31
        0.000000
  0
LINE
  8
LVL0000
 62
  3
 10
        1.000000
 20
      -12.700000
 30
        0.000000
 11
        1.000000
 21
       12.700000
 31
        0.000000
  0
LINE
  8
LVL0000
 62
  3
 10
        4.000000
 20
      -12.700000
 30
        0.000000
 11
        4.000000
 21
       12.700000
 31
        0.000000
  0
ENDSEC
  0
EOF
