  0
SECTION
  2
HEADER
  9
$ACADVER
  1
AC1006
  9
$INSBASE
 10
0.0
 20
0.0
 30
0.0
  9
$EXTMIN
 10
     -468.859436
 20
     -468.859436
  9
$EXTMAX
 10
      330.224396
 20
      109.402657
  9
$LIMMIN
 10
     -468.859436
 20
     -468.859436
  9
$LIMMAX
 10
      330.224396
 20
      109.402657
  9
$VIEWCTR
 10
      -69.317520
 20
      -69.317520
  9
$ORTHOMODE
 70
     0
  9
$ANGBASE
 50
0.0
  9
$ANGDIR
 70
     0
  9
$SPLINETYPE
 70
     6
  9
$SPLINESEGS
 70
     8
9
$DIMASZ
 40
        3.500000
9
$DIMEXE
 40
        0.700000
9
$DIMEXO
 40
        1.000000
9
$DIMTXT
 40
        3.500000
9
$DIMGAP
 40
        0.700000
9
$DIMTAD
 70
1
9
$DIMTIH
 70
0
9
$DIMTOH
 70
0
  0
ENDSEC
  0
SECTION
  2
TABLES
  0
TABLE
  2
LTYPE
 70
     5
  0
LTYPE
  2
CONTINUOUS
 70
    64
  3
SOLID LINE
 72
    65
 73
     0
 40
0.0
  0
LTYPE
  2
DASHED
 70
    64
  3
-- -- -- -- -- --
 72
    65
 73
     2
 40
  0.75  
 49
  0.50  
 49
 -0.25  
  0
LTYPE
  2
DOT
 70
    64
  3
....................
 72
    65
 73
     2
 40
  0.25  
 49
  0.02  
 49
 -0.23  
  0
LTYPE
  2
CENTER
 70
    64
  3
-- . -- . -- . -- .
 72
    65
 73
    4
 40
  2.00  
 49
  1.25  
 49
 -0.25  
 49
  0.25  
 49
 -0.25  
  0
LTYPE
  2
PHANTOM
 70
    64
  3
-- .. -- .. -- ..
 72
    65
 73
    6
 40
  2.50  
 49
  1.25  
 49
 -0.25  
 49
  0.25  
 49
 -0.25  
 49
  0.25  
 49
 -0.25  
  0
ENDTAB
  0
TABLE
  2
LAYER
 70
     2
  0
LAYER
  2
LVL0000
 70
    64
 62
     3
  6
CONTINUOUS
  0
LAYER
  2
LVL0001
 70
    64
 62
     2
  6
CONTINUOUS
  0
ENDTAB
  0
TABLE
  2
STYLE
 70
     2
  0
STYLE
  2
STANDARD
 70
    64
 40
0.0
 41
1.0
 50
0.0
 71
     0
 42
5.0
  3
ROMANS
  4
BIGFONT
  0
STYLE
  2
BIGFONT
 70
    64
 40
0.0
 41
1.0
 50
0.0
 71
     0
 42
5.0
  3
ROMANS
  4
BIGFONT
  0
ENDTAB
  0
TABLE
  2
VIEW
 70
     0
  0
ENDTAB
  0
TABLE
  2
UCS
 70
     0
  0
ENDTAB
  0
TABLE
  2
DWGMGR
 70
     0
  0
ENDTAB
  0
ENDSEC
  0
SECTION
  2
BLOCKS
  0
BLOCK
  8
0
  2
BLK0001
 70
    64
 10
        0.000000
 20
        0.000000
  0
TEXT
  8
LVL0000
 62
  4
 10
       53.230297
 20
      -23.607025
 30
        0.000000
 40
        3.500000
  1
５６．５
 50
        0.000000
 41
        0.835000
 51
        0.000000
  7
BIGFONT
  0
LINE
  8
LVL0000
 62
  4
 10
       34.255585
 20
      -14.500000
 30
        0.000000
 11
       34.255585
 21
      -25.007025
 31
        0.000000
  0
LINE
  8
LVL0000
 62
  4
 10
       90.755585
 20
      -15.500000
 30
        0.000000
 11
       90.755585
 21
      -25.007025
 31
        0.000000
  0
LINE
  8
LVL0000
 62
  4
 10
       37.755585
 20
      -23.757246
 30
        0.000000
 11
       34.255585
 21
      -24.307024
 31
        0.000000
  0
LINE
  8
LVL0000
 62
  4
 10
       34.255585
 20
      -24.307024
 30
        0.000000
 11
       37.755585
 21
      -24.856802
 31
        0.000000
  0
LINE
  8
LVL0000
 62
  4
 10
       87.255585
 20
      -24.856802
 30
        0.000000
 11
       90.755585
 21
      -24.307024
 31
        0.000000
  0
LINE
  8
LVL0000
 62
  4
 10
       90.755585
 20
      -24.307024
 30
        0.000000
 11
       87.255585
 21
      -23.757246
 31
        0.000000
  0
LINE
  8
LVL0000
 62
  4
 10
       34.255585
 20
      -24.307024
 30
        0.000000
 11
       90.755585
 21
      -24.307024
 31
        0.000000
  0
ENDBLK
  0
BLOCK
  8
0
  2
BLK0002
 70
    64
 10
        0.000000
 20
        0.000000
  0
TEXT
  8
LVL0000
 62
  4
 10
      278.306152
 20
     -225.085068
 30
        0.000000
 40
        3.500000
  1
２８
 50
       90.000000
 41
        0.835000
 51
        0.000000
  7
BIGFONT
  0
LINE
  8
LVL0000
 62
  4
 10
      290.224396
 20
     -236.529648
 30
        0.000000
 11
      278.306152
 21
     -236.529648
 31
        0.000000
  0
LINE
  8
LVL0000
 62
  4
 10
      290.224396
 20
     -208.529648
 30
        0.000000
 11
      278.306152
 21
     -208.529648
 31
        0.000000
  0
LINE
  8
LVL0000
 62
  4
 10
      278.220764
 20
     -233.529648
 30
        0.000000
 11
      279.006165
 21
     -236.529648
 31
        0.000000
  0
LINE
  8
LVL0000
 62
  4
 10
      279.006165
 20
     -236.529648
 30
        0.000000
 11
      279.791565
 21
     -233.529648
 31
        0.000000
  0
LINE
  8
LVL0000
 62
  4
 10
      279.791565
 20
     -211.529648
 30
        0.000000
 11
      279.006165
 21
     -208.529648
 31
        0.000000
  0
LINE
  8
LVL0000
 62
  4
 10
      279.006165
 20
     -208.529648
 30
        0.000000
 11
      278.220764
 21
     -211.529648
 31
        0.000000
  0
LINE
  8
LVL0000
 62
  4
 10
      279.006165
 20
     -236.529648
 30
        0.000000
 11
      279.006165
 21
     -208.529648
 31
        0.000000
  0
ENDBLK
  0
BLOCK
  8
0
  2
BLK0003
 70
    64
 10
        0.000000
 20
        0.000000
  0
TEXT
  8
LVL0000
 62
  4
 10
      308.476166
 20
     -246.846375
 30
        0.000000
 40
        3.500000
  1
３９
 50
        0.000000
 41
        0.835000
 51
        0.000000
  7
BIGFONT
  0
LINE
  8
LVL0000
 62
  4
 10
      330.224396
 20
     -255.029633
 30
        0.000000
 11
      330.224396
 21
     -246.846375
 31
        0.000000
  0
LINE
  8
LVL0000
 62
  4
 10
      291.224396
 20
     -258.029633
 30
        0.000000
 11
      291.224396
 21
     -246.846375
 31
        0.000000
  0
LINE
  8
LVL0000
 62
  4
 10
      327.224396
 20
     -248.331772
 30
        0.000000
 11
      330.224396
 21
     -247.546371
 31
        0.000000
  0
LINE
  8
LVL0000
 62
  4
 10
      330.224396
 20
     -247.546371
 30
        0.000000
 11
      327.224396
 21
     -246.760971
 31
        0.000000
  0
LINE
  8
LVL0000
 62
  4
 10
      294.224396
 20
     -246.760971
 30
        0.000000
 11
      291.224396
 21
     -247.546371
 31
        0.000000
  0
LINE
  8
LVL0000
 62
  4
 10
      291.224396
 20
     -247.546371
 30
        0.000000
 11
      294.224396
 21
     -248.331772
 31
        0.000000
  0
LINE
  8
LVL0000
 62
  4
 10
      330.224396
 20
     -247.546371
 30
        0.000000
 11
      291.224396
 21
     -247.546371
 31
        0.000000
  0
ENDBLK
  0
BLOCK
  8
0
  2
BLK0004
 70
    64
 10
        0.000000
 20
        0.000000
  0
TEXT
  8
LVL0000
 62
  4
 10
      277.056702
 20
     -274.552673
 30
        0.000000
 40
        3.500000
  1
３１
 50
       90.000000
 41
        0.835000
 51
        0.000000
  7
BIGFONT
  0
LINE
  8
LVL0000
 62
  4
 10
      290.224396
 20
     -287.029633
 30
        0.000000
 11
      277.056702
 21
     -287.029633
 31
        0.000000
  0
LINE
  8
LVL0000
 62
  4
 10
      293.224396
 20
     -256.029633
 30
        0.000000
 11
      277.056702
 21
     -256.029633
 31
        0.000000
  0
LINE
  8
LVL0000
 62
  4
 10
      276.971313
 20
     -284.029633
 30
        0.000000
 11
      277.756714
 21
     -287.029633
 31
        0.000000
  0
LINE
  8
LVL0000
 62
  4
 10
      277.756714
 20
     -287.029633
 30
        0.000000
 11
      278.542114
 21
     -284.029633
 31
        0.000000
  0
LINE
  8
LVL0000
 62
  4
 10
      278.542114
 20
     -259.029633
 30
        0.000000
 11
      277.756714
 21
     -256.029633
 31
        0.000000
  0
LINE
  8
LVL0000
 62
  4
 10
      277.756714
 20
     -256.029633
 30
        0.000000
 11
      276.971313
 21
     -259.029633
 31
        0.000000
  0
LINE
  8
LVL0000
 62
  4
 10
      277.756714
 20
     -287.029633
 30
        0.000000
 11
      277.756714
 21
     -256.029633
 31
        0.000000
  0
ENDBLK
  0
BLOCK
  8
0
  2
BLK0005
 70
    64
 10
        0.000000
 20
        0.000000
  0
POLYLINE
  8
LVL0000
 66
1
 70
4
 75
6
  0
VERTEX
  8
LVL0000
 10
      181.961514
 20
        3.342630
 70
 16
  0
VERTEX
  8
LVL0000
 10
      182.346288
 20
        2.562243
 70
 16
  0
VERTEX
  8
LVL0000
 10
      182.731062
 20
        1.781856
 70
 16
  0
VERTEX
  8
LVL0000
 10
      182.978248
 20
        0.867687
 70
 16
  0
VERTEX
  8
LVL0000
 10
      181.961514
 20
        3.342630
 70
  8
  0
VERTEX
  8
LVL0000
 10
      182.105536
 20
        3.049724
 70
  8
  0
VERTEX
  8
LVL0000
 10
      182.247945
 20
        2.755250
 70
  8
  0
VERTEX
  8
LVL0000
 10
      182.387129
 20
        2.457640
 70
  8
  0
VERTEX
  8
LVL0000
 10
      182.521477
 20
        2.155327
 70
  8
  0
VERTEX
  8
LVL0000
 10
      182.649374
 20
        1.846743
 70
  8
  0
VERTEX
  8
LVL0000
 10
      182.769211
 20
        1.530320
 70
  8
  0
VERTEX
  8
LVL0000
 10
      182.879373
 20
        1.204490
 70
  8
  0
VERTEX
  8
LVL0000
 10
      182.978248
 20
        0.867687
 70
  8
  0
SEQEND
  0
POLYLINE
  8
LVL0000
 66
1
 70
4
 75
6
  0
VERTEX
  8
LVL0000
 10
      182.978248
 20
        0.867687
 70
 16
  0
VERTEX
  8
LVL0000
 10
      183.153130
 20
        0.220920
 70
 16
  0
VERTEX
  8
LVL0000
 10
      183.259143
 20
       -0.492809
 70
 16
  0
VERTEX
  8
LVL0000
 10
      182.978248
 20
       -1.025311
 70
 16
  0
VERTEX
  8
LVL0000
 10
      182.978248
 20
        0.867687
 70
  8
  0
VERTEX
  8
LVL0000
 10
      183.039979
 20
        0.622495
 70
  8
  0
VERTEX
  8
LVL0000
 10
      183.091527
 20
        0.373934
 70
  8
  0
VERTEX
  8
LVL0000
 10
      183.129165
 20
        0.124913
 70
  8
  0
VERTEX
  8
LVL0000
 10
      183.149164
 20
       -0.121661
 70
  8
  0
VERTEX
  8
LVL0000
 10
      183.147800
 20
       -0.362879
 70
  8
  0
VERTEX
  8
LVL0000
 10
      183.121344
 20
       -0.595832
 70
  8
  0
VERTEX
  8
LVL0000
 10
      183.066069
 20
       -0.817612
 70
  8
  0
VERTEX
  8
LVL0000
 10
      182.978248
 20
       -1.025311
 70
  8
  0
SEQEND
  0
POLYLINE
  8
LVL0000
 66
1
 70
4
 75
6
  0
VERTEX
  8
LVL0000
 10
      182.978248
 20
       -1.025311
 70
 16
  0
VERTEX
  8
LVL0000
 10
      182.673646
 20
       -1.602753
 70
 16
  0
VERTEX
  8
LVL0000
 10
      181.914071
 20
       -1.967086
 70
 16
  0
VERTEX
  8
LVL0000
 10
      181.526727
 20
       -2.476832
 70
 16
  0
VERTEX
  8
LVL0000
 10
      182.978248
 20
       -1.025311
 70
  8
  0
VERTEX
  8
LVL0000
 10
      182.844311
 20
       -1.232562
 70
  8
  0
VERTEX
  8
LVL0000
 10
      182.677414
 20
       -1.424036
 70
  8
  0
VERTEX
  8
LVL0000
 10
      182.487251
 20
       -1.603934
 70
  8
  0
VERTEX
  8
LVL0000
 10
      182.283516
 20
       -1.776458
 70
  8
  0
VERTEX
  8
LVL0000
 10
      182.075902
 20
       -1.945807
 70
  8
  0
VERTEX
  8
LVL0000
 10
      181.874103
 20
       -2.116185
 70
  8
  0
VERTEX
  8
LVL0000
 10
      181.687814
 20
       -2.291793
 70
  8
  0
VERTEX
  8
LVL0000
 10
      181.526727
 20
       -2.476832
 70
  8
  0
SEQEND
  0
POLYLINE
  8
LVL0000
 66
1
 70
4
 75
6
  0
VERTEX
  8
LVL0000
 10
      181.526727
 20
       -2.476832
 70
 16
  0
VERTEX
  8
LVL0000
 10
      180.837957
 20
       -3.383253
 70
 16
  0
VERTEX
  8
LVL0000
 10
      181.326156
 20
       -4.749460
 70
 16
  0
VERTEX
  8
LVL0000
 10
      181.814356
 20
       -6.115668
 70
 16
  0
VERTEX
  8
LVL0000
 10
      181.526727
 20
       -2.476832
 70
  8
  0
VERTEX
  8
LVL0000
 10
      181.321310
 20
       -2.837394
 70
  8
  0
VERTEX
  8
LVL0000
 10
      181.212441
 20
       -3.235673
 70
  8
  0
VERTEX
  8
LVL0000
 10
      181.186328
 20
       -3.666281
 70
  8
  0
VERTEX
  8
LVL0000
 10
      181.229178
 20
       -4.123830
 70
  8
  0
VERTEX
  8
LVL0000
 10
      181.327198
 20
       -4.602931
 70
  8
  0
VERTEX
  8
LVL0000
 10
      181.466596
 20
       -5.098196
 70
  8
  0
VERTEX
  8
LVL0000
 10
      181.633580
 20
       -5.604238
 70
  8
  0
VERTEX
  8
LVL0000
 10
      181.814356
 20
       -6.115668
 70
  8
  0
SEQEND
  0
ENDBLK
  0
BLOCK
  8
0
  2
BLK0006
 70
    64
 10
        0.000000
 20
        0.000000
  0
POLYLINE
  8
LVL0000
 66
1
 70
4
 75
6
  0
VERTEX
  8
LVL0000
 10
      183.961514
 20
        3.342630
 70
 16
  0
VERTEX
  8
LVL0000
 10
      184.346288
 20
        2.562243
 70
 16
  0
VERTEX
  8
LVL0000
 10
      184.731062
 20
        1.781856
 70
 16
  0
VERTEX
  8
LVL0000
 10
      184.978248
 20
        0.867687
 70
 16
  0
VERTEX
  8
LVL0000
 10
      183.961514
 20
        3.342630
 70
  8
  0
VERTEX
  8
LVL0000
 10
      184.105536
 20
        3.049724
 70
  8
  0
VERTEX
  8
LVL0000
 10
      184.247945
 20
        2.755250
 70
  8
  0
VERTEX
  8
LVL0000
 10
      184.387129
 20
        2.457640
 70
  8
  0
VERTEX
  8
LVL0000
 10
      184.521477
 20
        2.155327
 70
  8
  0
VERTEX
  8
LVL0000
 10
      184.649374
 20
        1.846743
 70
  8
  0
VERTEX
  8
LVL0000
 10
      184.769211
 20
        1.530320
 70
  8
  0
VERTEX
  8
LVL0000
 10
      184.879373
 20
        1.204490
 70
  8
  0
VERTEX
  8
LVL0000
 10
      184.978248
 20
        0.867687
 70
  8
  0
SEQEND
  0
POLYLINE
  8
LVL0000
 66
1
 70
4
 75
6
  0
VERTEX
  8
LVL0000
 10
      184.978248
 20
        0.867687
 70
 16
  0
VERTEX
  8
LVL0000
 10
      185.153130
 20
        0.220920
 70
 16
  0
VERTEX
  8
LVL0000
 10
      185.259143
 20
       -0.492809
 70
 16
  0
VERTEX
  8
LVL0000
 10
      184.978248
 20
       -1.025311
 70
 16
  0
VERTEX
  8
LVL0000
 10
      184.978248
 20
        0.867687
 70
  8
  0
VERTEX
  8
LVL0000
 10
      185.039979
 20
        0.622495
 70
  8
  0
VERTEX
  8
LVL0000
 10
      185.091527
 20
        0.373934
 70
  8
  0
VERTEX
  8
LVL0000
 10
      185.129165
 20
        0.124913
 70
  8
  0
VERTEX
  8
LVL0000
 10
      185.149164
 20
       -0.121661
 70
  8
  0
VERTEX
  8
LVL0000
 10
      185.147800
 20
       -0.362879
 70
  8
  0
VERTEX
  8
LVL0000
 10
      185.121344
 20
       -0.595832
 70
  8
  0
VERTEX
  8
LVL0000
 10
      185.066069
 20
       -0.817612
 70
  8
  0
VERTEX
  8
LVL0000
 10
      184.978248
 20
       -1.025311
 70
  8
  0
SEQEND
  0
POLYLINE
  8
LVL0000
 66
1
 70
4
 75
6
  0
VERTEX
  8
LVL0000
 10
      184.978248
 20
       -1.025311
 70
 16
  0
VERTEX
  8
LVL0000
 10
      184.673646
 20
       -1.602753
 70
 16
  0
VERTEX
  8
LVL0000
 10
      183.914071
 20
       -1.967086
 70
 16
  0
VERTEX
  8
LVL0000
 10
      183.526727
 20
       -2.476832
 70
 16
  0
VERTEX
  8
LVL0000
 10
      184.978248
 20
       -1.025311
 70
  8
  0
VERTEX
  8
LVL0000
 10
      184.844311
 20
       -1.232562
 70
  8
  0
VERTEX
  8
LVL0000
 10
      184.677414
 20
       -1.424036
 70
  8
  0
VERTEX
  8
LVL0000
 10
      184.487251
 20
       -1.603934
 70
  8
  0
VERTEX
  8
LVL0000
 10
      184.283516
 20
       -1.776458
 70
  8
  0
VERTEX
  8
LVL0000
 10
      184.075902
 20
       -1.945807
 70
  8
  0
VERTEX
  8
LVL0000
 10
      183.874103
 20
       -2.116185
 70
  8
  0
VERTEX
  8
LVL0000
 10
      183.687814
 20
       -2.291793
 70
  8
  0
VERTEX
  8
LVL0000
 10
      183.526727
 20
       -2.476832
 70
  8
  0
SEQEND
  0
POLYLINE
  8
LVL0000
 66
1
 70
4
 75
6
  0
VERTEX
  8
LVL0000
 10
      183.526727
 20
       -2.476832
 70
 16
  0
VERTEX
  8
LVL0000
 10
      182.837957
 20
       -3.383253
 70
 16
  0
VERTEX
  8
LVL0000
 10
      183.326156
 20
       -4.749460
 70
 16
  0
VERTEX
  8
LVL0000
 10
      183.814356
 20
       -6.115668
 70
 16
  0
VERTEX
  8
LVL0000
 10
      183.526727
 20
       -2.476832
 70
  8
  0
VERTEX
  8
LVL0000
 10
      183.321310
 20
       -2.837394
 70
  8
  0
VERTEX
  8
LVL0000
 10
      183.212441
 20
       -3.235673
 70
  8
  0
VERTEX
  8
LVL0000
 10
      183.186328
 20
       -3.666281
 70
  8
  0
VERTEX
  8
LVL0000
 10
      183.229178
 20
       -4.123830
 70
  8
  0
VERTEX
  8
LVL0000
 10
      183.327198
 20
       -4.602931
 70
  8
  0
VERTEX
  8
LVL0000
 10
      183.466596
 20
       -5.098196
 70
  8
  0
VERTEX
  8
LVL0000
 10
      183.633580
 20
       -5.604238
 70
  8
  0
VERTEX
  8
LVL0000
 10
      183.814356
 20
       -6.115668
 70
  8
  0
SEQEND
  0
ENDBLK
  0
BLOCK
  8
0
  2
BLK0007
 70
    64
 10
        0.000000
 20
        0.000000
  0
POLYLINE
  8
LVL0000
 66
1
 70
4
 75
6
  0
VERTEX
  8
LVL0000
 10
      183.961514
 20
       56.765434
 70
 16
  0
VERTEX
  8
LVL0000
 10
      184.346288
 20
       55.985046
 70
 16
  0
VERTEX
  8
LVL0000
 10
      184.731062
 20
       55.204659
 70
 16
  0
VERTEX
  8
LVL0000
 10
      184.978248
 20
       54.290490
 70
 16
  0
VERTEX
  8
LVL0000
 10
      183.961514
 20
       56.765434
 70
  8
  0
VERTEX
  8
LVL0000
 10
      184.105536
 20
       56.472527
 70
  8
  0
VERTEX
  8
LVL0000
 10
      184.247945
 20
       56.178053
 70
  8
  0
VERTEX
  8
LVL0000
 10
      184.387129
 20
       55.880443
 70
  8
  0
VERTEX
  8
LVL0000
 10
      184.521477
 20
       55.578130
 70
  8
  0
VERTEX
  8
LVL0000
 10
      184.649374
 20
       55.269546
 70
  8
  0
VERTEX
  8
LVL0000
 10
      184.769211
 20
       54.953123
 70
  8
  0
VERTEX
  8
LVL0000
 10
      184.879373
 20
       54.627294
 70
  8
  0
VERTEX
  8
LVL0000
 10
      184.978248
 20
       54.290490
 70
  8
  0
SEQEND
  0
POLYLINE
  8
LVL0000
 66
1
 70
4
 75
6
  0
VERTEX
  8
LVL0000
 10
      184.978248
 20
       54.290490
 70
 16
  0
VERTEX
  8
LVL0000
 10
      185.153130
 20
       53.643724
 70
 16
  0
VERTEX
  8
LVL0000
 10
      185.259143
 20
       52.929994
 70
 16
  0
VERTEX
  8
LVL0000
 10
      184.978248
 20
       52.397493
 70
 16
  0
VERTEX
  8
LVL0000
 10
      184.978248
 20
       54.290490
 70
  8
  0
VERTEX
  8
LVL0000
 10
      185.039979
 20
       54.045299
 70
  8
  0
VERTEX
  8
LVL0000
 10
      185.091527
 20
       53.796738
 70
  8
  0
VERTEX
  8
LVL0000
 10
      185.129165
 20
       53.547716
 70
  8
  0
VERTEX
  8
LVL0000
 10
      185.149164
 20
       53.301142
 70
  8
  0
VERTEX
  8
LVL0000
 10
      185.147800
 20
       53.059924
 70
  8
  0
VERTEX
  8
LVL0000
 10
      185.121344
 20
       52.826971
 70
  8
  0
VERTEX
  8
LVL0000
 10
      185.066069
 20
       52.605191
 70
  8
  0
VERTEX
  8
LVL0000
 10
      184.978248
 20
       52.397493
 70
  8
  0
SEQEND
  0
POLYLINE
  8
LVL0000
 66
1
 70
4
 75
6
  0
VERTEX
  8
LVL0000
 10
      184.978248
 20
       52.397493
 70
 16
  0
VERTEX
  8
LVL0000
 10
      184.673646
 20
       51.820050
 70
 16
  0
VERTEX
  8
LVL0000
 10
      183.914071
 20
       51.455717
 70
 16
  0
VERTEX
  8
LVL0000
 10
      183.526727
 20
       50.945972
 70
 16
  0
VERTEX
  8
LVL0000
 10
      184.978248
 20
       52.397493
 70
  8
  0
VERTEX
  8
LVL0000
 10
      184.844311
 20
       52.190241
 70
  8
  0
VERTEX
  8
LVL0000
 10
      184.677414
 20
       51.998767
 70
  8
  0
VERTEX
  8
LVL0000
 10
      184.487251
 20
       51.818869
 70
  8
  0
VERTEX
  8
LVL0000
 10
      184.283516
 20
       51.646346
 70
  8
  0
VERTEX
  8
LVL0000
 10
      184.075902
 20
       51.476996
 70
  8
  0
VERTEX
  8
LVL0000
 10
      183.874103
 20
       51.306618
 70
  8
  0
VERTEX
  8
LVL0000
 10
      183.687814
 20
       51.131010
 70
  8
  0
VERTEX
  8
LVL0000
 10
      183.526727
 20
       50.945972
 70
  8
  0
SEQEND
  0
POLYLINE
  8
LVL0000
 66
1
 70
4
 75
6
  0
VERTEX
  8
LVL0000
 10
      183.526727
 20
       50.945972
 70
 16
  0
VERTEX
  8
LVL0000
 10
      182.837957
 20
       50.039550
 70
 16
  0
VERTEX
  8
LVL0000
 10
      183.326156
 20
       48.673343
 70
 16
  0
VERTEX
  8
LVL0000
 10
      183.814356
 20
       47.307136
 70
 16
  0
VERTEX
  8
LVL0000
 10
      183.526727
 20
       50.945972
 70
  8
  0
VERTEX
  8
LVL0000
 10
      183.321310
 20
       50.585409
 70
  8
  0
VERTEX
  8
LVL0000
 10
      183.212441
 20
       50.187130
 70
  8
  0
VERTEX
  8
LVL0000
 10
      183.186328
 20
       49.756522
 70
  8
  0
VERTEX
  8
LVL0000
 10
      183.229178
 20
       49.298973
 70
  8
  0
VERTEX
  8
LVL0000
 10
      183.327198
 20
       48.819872
 70
  8
  0
VERTEX
  8
LVL0000
 10
      183.466596
 20
       48.324607
 70
  8
  0
VERTEX
  8
LVL0000
 10
      183.633580
 20
       47.818565
 70
  8
  0
VERTEX
  8
LVL0000
 10
      183.814356
 20
       47.307136
 70
  8
  0
SEQEND
  0
ENDBLK
  0
BLOCK
  8
0
  2
BLK0008
 70
    64
 10
        0.000000
 20
        0.000000
  0
POLYLINE
  8
LVL0000
 66
1
 70
4
 75
6
  0
VERTEX
  8
LVL0000
 10
      181.961514
 20
       56.765434
 70
 16
  0
VERTEX
  8
LVL0000
 10
      182.346288
 20
       55.985046
 70
 16
  0
VERTEX
  8
LVL0000
 10
      182.731062
 20
       55.204659
 70
 16
  0
VERTEX
  8
LVL0000
 10
      182.978248
 20
       54.290490
 70
 16
  0
VERTEX
  8
LVL0000
 10
      181.961514
 20
       56.765434
 70
  8
  0
VERTEX
  8
LVL0000
 10
      182.105536
 20
       56.472527
 70
  8
  0
VERTEX
  8
LVL0000
 10
      182.247945
 20
       56.178053
 70
  8
  0
VERTEX
  8
LVL0000
 10
      182.387129
 20
       55.880443
 70
  8
  0
VERTEX
  8
LVL0000
 10
      182.521477
 20
       55.578130
 70
  8
  0
VERTEX
  8
LVL0000
 10
      182.649374
 20
       55.269546
 70
  8
  0
VERTEX
  8
LVL0000
 10
      182.769211
 20
       54.953123
 70
  8
  0
VERTEX
  8
LVL0000
 10
      182.879373
 20
       54.627294
 70
  8
  0
VERTEX
  8
LVL0000
 10
      182.978248
 20
       54.290490
 70
  8
  0
SEQEND
  0
POLYLINE
  8
LVL0000
 66
1
 70
4
 75
6
  0
VERTEX
  8
LVL0000
 10
      182.978248
 20
       54.290490
 70
 16
  0
VERTEX
  8
LVL0000
 10
      183.153130
 20
       53.643724
 70
 16
  0
VERTEX
  8
LVL0000
 10
      183.259143
 20
       52.929994
 70
 16
  0
VERTEX
  8
LVL0000
 10
      182.978248
 20
       52.397493
 70
 16
  0
VERTEX
  8
LVL0000
 10
      182.978248
 20
       54.290490
 70
  8
  0
VERTEX
  8
LVL0000
 10
      183.039979
 20
       54.045299
 70
  8
  0
VERTEX
  8
LVL0000
 10
      183.091527
 20
       53.796738
 70
  8
  0
VERTEX
  8
LVL0000
 10
      183.129165
 20
       53.547716
 70
  8
  0
VERTEX
  8
LVL0000
 10
      183.149164
 20
       53.301142
 70
  8
  0
VERTEX
  8
LVL0000
 10
      183.147800
 20
       53.059924
 70
  8
  0
VERTEX
  8
LVL0000
 10
      183.121344
 20
       52.826971
 70
  8
  0
VERTEX
  8
LVL0000
 10
      183.066069
 20
       52.605191
 70
  8
  0
VERTEX
  8
LVL0000
 10
      182.978248
 20
       52.397493
 70
  8
  0
SEQEND
  0
POLYLINE
  8
LVL0000
 66
1
 70
4
 75
6
  0
VERTEX
  8
LVL0000
 10
      182.978248
 20
       52.397493
 70
 16
  0
VERTEX
  8
LVL0000
 10
      182.673646
 20
       51.820050
 70
 16
  0
VERTEX
  8
LVL0000
 10
      181.914071
 20
       51.455717
 70
 16
  0
VERTEX
  8
LVL0000
 10
      181.526727
 20
       50.945972
 70
 16
  0
VERTEX
  8
LVL0000
 10
      182.978248
 20
       52.397493
 70
  8
  0
VERTEX
  8
LVL0000
 10
      182.844311
 20
       52.190241
 70
  8
  0
VERTEX
  8
LVL0000
 10
      182.677414
 20
       51.998767
 70
  8
  0
VERTEX
  8
LVL0000
 10
      182.487251
 20
       51.818869
 70
  8
  0
VERTEX
  8
LVL0000
 10
      182.283516
 20
       51.646346
 70
  8
  0
VERTEX
  8
LVL0000
 10
      182.075902
 20
       51.476996
 70
  8
  0
VERTEX
  8
LVL0000
 10
      181.874103
 20
       51.306618
 70
  8
  0
VERTEX
  8
LVL0000
 10
      181.687814
 20
       51.131010
 70
  8
  0
VERTEX
  8
LVL0000
 10
      181.526727
 20
       50.945972
 70
  8
  0
SEQEND
  0
POLYLINE
  8
LVL0000
 66
1
 70
4
 75
6
  0
VERTEX
  8
LVL0000
 10
      181.526727
 20
       50.945972
 70
 16
  0
VERTEX
  8
LVL0000
 10
      180.837957
 20
       50.039550
 70
 16
  0
VERTEX
  8
LVL0000
 10
      181.326156
 20
       48.673343
 70
 16
  0
VERTEX
  8
LVL0000
 10
      181.814356
 20
       47.307136
 70
 16
  0
VERTEX
  8
LVL0000
 10
      181.526727
 20
       50.945972
 70
  8
  0
VERTEX
  8
LVL0000
 10
      181.321310
 20
       50.585409
 70
  8
  0
VERTEX
  8
LVL0000
 10
      181.212441
 20
       50.187130
 70
  8
  0
VERTEX
  8
LVL0000
 10
      181.186328
 20
       49.756522
 70
  8
  0
VERTEX
  8
LVL0000
 10
      181.229178
 20
       49.298973
 70
  8
  0
VERTEX
  8
LVL0000
 10
      181.327198
 20
       48.819872
 70
  8
  0
VERTEX
  8
LVL0000
 10
      181.466596
 20
       48.324607
 70
  8
  0
VERTEX
  8
LVL0000
 10
      181.633580
 20
       47.818565
 70
  8
  0
VERTEX
  8
LVL0000
 10
      181.814356
 20
       47.307136
 70
  8
  0
SEQEND
  0
ENDBLK
  0
BLOCK
  8
0
  2
BLK0009
 70
    64
 10
        0.000000
 20
        0.000000
  0
TEXT
  8
LVL0000
 62
  4
 10
      161.852448
 20
       70.291855
 30
        0.000000
 40
        3.500000
  1
ＩＶＲ１００ＫＢ＝３０ｍ
 50
        0.000000
 41
        0.835000
 51
        0.000000
  7
BIGFONT
  0
LINE
  8
LVL0000
 62
  4
 10
      243.394806
 20
       57.207802
 30
        0.000000
 11
      243.394806
 21
       70.291855
 31
        0.000000
  0
LINE
  8
LVL0000
 62
  4
 10
      123.475586
 20
       57.207802
 30
        0.000000
 11
      123.475586
 21
       70.291855
 31
        0.000000
  0
LINE
  8
LVL0000
 62
  4
 10
      239.894806
 20
       69.042076
 30
        0.000000
 11
      243.394806
 21
       69.591858
 31
        0.000000
  0
LINE
  8
LVL0000
 62
  4
 10
      243.394806
 20
       69.591858
 30
        0.000000
 11
      239.894806
 21
       70.141640
 31
        0.000000
  0
LINE
  8
LVL0000
 62
  4
 10
      126.975586
 20
       70.141640
 30
        0.000000
 11
      123.475586
 21
       69.591858
 31
        0.000000
  0
LINE
  8
LVL0000
 62
  4
 10
      123.475586
 20
       69.591858
 30
        0.000000
 11
      126.975586
 21
       69.042076
 31
        0.000000
  0
LINE
  8
LVL0000
 62
  4
 10
      243.394806
 20
       69.591858
 30
        0.000000
 11
      123.475586
 21
       69.591858
 31
        0.000000
  0
ENDBLK
  0
BLOCK
  8
0
  2
BLK0010
 70
    64
 10
        0.000000
 20
        0.000000
  0
TEXT
  8
LVL0000
 62
  4
 10
       -3.142507
 20
      -23.388792
 30
        0.000000
 40
        3.500000
  1
３０
 50
        0.000000
 41
        0.835000
 51
        0.000000
  7
BIGFONT
  0
LINE
  8
LVL0000
 62
  4
 10
      -15.000000
 20
      -15.000000
 30
        0.000000
 11
      -15.000000
 21
      -24.788792
 31
        0.000000
  0
LINE
  8
LVL0000
 62
  4
 10
       15.000000
 20
      -15.000000
 30
        0.000000
 11
       15.000000
 21
      -24.788792
 31
        0.000000
  0
LINE
  8
LVL0000
 62
  4
 10
      -11.500000
 20
      -23.539013
 30
        0.000000
 11
      -15.000000
 21
      -24.088791
 31
        0.000000
  0
LINE
  8
LVL0000
 62
  4
 10
      -15.000000
 20
      -24.088791
 30
        0.000000
 11
      -11.500000
 21
      -24.638569
 31
        0.000000
  0
LINE
  8
LVL0000
 62
  4
 10
       11.500000
 20
      -24.638569
 30
        0.000000
 11
       15.000000
 21
      -24.088791
 31
        0.000000
  0
LINE
  8
LVL0000
 62
  4
 10
       15.000000
 20
      -24.088791
 30
        0.000000
 11
       11.500000
 21
      -23.539013
 31
        0.000000
  0
LINE
  8
LVL0000
 62
  4
 10
      -15.000000
 20
      -24.088791
 30
        0.000000
 11
       15.000000
 21
      -24.088791
 31
        0.000000
  0
ENDBLK
  0
BLOCK
  8
0
  2
BLK0011
 70
    64
 10
        0.000000
 20
        0.000000
  0
TEXT
  8
LVL0000
 62
  4
 10
      -22.586746
 20
       -3.299031
 30
        0.000000
 40
        3.500000
  1
３０
 50
       90.000000
 41
        0.835000
 51
        0.000000
  7
BIGFONT
  0
LINE
  8
LVL0000
 62
  4
 10
      -15.000000
 20
      -15.000000
 30
        0.000000
 11
      -22.586746
 21
      -15.000000
 31
        0.000000
  0
LINE
  8
LVL0000
 62
  4
 10
      -15.000000
 20
       15.000000
 30
        0.000000
 11
      -22.586746
 21
       15.000000
 31
        0.000000
  0
LINE
  8
LVL0000
 62
  4
 10
      -22.436523
 20
      -11.500000
 30
        0.000000
 11
      -21.886745
 21
      -15.000000
 31
        0.000000
  0
LINE
  8
LVL0000
 62
  4
 10
      -21.886745
 20
      -15.000000
 30
        0.000000
 11
      -21.336967
 21
      -11.500000
 31
        0.000000
  0
LINE
  8
LVL0000
 62
  4
 10
      -21.336967
 20
       11.500000
 30
        0.000000
 11
      -21.886745
 21
       15.000000
 31
        0.000000
  0
LINE
  8
LVL0000
 62
  4
 10
      -21.886745
 20
       15.000000
 30
        0.000000
 11
      -22.436523
 21
       11.500000
 31
        0.000000
  0
LINE
  8
LVL0000
 62
  4
 10
      -21.886745
 20
      -15.000000
 30
        0.000000
 11
      -21.886745
 21
       15.000000
 31
        0.000000
  0
ENDBLK
  0
ENDSEC
  0
SECTION
  2
ENTITIES
  0
LINE
  8
LVL0000
 10
       87.000000
 20
     -308.159435
 30
        0.000000
 11
       87.000000
 21
     -322.859435
 31
        0.000000
  0
LINE
  8
LVL0000
 10
       86.000000
 20
     -309.359435
 30
        0.000000
 11
       86.000000
 21
     -322.859435
 31
        0.000000
  0
LINE
  8
LVL0000
 10
       87.000000
 20
     -309.359435
 30
        0.000000
 11
       86.000000
 21
     -309.359435
 31
        0.000000
  0
LINE
  8
LVL0000
 10
       86.000000
 20
     -336.359435
 30
        0.000000
 11
       86.000000
 21
     -322.859435
 31
        0.000000
  0
LINE
  8
LVL0000
 10
       87.000000
 20
     -337.559435
 30
        0.000000
 11
       87.000000
 21
     -322.859435
 31
        0.000000
  0
LINE
  8
LVL0000
 10
       87.000000
 20
     -336.359435
 30
        0.000000
 11
       86.000000
 21
     -336.359435
 31
        0.000000
  0
LINE
  8
LVL0000
 10
       91.000000
 20
     -308.159435
 30
        0.000000
 11
       87.000000
 21
     -308.159435
 31
        0.000000
  0
ARC
  8
LVL0000
 10
       91.300000
 20
     -337.277351
 30
        0.000000
 40
        0.300000
 50
      179.999995
 51
      269.000003
  0
LINE
  8
LVL0000
 10
       96.000000
 20
     -337.659435
 30
        0.000000
 11
       91.294764
 21
     -337.577305
 31
        0.000000
  0
LINE
  8
LVL0000
 10
       91.000000
 20
     -308.441520
 30
        0.000000
 11
       91.000000
 21
     -337.277351
 31
        0.000000
  0
ARC
  8
LVL0000
 10
       91.300000
 20
     -308.441520
 30
        0.000000
 40
        0.300000
 50
       90.999997
 51
      179.999995
  0
LINE
  8
LVL0000
 10
       96.101333
 20
     -308.057667
 30
        0.000000
 11
       91.294764
 21
     -308.141566
 31
        0.000000
  0
LINE
  8
LVL0000
 10
       91.000000
 20
     -337.559435
 30
        0.000000
 11
       87.000000
 21
     -337.559435
 31
        0.000000
  0
LINE
  8
LVL0000
 10
       87.000000
 20
     -208.159435
 30
        0.000000
 11
       87.000000
 21
     -222.859435
 31
        0.000000
  0
LINE
  8
LVL0000
 10
       86.000000
 20
     -209.359435
 30
        0.000000
 11
       86.000000
 21
     -222.859435
 31
        0.000000
  0
LINE
  8
LVL0000
 10
       87.000000
 20
     -209.359435
 30
        0.000000
 11
       86.000000
 21
     -209.359435
 31
        0.000000
  0
LINE
  8
LVL0000
 10
       86.000000
 20
     -236.359435
 30
        0.000000
 11
       86.000000
 21
     -222.859435
 31
        0.000000
  0
LINE
  8
LVL0000
 10
       87.000000
 20
     -237.559435
 30
        0.000000
 11
       87.000000
 21
     -222.859435
 31
        0.000000
  0
LINE
  8
LVL0000
 10
       87.000000
 20
     -236.359435
 30
        0.000000
 11
       86.000000
 21
     -236.359435
 31
        0.000000
  0
LINE
  8
LVL0000
 10
       91.000000
 20
     -208.159435
 30
        0.000000
 11
       87.000000
 21
     -208.159435
 31
        0.000000
  0
ARC
  8
LVL0000
 10
       91.300000
 20
     -237.277351
 30
        0.000000
 40
        0.300000
 50
      179.999995
 51
      269.000003
  0
LINE
  8
LVL0000
 10
       96.000000
 20
     -237.659435
 30
        0.000000
 11
       91.294764
 21
     -237.577305
 31
        0.000000
  0
LINE
  8
LVL0000
 10
       91.000000
 20
     -208.441520
 30
        0.000000
 11
       91.000000
 21
     -237.277351
 31
        0.000000
  0
ARC
  8
LVL0000
 10
       91.300000
 20
     -208.441520
 30
        0.000000
 40
        0.300000
 50
       90.999997
 51
      179.999995
  0
LINE
  8
LVL0000
 10
       96.101333
 20
     -208.057667
 30
        0.000000
 11
       91.294764
 21
     -208.141566
 31
        0.000000
  0
LINE
  8
LVL0000
 10
       91.000000
 20
     -237.559435
 30
        0.000000
 11
       87.000000
 21
     -237.559435
 31
        0.000000
  0
LINE
  8
LVL0000
 10
      -14.417915
 20
      -40.559826
 30
        0.000000
 11
        0.000000
 21
      -40.559826
 31
        0.000000
  0
LINE
  8
LVL0000
 10
      -14.700000
 20
      -40.559826
 30
        0.000000
 11
      -14.700000
 21
      -36.559826
 31
        0.000000
  0
LINE
  8
LVL0000
 10
      -14.800000
 20
      -45.559826
 30
        0.000000
 11
      -14.717870
 21
      -40.854590
 31
        0.000000
  0
ARC
  8
LVL0000
 10
      -14.417915
 20
      -40.859826
 30
        0.000000
 40
        0.300000
 50
       90.000000
 51
      178.999995
  0
LINE
  8
LVL0000
 10
      -14.800000
 20
      -45.559826
 30
        0.000000
 11
      -15.000000
 21
      -45.559826
 31
        0.000000
  0
LINE
  8
LVL0000
 10
        0.000000
 20
      -45.559826
 30
        0.000000
 11
      -14.800000
 21
      -45.559826
 31
        0.000000
  0
LINE
  8
LVL0000
 10
        0.000000
 20
      -45.559826
 30
        0.000000
 11
       14.800000
 21
      -45.559826
 31
        0.000000
  0
LINE
  8
LVL0000
 10
       14.800000
 20
      -45.559826
 30
        0.000000
 11
       15.000000
 21
      -45.559826
 31
        0.000000
  0
ARC
  8
LVL0000
 10
       14.417915
 20
      -40.859826
 30
        0.000000
 40
        0.300000
 50
        1.000000
 51
       90.000000
  0
LINE
  8
LVL0000
 10
       14.800000
 20
      -45.559826
 30
        0.000000
 11
       14.717870
 21
      -40.854590
 31
        0.000000
  0
LINE
  8
LVL0000
 10
       14.700000
 20
      -40.559826
 30
        0.000000
 11
       14.700000
 21
      -36.559826
 31
        0.000000
  0
LINE
  8
LVL0000
 10
       14.417915
 20
      -40.559826
 30
        0.000000
 11
        0.000000
 21
      -40.559826
 31
        0.000000
  0
LINE
  8
LVL0000
 10
      -13.500000
 20
      -35.559826
 30
        0.000000
 11
        0.000000
 21
      -35.559826
 31
        0.000000
  0
LINE
  8
LVL0000
 10
      -14.700000
 20
      -36.559826
 30
        0.000000
 11
        0.000000
 21
      -36.559826
 31
        0.000000
  0
LINE
  8
LVL0000
 10
      -13.500000
 20
      -36.559826
 30
        0.000000
 11
      -13.500000
 21
      -35.559826
 31
        0.000000
  0
LINE
  8
LVL0000
 10
       13.500000
 20
      -36.559826
 30
        0.000000
 11
       13.500000
 21
      -35.559826
 31
        0.000000
  0
LINE
  8
LVL0000
 10
       14.700000
 20
      -36.559826
 30
        0.000000
 11
        0.000000
 21
      -36.559826
 31
        0.000000
  0
LINE
  8
LVL0000
 10
       13.500000
 20
      -35.559826
 30
        0.000000
 11
        0.000000
 21
      -35.559826
 31
        0.000000
  0
LINE
  8
LVL0000
 10
       15.000000
 20
      -91.559826
 30
        0.000000
 11
       15.000000
 21
      -45.559826
 31
        0.000000
  0
LINE
  8
LVL0000
 10
      -15.000000
 20
      -91.559826
 30
        0.000000
 11
      -15.000000
 21
      -45.559826
 31
        0.000000
  0
DIMENSION
  8
LVL0000
 62
  4
  2
BLK0001
 10
       34.255585
 20
      -24.307024
 11
       53.230297
 21
      -23.607025
 13
       34.255585
 23
      -13.500000
 14
       90.755585
 24
      -14.500000
 50
        0.0
 70
  0
  0
LINE
  8
LVL0000
 10
       90.255583
 20
       37.107803
 30
        0.000000
 11
       44.255583
 21
       37.107803
 31
        0.000000
  0
CIRCLE
  8
LVL0000
 10
       48.755583
 20
       10.000000
 30
        0.000000
 40
        1.500000
  0
CIRCLE
  8
LVL0000
 10
       48.755583
 20
       10.000000
 30
        0.000000
 40
        1.200000
  0
LINE
  8
LVL0000
 10
       51.155583
 20
       15.000000
 30
        0.000000
 11
       44.755583
 21
       15.000000
 31
        0.000000
  0
ARC
  8
LVL0000
 10
       44.755583
 20
      -14.500000
 30
        0.000000
 40
        0.500000
 50
      179.999995
 51
      270.000000
  0
CIRCLE
  8
LVL0000
 10
       48.755583
 20
      -10.000000
 30
        0.000000
 40
        1.500000
  0
CIRCLE
  8
LVL0000
 10
       48.755583
 20
      -10.000000
 30
        0.000000
 40
        1.200000
  0
LINE
  8
LVL0000
 10
       90.255583
 20
       67.107803
 30
        0.000000
 11
       44.255583
 21
       67.107803
 31
        0.000000
  0
LINE
  8
LVL0000
 10
       34.255583
 20
       65.607803
 30
        0.000000
 11
       34.255583
 21
       52.107803
 31
        0.000000
  0
LINE
  8
LVL0000
 10
       35.255583
 20
       65.607803
 30
        0.000000
 11
       34.255583
 21
       65.607803
 31
        0.000000
  0
LINE
  8
LVL0000
 10
       34.255583
 20
       38.607803
 30
        0.000000
 11
       34.255583
 21
       52.107803
 31
        0.000000
  0
LINE
  8
LVL0000
 10
       39.255583
 20
       66.807803
 30
        0.000000
 11
       35.255583
 21
       66.807803
 31
        0.000000
  0
LINE
  8
LVL0000
 10
       44.255583
 20
       66.907803
 30
        0.000000
 11
       39.550348
 21
       66.825673
 31
        0.000000
  0
ARC
  8
LVL0000
 10
       39.555583
 20
       66.525719
 30
        0.000000
 40
        0.300000
 50
       90.999997
 51
      179.999995
  0
LINE
  8
LVL0000
 10
       44.255583
 20
       66.907803
 30
        0.000000
 11
       44.255583
 21
       67.107803
 31
        0.000000
  0
LINE
  8
LVL0000
 10
       44.255583
 20
       37.307803
 30
        0.000000
 11
       44.255583
 21
       37.107803
 31
        0.000000
  0
ARC
  8
LVL0000
 10
       39.555583
 20
       37.689888
 30
        0.000000
 40
        0.300000
 50
      179.999995
 51
      269.000003
  0
LINE
  8
LVL0000
 10
       44.255583
 20
       37.307803
 30
        0.000000
 11
       39.550348
 21
       37.389934
 31
        0.000000
  0
LINE
  8
LVL0000
 10
       39.255583
 20
       37.407803
 30
        0.000000
 11
       35.255583
 21
       37.407803
 31
        0.000000
  0
LINE
  8
LVL0000
 10
       90.255583
 20
      -15.000000
 30
        0.000000
 11
       44.755583
 21
      -15.000000
 31
        0.000000
  0
LINE
  8
LVL0000
 10
       35.255583
 20
       14.700000
 30
        0.000000
 11
       35.255583
 21
        0.000000
 31
        0.000000
  0
LINE
  8
LVL0000
 10
       34.255583
 20
       13.500000
 30
        0.000000
 11
       34.255583
 21
        0.000000
 31
        0.000000
  0
LINE
  8
LVL0000
 10
       35.255583
 20
       13.500000
 30
        0.000000
 11
       34.255583
 21
       13.500000
 31
        0.000000
  0
LINE
  8
LVL0000
 10
       34.255583
 20
      -13.500000
 30
        0.000000
 11
       34.255583
 21
        0.000000
 31
        0.000000
  0
LINE
  8
LVL0000
 10
       35.255583
 20
      -14.700000
 30
        0.000000
 11
       35.255583
 21
        0.000000
 31
        0.000000
  0
LINE
  8
LVL0000
 10
       35.255583
 20
      -13.500000
 30
        0.000000
 11
       34.255583
 21
      -13.500000
 31
        0.000000
  0
LINE
  8
LVL0000
 10
       39.255583
 20
       14.700000
 30
        0.000000
 11
       35.255583
 21
       14.700000
 31
        0.000000
  0
ARC
  8
LVL0000
 10
       44.755583
 20
       14.500000
 30
        0.000000
 40
        0.500000
 50
       90.000000
 51
      179.999995
  0
ARC
  8
LVL0000
 10
       39.555583
 20
      -14.417915
 30
        0.000000
 40
        0.300000
 50
      179.999995
 51
      269.000003
  0
LINE
  8
LVL0000
 10
       44.255583
 20
      -14.800000
 30
        0.000000
 11
       39.550348
 21
      -14.717870
 31
        0.000000
  0
LINE
  8
LVL0000
 10
       39.255583
 20
       14.417915
 30
        0.000000
 11
       39.255583
 21
      -14.417915
 31
        0.000000
  0
ARC
  8
LVL0000
 10
       39.555583
 20
       14.417915
 30
        0.000000
 40
        0.300000
 50
       90.999997
 51
      179.999995
  0
LINE
  8
LVL0000
 10
       44.356916
 20
       14.801769
 30
        0.000000
 11
       39.550348
 21
       14.717870
 31
        0.000000
  0
LINE
  8
LVL0000
 10
       44.255583
 20
        0.000000
 30
        0.000000
 11
       44.255583
 21
       14.500000
 31
        0.000000
  0
LINE
  8
LVL0000
 10
       39.255583
 20
      -14.700000
 30
        0.000000
 11
       35.255583
 21
      -14.700000
 31
        0.000000
  0
LINE
  8
LVL0000
 10
       44.255583
 20
        0.000000
 30
        0.000000
 11
       44.255583
 21
      -14.500000
 31
        0.000000
  0
LINE
  8
LVL0000
 10
       39.255583
 20
       37.689888
 30
        0.000000
 11
       39.255583
 21
       52.107803
 31
        0.000000
  0
LINE
  8
LVL0000
 10
       44.255583
 20
       52.107803
 30
        0.000000
 11
       44.255583
 21
       37.307803
 31
        0.000000
  0
LINE
  8
LVL0000
 10
       44.255583
 20
       52.107803
 30
        0.000000
 11
       44.255583
 21
       66.907803
 31
        0.000000
  0
LINE
  8
LVL0000
 10
       39.255583
 20
       66.525719
 30
        0.000000
 11
       39.255583
 21
       52.107803
 31
        0.000000
  0
LINE
  8
LVL0000
 10
       35.255583
 20
       37.407803
 30
        0.000000
 11
       35.255583
 21
       52.107803
 31
        0.000000
  0
LINE
  8
LVL0000
 10
       35.255583
 20
       38.607803
 30
        0.000000
 11
       34.255583
 21
       38.607803
 31
        0.000000
  0
LINE
  8
LVL0000
 10
       35.255583
 20
       66.807803
 30
        0.000000
 11
       35.255583
 21
       52.107803
 31
        0.000000
  0
CIRCLE
  8
LVL0000
 10
       48.755583
 20
       62.107803
 30
        0.000000
 40
        1.200000
  0
CIRCLE
  8
LVL0000
 10
       48.755583
 20
       62.107803
 30
        0.000000
 40
        1.500000
  0
CIRCLE
  8
LVL0000
 10
       48.755583
 20
       42.107803
 30
        0.000000
 40
        1.200000
  0
CIRCLE
  8
LVL0000
 10
       48.755583
 20
       42.107803
 30
        0.000000
 40
        1.500000
  0
LINE
  8
LVL0000
 10
      143.000000
 20
     -231.709435
 30
        0.000000
 11
      142.500000
 21
     -231.709435
 31
        0.000000
  0
LINE
  8
LVL0000
 10
      143.000000
 20
     -228.209435
 30
        0.000000
 11
      142.500000
 21
     -228.209435
 31
        0.000000
  0
ARC
  8
LVL0000
 10
      142.000000
 20
     -237.359435
 30
        0.000000
 40
        0.500000
 50
      270.000000
 51
      360.000000
  0
LINE
  8
LVL0000
 10
      142.500000
 20
     -235.759435
 30
        0.000000
 11
      103.500000
 21
     -235.759435
 31
        0.000000
  0
LINE
  8
LVL0000
 10
      142.500000
 20
     -235.859435
 30
        0.000000
 11
      103.400000
 21
     -235.859435
 31
        0.000000
  0
LINE
  8
LVL0000
 10
      142.500000
 20
     -237.359435
 30
        0.000000
 11
      142.500000
 21
     -208.559435
 31
        0.000000
  0
ARC
  8
LVL0000
 10
      141.900000
 20
     -208.559435
 30
        0.000000
 40
        0.600000
 50
        0.000000
 51
       90.000000
  0
LINE
  8
LVL0000
 10
      144.220000
 20
     -214.544435
 30
        0.000000
 11
      142.500000
 21
     -214.544435
 31
        0.000000
  0
LINE
  8
LVL0000
 10
      144.220000
 20
     -231.174435
 30
        0.000000
 11
      143.000000
 21
     -231.174435
 31
        0.000000
  0
LINE
  8
LVL0000
 10
      143.000000
 20
     -231.709435
 30
        0.000000
 11
      143.000000
 21
     -228.209435
 31
        0.000000
  0
LINE
  8
LVL0000
 10
      142.000000
 20
     -237.859435
 30
        0.000000
 11
       96.500000
 21
     -237.859435
 31
        0.000000
  0
LINE
  8
LVL0000
 10
      141.900000
 20
     -207.959435
 30
        0.000000
 11
      103.000000
 21
     -207.959435
 31
        0.000000
  0
LINE
  8
LVL0000
 10
      144.220000
 20
     -214.544435
 30
        0.000000
 11
      144.220000
 21
     -231.174435
 31
        0.000000
  0
LINE
  8
LVL0000
 10
      144.220000
 20
     -331.174435
 30
        0.000000
 11
      143.000000
 21
     -331.174435
 31
        0.000000
  0
LINE
  8
LVL0000
 10
      143.000000
 20
     -331.709435
 30
        0.000000
 11
      142.500000
 21
     -331.709435
 31
        0.000000
  0
LINE
  8
LVL0000
 10
      143.000000
 20
     -328.209435
 30
        0.000000
 11
      142.500000
 21
     -328.209435
 31
        0.000000
  0
LINE
  8
LVL0000
 10
      143.000000
 20
     -331.709435
 30
        0.000000
 11
      143.000000
 21
     -328.209435
 31
        0.000000
  0
ARC
  8
LVL0000
 10
      142.000000
 20
     -337.359435
 30
        0.000000
 40
        0.500000
 50
      270.000000
 51
      360.000000
  0
LINE
  8
LVL0000
 10
      142.000000
 20
     -337.859435
 30
        0.000000
 11
       96.500000
 21
     -337.859435
 31
        0.000000
  0
LINE
  8
LVL0000
 10
      142.500000
 20
     -335.759435
 30
        0.000000
 11
      103.500000
 21
     -335.759435
 31
        0.000000
  0
LINE
  8
LVL0000
 10
      142.500000
 20
     -335.859435
 30
        0.000000
 11
      103.400000
 21
     -335.859435
 31
        0.000000
  0
LINE
  8
LVL0000
 10
      142.500000
 20
     -337.359435
 30
        0.000000
 11
      142.500000
 21
     -308.559435
 31
        0.000000
  0
LINE
  8
LVL0000
 10
      141.900000
 20
     -307.959435
 30
        0.000000
 11
      103.000000
 21
     -307.959435
 31
        0.000000
  0
ARC
  8
LVL0000
 10
      141.900000
 20
     -308.559435
 30
        0.000000
 40
        0.600000
 50
        0.000000
 51
       90.000000
  0
LINE
  8
LVL0000
 10
      144.220000
 20
     -314.544435
 30
        0.000000
 11
      144.220000
 21
     -331.174435
 31
        0.000000
  0
LINE
  8
LVL0000
 10
      144.220000
 20
     -314.544435
 30
        0.000000
 11
      142.500000
 21
     -314.544435
 31
        0.000000
  0
TEXT
  8
LVL0000
 62
  2
 10
      235.515404
 20
     -225.085065
 30
        0.000000
 40
        4.000000
  1
ＡＮＧＬＥ
 50
        0.000000
 41
        0.835000
 51
        0.000000
  7
BIGFONT
  0
LINE
  8
LVL0001
 10
      330.224382
 20
     -234.529651
 30
        0.000000
 11
      330.224382
 21
     -210.529651
 31
        0.000000
  0
LINE
  8
LVL0001
 10
      328.224382
 20
     -236.529651
 30
        0.000000
 11
      291.224382
 21
     -236.529651
 31
        0.000000
  0
ARC
  8
LVL0001
 10
      328.224382
 20
     -234.529651
 30
        0.000000
 40
        2.000000
 50
      270.000000
 51
      360.000000
  0
DIMENSION
  8
LVL0000
 62
  4
  2
BLK0002
 10
      279.006165
 20
     -236.529648
 11
      278.306152
 21
     -225.085068
 13
      291.224396
 23
     -236.529648
 14
      291.224396
 24
     -208.529648
 50
       90.0
 70
  0
  0
LINE
  8
LVL0001
 10
      291.224382
 20
     -236.529651
 30
        0.000000
 11
      291.224382
 21
     -208.529651
 31
        0.000000
  0
LINE
  8
LVL0001
 10
      328.224382
 20
     -208.529651
 30
        0.000000
 11
      291.224382
 21
     -208.529651
 31
        0.000000
  0
ARC
  8
LVL0001
 10
      328.224382
 20
     -210.529651
 30
        0.000000
 40
        2.000000
 50
        0.000000
 51
       90.000000
  0
ARC
  8
LVL0001
 10
      326.072459
 20
     -212.293169
 30
        0.000000
 40
        1.600000
 50
       10.000000
 51
      190.000005
  0
ARC
  8
LVL0001
 10
      326.072459
 20
     -215.766133
 30
        0.000000
 40
        1.600000
 50
      169.999995
 51
      350.000000
  0
ARC
  8
LVL0001
 10
      306.376304
 20
     -212.293169
 30
        0.000000
 40
        1.600000
 50
      350.000000
 51
      529.999995
  0
ARC
  8
LVL0001
 10
      306.376304
 20
     -215.766133
 30
        0.000000
 40
        1.600000
 50
      190.000005
 51
      370.000000
  0
ARC
  8
LVL0001
 10
      316.224382
 20
     -214.029651
 30
        0.000000
 40
        8.400000
 50
      350.000000
 51
      370.000000
  0
ARC
  8
LVL0001
 10
      316.224382
 20
     -214.029651
 30
        0.000000
 40
       11.600000
 50
      350.000000
 51
      370.000000
  0
ARC
  8
LVL0001
 10
      316.224382
 20
     -214.029651
 30
        0.000000
 40
       11.600000
 50
      169.999995
 51
      190.000005
  0
ARC
  8
LVL0001
 10
      316.224382
 20
     -214.029651
 30
        0.000000
 40
        8.400000
 50
      169.999995
 51
      190.000005
  0
ARC
  8
LVL0001
 10
      316.224382
 20
     -231.029651
 30
        0.000000
 40
        8.400000
 50
      169.999995
 51
      190.000005
  0
ARC
  8
LVL0001
 10
      316.224382
 20
     -231.029651
 30
        0.000000
 40
       11.600000
 50
      169.999995
 51
      190.000005
  0
ARC
  8
LVL0001
 10
      316.224382
 20
     -231.029651
 30
        0.000000
 40
       11.600000
 50
      350.000000
 51
      370.000000
  0
ARC
  8
LVL0001
 10
      316.224382
 20
     -231.029651
 30
        0.000000
 40
        8.400000
 50
      350.000000
 51
      370.000000
  0
ARC
  8
LVL0001
 10
      306.376304
 20
     -229.293169
 30
        0.000000
 40
        1.600000
 50
      350.000000
 51
      529.999995
  0
ARC
  8
LVL0001
 10
      306.376304
 20
     -232.766133
 30
        0.000000
 40
        1.600000
 50
      190.000005
 51
      370.000000
  0
ARC
  8
LVL0001
 10
      326.072459
 20
     -229.293169
 30
        0.000000
 40
        1.600000
 50
       10.000000
 51
      190.000005
  0
ARC
  8
LVL0001
 10
      326.072459
 20
     -232.766133
 30
        0.000000
 40
        1.600000
 50
      169.999995
 51
      350.000000
  0
LINE
  8
LVL0001
 10
      258.224382
 20
     -287.029621
 30
        0.000000
 11
      234.224382
 21
     -287.029621
 31
        0.000000
  0
ARC
  8
LVL0001
 10
      258.224382
 20
     -285.029621
 30
        0.000000
 40
        2.000000
 50
      270.000000
 51
      360.000000
  0
LINE
  8
LVL0001
 10
      260.224382
 20
     -256.029621
 30
        0.000000
 11
      232.224382
 21
     -256.029621
 31
        0.000000
  0
LINE
  8
LVL0001
 10
      260.224382
 20
     -285.029621
 30
        0.000000
 11
      260.224382
 21
     -256.029621
 31
        0.000000
  0
ARC
  8
LVL0001
 10
      234.224382
 20
     -285.029621
 30
        0.000000
 40
        2.000000
 50
      179.999995
 51
      270.000000
  0
LINE
  8
LVL0001
 10
      232.224382
 20
     -285.029621
 30
        0.000000
 11
      232.224382
 21
     -256.029621
 31
        0.000000
  0
LINE
  8
LVL0001
 10
      293.224382
 20
     -287.029621
 30
        0.000000
 11
      291.224382
 21
     -287.029621
 31
        0.000000
  0
LINE
  8
LVL0001
 10
      330.224382
 20
     -258.029621
 30
        0.000000
 11
      330.224382
 21
     -256.029621
 31
        0.000000
  0
LINE
  8
LVL0001
 10
      294.224382
 20
     -258.029621
 30
        0.000000
 11
      330.224382
 21
     -258.029621
 31
        0.000000
  0
ARC
  8
LVL0001
 10
      294.224382
 20
     -259.029621
 30
        0.000000
 40
        1.000000
 50
       90.000000
 51
      179.999995
  0
LINE
  8
LVL0001
 10
      293.224382
 20
     -287.029621
 30
        0.000000
 11
      293.224382
 21
     -259.029621
 31
        0.000000
  0
CIRCLE
  8
LVL0001
 10
      246.224382
 20
     -273.029651
 30
        0.000000
 40
        3.175000
  0
CIRCLE
  8
LVL0001
 10
      246.224382
 20
     -273.029651
 30
        0.000000
 40
        2.500000
  0
ARC
  8
LVL0001
 10
      254.884636
 20
     -268.029651
 30
        0.000000
 40
        1.600000
 50
       29.999999
 51
      210.000004
  0
ARC
  8
LVL0001
 10
      254.884636
 20
     -278.029651
 30
        0.000000
 40
        1.600000
 50
      149.999996
 51
      330.000001
  0
ARC
  8
LVL0001
 10
      246.224382
 20
     -273.029651
 30
        0.000000
 40
       11.600000
 50
      330.000001
 51
      389.999999
  0
ARC
  8
LVL0001
 10
      246.224382
 20
     -273.029651
 30
        0.000000
 40
        8.400000
 50
      330.000001
 51
      389.999999
  0
ARC
  8
LVL0001
 10
      246.224382
 20
     -273.029651
 30
        0.000000
 40
       11.600000
 50
      149.999996
 51
      210.000004
  0
ARC
  8
LVL0001
 10
      237.564128
 20
     -278.029651
 30
        0.000000
 40
        1.600000
 50
      210.000004
 51
      389.999999
  0
ARC
  8
LVL0001
 10
      246.224382
 20
     -273.029651
 30
        0.000000
 40
        8.400000
 50
      149.999996
 51
      210.000004
  0
ARC
  8
LVL0001
 10
      237.564128
 20
     -268.029651
 30
        0.000000
 40
        1.600000
 50
      330.000001
 51
      509.999996
  0
LINE
  8
LVL0001
 10
      291.224382
 20
     -287.029621
 30
        0.000000
 11
      291.224382
 21
     -259.029621
 31
        0.000000
  0
ARC
  8
LVL0001
 10
      294.224382
 20
     -259.029621
 30
        0.000000
 40
        3.000000
 50
       90.000000
 51
      179.999995
  0
LINE
  8
LVL0001
 10
      294.224382
 20
     -256.029621
 30
        0.000000
 11
      330.224382
 21
     -256.029621
 31
        0.000000
  0
DIMENSION
  8
LVL0000
 62
  4
  2
BLK0003
 10
      330.224396
 20
     -247.546371
 11
      308.476166
 21
     -246.846375
 13
      330.224396
 23
     -256.029633
 14
      291.224396
 24
     -259.029633
 50
        0.0
 70
  0
  0
DIMENSION
  8
LVL0000
 62
  4
  2
BLK0004
 10
      277.756714
 20
     -287.029633
 11
      277.056702
 21
     -274.552673
 13
      291.224396
 23
     -287.029633
 14
      294.224396
 24
     -256.029633
 50
       90.0
 70
  0
  0
LINE
  8
LVL0001
  6
DOT
 10
      293.224382
 20
     -236.529651
 30
        0.000000
 11
      293.224382
 21
     -208.529651
 31
        0.000000
  0
LINE
  8
LVL0001
  6
DOT
 10
      260.224382
 20
     -258.029621
 30
        0.000000
 11
      232.224382
 21
     -258.029621
 31
        0.000000
  0
ARC
  8
LVL0000
 10
       96.500000
 20
     -237.359435
 30
        0.000000
 40
        0.500000
 50
      179.999995
 51
      270.000000
  0
LINE
  8
LVL0000
 10
       96.000000
 20
     -222.859435
 30
        0.000000
 11
       96.000000
 21
     -237.359435
 31
        0.000000
  0
LINE
  8
LVL0000
 10
      102.900000
 20
     -207.859435
 30
        0.000000
 11
       96.500000
 21
     -207.859435
 31
        0.000000
  0
LINE
  8
LVL0000
 10
       96.000000
 20
     -222.859435
 30
        0.000000
 11
       96.000000
 21
     -208.359435
 31
        0.000000
  0
ARC
  8
LVL0000
 10
       96.500000
 20
     -208.359435
 30
        0.000000
 40
        0.500000
 50
       90.000000
 51
      179.999995
  0
LINE
  8
LVL0000
 10
      103.000000
 20
     -207.959435
 30
        0.000000
 11
      103.000000
 21
     -235.259435
 31
        0.000000
  0
ARC
  8
LVL0000
 10
      103.400000
 20
     -235.359435
 30
        0.000000
 40
        0.500000
 50
      179.999995
 51
      270.000000
  0
LINE
  8
LVL0000
 10
      102.900000
 20
     -207.859435
 30
        0.000000
 11
      102.900000
 21
     -235.359435
 31
        0.000000
  0
ARC
  8
LVL0000
 10
      103.500000
 20
     -235.259435
 30
        0.000000
 40
        0.500000
 50
      179.999995
 51
      270.000000
  0
LINE
  8
LVL0000
 10
      105.400000
 20
     -230.459435
 30
        0.000000
 11
      103.000000
 21
     -230.459435
 31
        0.000000
  0
LINE
  8
LVL0000
 10
      105.400000
 20
     -231.359435
 30
        0.000000
 11
      103.000000
 21
     -231.359435
 31
        0.000000
  0
ARC
  8
LVL0000
 10
      105.400000
 20
     -233.359435
 30
        0.000000
 40
        2.000000
 50
        0.000000
 51
       90.000000
  0
ARC
  8
LVL0000
 10
      105.400000
 20
     -233.359435
 30
        0.000000
 40
        2.900000
 50
        0.000000
 51
       90.000000
  0
LINE
  8
LVL0000
 10
      107.400000
 20
     -233.359435
 30
        0.000000
 11
      107.400000
 21
     -235.759435
 31
        0.000000
  0
LINE
  8
LVL0000
 10
      108.300000
 20
     -233.359435
 30
        0.000000
 11
      108.300000
 21
     -235.759435
 31
        0.000000
  0
LINE
  8
LVL0000
 10
      105.650000
 20
     -234.459436
 30
        0.000000
 11
      105.650000
 21
     -233.909434
 31
        0.000000
  0
LINE
  8
LVL0000
 10
      105.650000
 20
     -234.459436
 30
        0.000000
 11
      105.150000
 21
     -234.459436
 31
        0.000000
  0
LINE
  8
LVL0000
 10
      105.150000
 20
     -234.459436
 30
        0.000000
 11
      105.150000
 21
     -233.909434
 31
        0.000000
  0
ARC
  8
LVL0000
 10
      104.850000
 20
     -233.909434
 30
        0.000000
 40
        0.300000
 50
        0.000000
 51
       90.000000
  0
LINE
  8
LVL0000
 10
      104.850000
 20
     -233.609435
 30
        0.000000
 11
      104.300000
 21
     -233.609435
 31
        0.000000
  0
LINE
  8
LVL0000
 10
      104.300000
 20
     -233.609435
 30
        0.000000
 11
      104.300000
 21
     -233.109436
 31
        0.000000
  0
LINE
  8
LVL0000
 10
      104.850000
 20
     -233.109436
 30
        0.000000
 11
      104.300000
 21
     -233.109436
 31
        0.000000
  0
ARC
  8
LVL0000
 10
      104.850000
 20
     -232.809437
 30
        0.000000
 40
        0.300000
 50
      270.000000
 51
      360.000000
  0
LINE
  8
LVL0000
 10
      105.150000
 20
     -232.809437
 30
        0.000000
 11
      105.150000
 21
     -232.259435
 31
        0.000000
  0
LINE
  8
LVL0000
 10
      105.650000
 20
     -232.259435
 30
        0.000000
 11
      105.150000
 21
     -232.259435
 31
        0.000000
  0
LINE
  8
LVL0000
 10
      105.650000
 20
     -232.809437
 30
        0.000000
 11
      105.650000
 21
     -232.259435
 31
        0.000000
  0
ARC
  8
LVL0000
 10
      105.950000
 20
     -232.809437
 30
        0.000000
 40
        0.300000
 50
      180.000010
 51
      270.000000
  0
LINE
  8
LVL0000
 10
      106.500000
 20
     -233.109436
 30
        0.000000
 11
      105.950000
 21
     -233.109436
 31
        0.000000
  0
LINE
  8
LVL0000
 10
      106.500000
 20
     -233.609435
 30
        0.000000
 11
      106.500000
 21
     -233.109436
 31
        0.000000
  0
LINE
  8
LVL0000
 10
      106.500000
 20
     -233.609435
 30
        0.000000
 11
      105.950000
 21
     -233.609435
 31
        0.000000
  0
ARC
  8
LVL0000
 10
      105.950000
 20
     -233.909434
 30
        0.000000
 40
        0.300000
 50
       90.000000
 51
      180.000010
  0
CIRCLE
  8
LVL0000
 10
      105.400000
 20
     -233.359435
 30
        0.000000
 40
        1.750000
  0
ARC
  8
LVL0000
 10
       96.500000
 20
     -337.359435
 30
        0.000000
 40
        0.500000
 50
      179.999995
 51
      270.000000
  0
LINE
  8
LVL0000
 10
       96.000000
 20
     -322.859435
 30
        0.000000
 11
       96.000000
 21
     -337.359435
 31
        0.000000
  0
LINE
  8
LVL0000
 10
      102.900000
 20
     -307.859435
 30
        0.000000
 11
       96.500000
 21
     -307.859435
 31
        0.000000
  0
LINE
  8
LVL0000
 10
       96.000000
 20
     -322.859435
 30
        0.000000
 11
       96.000000
 21
     -308.359435
 31
        0.000000
  0
ARC
  8
LVL0000
 10
       96.500000
 20
     -308.359435
 30
        0.000000
 40
        0.500000
 50
       90.000000
 51
      179.999995
  0
LINE
  8
LVL0000
 10
      103.000000
 20
     -307.959435
 30
        0.000000
 11
      103.000000
 21
     -335.259435
 31
        0.000000
  0
ARC
  8
LVL0000
 10
      103.400000
 20
     -335.359435
 30
        0.000000
 40
        0.500000
 50
      179.999995
 51
      270.000000
  0
LINE
  8
LVL0000
 10
      102.900000
 20
     -307.859435
 30
        0.000000
 11
      102.900000
 21
     -335.359435
 31
        0.000000
  0
ARC
  8
LVL0000
 10
      103.500000
 20
     -335.259435
 30
        0.000000
 40
        0.500000
 50
      179.999995
 51
      270.000000
  0
LINE
  8
LVL0000
 10
      105.400000
 20
     -330.459435
 30
        0.000000
 11
      103.000000
 21
     -330.459435
 31
        0.000000
  0
LINE
  8
LVL0000
 10
      105.400000
 20
     -331.359435
 30
        0.000000
 11
      103.000000
 21
     -331.359435
 31
        0.000000
  0
ARC
  8
LVL0000
 10
      105.400000
 20
     -333.359435
 30
        0.000000
 40
        2.000000
 50
        0.000000
 51
       90.000000
  0
ARC
  8
LVL0000
 10
      105.400000
 20
     -333.359435
 30
        0.000000
 40
        2.900000
 50
        0.000000
 51
       90.000000
  0
LINE
  8
LVL0000
 10
      107.400000
 20
     -333.359435
 30
        0.000000
 11
      107.400000
 21
     -335.759435
 31
        0.000000
  0
LINE
  8
LVL0000
 10
      108.300000
 20
     -333.359435
 30
        0.000000
 11
      108.300000
 21
     -335.759435
 31
        0.000000
  0
LINE
  8
LVL0000
 10
      105.650000
 20
     -334.459436
 30
        0.000000
 11
      105.650000
 21
     -333.909434
 31
        0.000000
  0
LINE
  8
LVL0000
 10
      105.650000
 20
     -334.459436
 30
        0.000000
 11
      105.150000
 21
     -334.459436
 31
        0.000000
  0
LINE
  8
LVL0000
 10
      105.150000
 20
     -334.459436
 30
        0.000000
 11
      105.150000
 21
     -333.909434
 31
        0.000000
  0
ARC
  8
LVL0000
 10
      104.850000
 20
     -333.909434
 30
        0.000000
 40
        0.300000
 50
        0.000000
 51
       90.000000
  0
LINE
  8
LVL0000
 10
      104.850000
 20
     -333.609435
 30
        0.000000
 11
      104.300000
 21
     -333.609435
 31
        0.000000
  0
LINE
  8
LVL0000
 10
      104.300000
 20
     -333.609435
 30
        0.000000
 11
      104.300000
 21
     -333.109436
 31
        0.000000
  0
LINE
  8
LVL0000
 10
      104.850000
 20
     -333.109436
 30
        0.000000
 11
      104.300000
 21
     -333.109436
 31
        0.000000
  0
ARC
  8
LVL0000
 10
      104.850000
 20
     -332.809437
 30
        0.000000
 40
        0.300000
 50
      270.000000
 51
      360.000000
  0
LINE
  8
LVL0000
 10
      105.150000
 20
     -332.809437
 30
        0.000000
 11
      105.150000
 21
     -332.259435
 31
        0.000000
  0
LINE
  8
LVL0000
 10
      105.650000
 20
     -332.259435
 30
        0.000000
 11
      105.150000
 21
     -332.259435
 31
        0.000000
  0
LINE
  8
LVL0000
 10
      105.650000
 20
     -332.809437
 30
        0.000000
 11
      105.650000
 21
     -332.259435
 31
        0.000000
  0
ARC
  8
LVL0000
 10
      105.950000
 20
     -332.809437
 30
        0.000000
 40
        0.300000
 50
      180.000010
 51
      270.000000
  0
LINE
  8
LVL0000
 10
      106.500000
 20
     -333.109436
 30
        0.000000
 11
      105.950000
 21
     -333.109436
 31
        0.000000
  0
LINE
  8
LVL0000
 10
      106.500000
 20
     -333.609435
 30
        0.000000
 11
      106.500000
 21
     -333.109436
 31
        0.000000
  0
LINE
  8
LVL0000
 10
      106.500000
 20
     -333.609435
 30
        0.000000
 11
      105.950000
 21
     -333.609435
 31
        0.000000
  0
ARC
  8
LVL0000
 10
      105.950000
 20
     -333.909434
 30
        0.000000
 40
        0.300000
 50
       90.000000
 51
      180.000010
  0
CIRCLE
  8
LVL0000
 10
      105.400000
 20
     -333.359435
 30
        0.000000
 40
        1.750000
  0
LINE
  8
LVL0001
 10
       46.000000
 20
     -245.859435
 30
        0.000000
 11
       46.000000
 21
     -247.859435
 31
        0.000000
  0
LINE
  8
LVL0001
 10
       17.000000
 20
     -244.859435
 30
        0.000000
 11
       17.000000
 21
     -208.859435
 31
        0.000000
  0
ARC
  8
LVL0001
 10
       18.000000
 20
     -244.859435
 30
        0.000000
 40
        1.000000
 50
      179.999995
 51
      270.000000
  0
LINE
  8
LVL0001
 10
       46.000000
 20
     -245.859435
 30
        0.000000
 11
       18.000000
 21
     -245.859435
 31
        0.000000
  0
LINE
  8
LVL0001
 10
       46.000000
 20
     -247.859435
 30
        0.000000
 11
       18.000000
 21
     -247.859435
 31
        0.000000
  0
ARC
  8
LVL0001
 10
       18.000000
 20
     -244.859435
 30
        0.000000
 40
        3.000000
 50
      179.999995
 51
      270.000000
  0
LINE
  8
LVL0001
 10
       15.000000
 20
     -244.859435
 30
        0.000000
 11
       15.000000
 21
     -208.859435
 31
        0.000000
  0
LINE
  8
LVL0001
 10
       17.000000
 20
     -208.859435
 30
        0.000000
 11
       15.000000
 21
     -208.859435
 31
        0.000000
  0
CIRCLE
  8
LVL0000
 10
        0.000000
 20
     -222.859435
 30
        0.000000
 40
       12.270000
  0
CIRCLE
  8
LVL0000
 10
        0.000000
 20
     -222.859435
 30
        0.000000
 40
       14.700000
  0
CIRCLE
  8
LVL0000
 10
        0.000000
 20
     -222.859435
 30
        0.000000
 40
       14.800000
  0
ARC
  8
LVL0000
 10
       14.400000
 20
     -208.459435
 30
        0.000000
 40
        0.600000
 50
        0.000000
 51
       90.000000
  0
LINE
  8
LVL0000
 10
      -14.400000
 20
     -207.859435
 30
        0.000000
 11
       14.400000
 21
     -207.859435
 31
        0.000000
  0
ARC
  8
LVL0000
 10
      -14.400000
 20
     -208.459435
 30
        0.000000
 40
        0.600000
 50
       90.000000
 51
      179.999995
  0
LINE
  8
LVL0000
 10
      -15.000000
 20
     -208.459435
 30
        0.000000
 11
      -15.000000
 21
     -237.259435
 31
        0.000000
  0
ARC
  8
LVL0000
 10
      -14.400000
 20
     -237.259435
 30
        0.000000
 40
        0.600000
 50
      179.999995
 51
      270.000000
  0
LINE
  8
LVL0000
 10
      -14.400000
 20
     -237.859435
 30
        0.000000
 11
       14.400000
 21
     -237.859435
 31
        0.000000
  0
LINE
  8
LVL0000
 10
       15.000000
 20
     -208.459435
 30
        0.000000
 11
       15.000000
 21
     -237.259435
 31
        0.000000
  0
ARC
  8
LVL0000
 10
       14.400000
 20
     -237.259435
 30
        0.000000
 40
        0.600000
 50
      270.000000
 51
      360.000000
  0
LINE
  8
LVL0000
 10
       -6.000000
 20
     -215.859435
 30
        0.000000
 11
        6.000000
 21
     -215.859435
 31
        0.000000
  0
ARC
  8
LVL0000
 10
       -6.000000
 20
     -216.859435
 30
        0.000000
 40
        1.000000
 50
       90.000000
 51
      179.999995
  0
LINE
  8
LVL0000
 10
       -7.000000
 20
     -216.859435
 30
        0.000000
 11
       -7.000000
 21
     -228.859435
 31
        0.000000
  0
ARC
  8
LVL0000
 10
       -6.000000
 20
     -228.859435
 30
        0.000000
 40
        1.000000
 50
      179.999995
 51
      270.000000
  0
LINE
  8
LVL0000
 10
       -6.000000
 20
     -229.859435
 30
        0.000000
 11
        6.000000
 21
     -229.859435
 31
        0.000000
  0
ARC
  8
LVL0000
 10
        6.000000
 20
     -228.859435
 30
        0.000000
 40
        1.000000
 50
      270.000000
 51
      360.000000
  0
LINE
  8
LVL0000
 10
        7.000000
 20
     -216.859435
 30
        0.000000
 11
        7.000000
 21
     -228.859435
 31
        0.000000
  0
ARC
  8
LVL0000
 10
        6.000000
 20
     -216.859435
 30
        0.000000
 40
        1.000000
 50
        0.000000
 51
       90.000000
  0
CIRCLE
  8
LVL0000
 10
        0.000000
 20
     -222.859435
 30
        0.000000
 40
       13.500000
  0
LINE
  8
LVL0001
 10
       95.000000
 20
     -437.859435
 30
        0.000000
 11
      123.000000
 21
     -437.859435
 31
        0.000000
  0
LINE
  8
LVL0001
 10
       97.000000
 20
     -468.859435
 30
        0.000000
 11
      121.000000
 21
     -468.859435
 31
        0.000000
  0
ARC
  8
LVL0001
 10
       97.000000
 20
     -466.859435
 30
        0.000000
 40
        2.000000
 50
      179.999995
 51
      270.000000
  0
LINE
  8
LVL0001
 10
       95.000000
 20
     -466.859435
 30
        0.000000
 11
       95.000000
 21
     -437.859435
 31
        0.000000
  0
ARC
  8
LVL0001
 10
      121.000000
 20
     -466.859435
 30
        0.000000
 40
        2.000000
 50
      270.000000
 51
      360.000000
  0
LINE
  8
LVL0001
 10
      123.000000
 20
     -466.859435
 30
        0.000000
 11
      123.000000
 21
     -437.859435
 31
        0.000000
  0
CIRCLE
  8
LVL0001
 10
      109.000000
 20
     -454.859465
 30
        0.000000
 40
        3.175000
  0
CIRCLE
  8
LVL0001
 10
      109.000000
 20
     -454.859465
 30
        0.000000
 40
        2.500000
  0
ARC
  8
LVL0001
 10
      100.339746
 20
     -449.859465
 30
        0.000000
 40
        1.600000
 50
      330.000001
 51
      509.999996
  0
ARC
  8
LVL0001
 10
      100.339746
 20
     -459.859465
 30
        0.000000
 40
        1.600000
 50
      210.000004
 51
      389.999999
  0
ARC
  8
LVL0001
 10
      109.000000
 20
     -454.859465
 30
        0.000000
 40
       11.600000
 50
      149.999996
 51
      210.000004
  0
ARC
  8
LVL0001
 10
      109.000000
 20
     -454.859465
 30
        0.000000
 40
        8.400000
 50
      149.999996
 51
      210.000004
  0
ARC
  8
LVL0001
 10
      109.000000
 20
     -454.859465
 30
        0.000000
 40
       11.600000
 50
      330.000001
 51
      389.999999
  0
ARC
  8
LVL0001
 10
      117.660254
 20
     -459.859465
 30
        0.000000
 40
        1.600000
 50
      149.999996
 51
      330.000001
  0
ARC
  8
LVL0001
 10
      109.000000
 20
     -454.859465
 30
        0.000000
 40
        8.400000
 50
      330.000001
 51
      389.999999
  0
ARC
  8
LVL0001
 10
      117.660254
 20
     -449.859465
 30
        0.000000
 40
        1.600000
 50
       29.999999
 51
      210.000004
  0
LINE
  8
LVL0001
  6
DOT
 10
       95.000000
 20
     -439.859435
 30
        0.000000
 11
      123.000000
 21
     -439.859435
 31
        0.000000
  0
LINE
  8
LVL0001
 10
       23.000000
 20
     -468.859435
 30
        0.000000
 11
       25.000000
 21
     -468.859435
 31
        0.000000
  0
LINE
  8
LVL0001
 10
       22.000000
 20
     -439.859435
 30
        0.000000
 11
      -14.000000
 21
     -439.859435
 31
        0.000000
  0
ARC
  8
LVL0001
 10
       22.000000
 20
     -440.859435
 30
        0.000000
 40
        1.000000
 50
        0.000000
 51
       90.000000
  0
LINE
  8
LVL0001
 10
       23.000000
 20
     -468.859435
 30
        0.000000
 11
       23.000000
 21
     -440.859435
 31
        0.000000
  0
LINE
  8
LVL0001
 10
       25.000000
 20
     -468.859435
 30
        0.000000
 11
       25.000000
 21
     -440.859435
 31
        0.000000
  0
ARC
  8
LVL0001
 10
       22.000000
 20
     -440.859435
 30
        0.000000
 40
        3.000000
 50
        0.000000
 51
       90.000000
  0
LINE
  8
LVL0001
 10
       22.000000
 20
     -437.859435
 30
        0.000000
 11
      -14.000000
 21
     -437.859435
 31
        0.000000
  0
LINE
  8
LVL0001
 10
      -14.000000
 20
     -439.859435
 30
        0.000000
 11
      -14.000000
 21
     -437.859435
 31
        0.000000
  0
CIRCLE
  8
LVL0000
 10
        0.000000
 20
     -422.859435
 30
        0.000000
 40
       12.270000
  0
CIRCLE
  8
LVL0000
 10
        0.000000
 20
     -422.859435
 30
        0.000000
 40
       14.700000
  0
CIRCLE
  8
LVL0000
 10
        0.000000
 20
     -422.859435
 30
        0.000000
 40
       14.800000
  0
ARC
  8
LVL0000
 10
      -14.400000
 20
     -437.259435
 30
        0.000000
 40
        0.600000
 50
      179.999995
 51
      270.000000
  0
LINE
  8
LVL0000
 10
      -15.000000
 20
     -408.459435
 30
        0.000000
 11
      -15.000000
 21
     -437.259435
 31
        0.000000
  0
ARC
  8
LVL0000
 10
      -14.400000
 20
     -408.459435
 30
        0.000000
 40
        0.600000
 50
       90.000000
 51
      179.999995
  0
LINE
  8
LVL0000
 10
      -14.400000
 20
     -407.859435
 30
        0.000000
 11
       14.400000
 21
     -407.859435
 31
        0.000000
  0
ARC
  8
LVL0000
 10
       14.400000
 20
     -408.459435
 30
        0.000000
 40
        0.600000
 50
        0.000000
 51
       90.000000
  0
LINE
  8
LVL0000
 10
       15.000000
 20
     -408.459435
 30
        0.000000
 11
       15.000000
 21
     -437.259435
 31
        0.000000
  0
LINE
  8
LVL0000
 10
      -14.400000
 20
     -437.859435
 30
        0.000000
 11
       14.400000
 21
     -437.859435
 31
        0.000000
  0
ARC
  8
LVL0000
 10
       14.400000
 20
     -437.259435
 30
        0.000000
 40
        0.600000
 50
      270.000000
 51
      360.000000
  0
LINE
  8
LVL0000
 10
       -7.000000
 20
     -416.859435
 30
        0.000000
 11
       -7.000000
 21
     -428.859435
 31
        0.000000
  0
ARC
  8
LVL0000
 10
       -6.000000
 20
     -416.859435
 30
        0.000000
 40
        1.000000
 50
       90.000000
 51
      179.999995
  0
LINE
  8
LVL0000
 10
       -6.000000
 20
     -415.859435
 30
        0.000000
 11
        6.000000
 21
     -415.859435
 31
        0.000000
  0
ARC
  8
LVL0000
 10
        6.000000
 20
     -416.859435
 30
        0.000000
 40
        1.000000
 50
        0.000000
 51
       90.000000
  0
LINE
  8
LVL0000
 10
        7.000000
 20
     -416.859435
 30
        0.000000
 11
        7.000000
 21
     -428.859435
 31
        0.000000
  0
ARC
  8
LVL0000
 10
        6.000000
 20
     -428.859435
 30
        0.000000
 40
        1.000000
 50
      270.000000
 51
      360.000000
  0
LINE
  8
LVL0000
 10
       -6.000000
 20
     -429.859435
 30
        0.000000
 11
        6.000000
 21
     -429.859435
 31
        0.000000
  0
ARC
  8
LVL0000
 10
       -6.000000
 20
     -428.859435
 30
        0.000000
 40
        1.000000
 50
      179.999995
 51
      270.000000
  0
CIRCLE
  8
LVL0000
 10
        0.000000
 20
     -422.859435
 30
        0.000000
 40
       13.500000
  0
ARC
  8
LVL0001
 10
       97.000000
 20
     -210.859435
 30
        0.000000
 40
        2.000000
 50
       90.000000
 51
      179.999995
  0
LINE
  8
LVL0001
 10
      121.000000
 20
     -208.859435
 30
        0.000000
 11
       97.000000
 21
     -208.859435
 31
        0.000000
  0
ARC
  8
LVL0001
 10
      121.000000
 20
     -210.859435
 30
        0.000000
 40
        2.000000
 50
        0.000000
 51
       90.000000
  0
CIRCLE
  8
LVL0001
 10
      100.500000
 20
     -212.859435
 30
        0.000000
 40
        2.750000
  0
LINE
  8
LVL0001
 10
      100.950000
 20
     -211.145435
 30
        0.000000
 11
      100.050000
 21
     -211.145435
 31
        0.000000
  0
LINE
  8
LVL0001
 10
      100.950000
 20
     -214.445436
 30
        0.000000
 11
      100.050000
 21
     -214.445436
 31
        0.000000
  0
LINE
  8
LVL0001
 10
       98.850000
 20
     -213.245435
 30
        0.000000
 11
       98.850000
 21
     -212.345437
 31
        0.000000
  0
LINE
  8
LVL0001
 10
      102.150000
 20
     -213.245435
 30
        0.000000
 11
      102.150000
 21
     -212.345437
 31
        0.000000
  0
LINE
  8
LVL0001
 10
      100.950000
 20
     -214.445436
 30
        0.000000
 11
      100.950000
 21
     -213.695434
 31
        0.000000
  0
LINE
  8
LVL0001
 10
      100.050000
 20
     -214.445436
 30
        0.000000
 11
      100.050000
 21
     -213.695434
 31
        0.000000
  0
LINE
  8
LVL0001
 10
      102.150000
 20
     -212.345437
 30
        0.000000
 11
      101.400000
 21
     -212.345437
 31
        0.000000
  0
LINE
  8
LVL0001
 10
      102.150000
 20
     -213.245435
 30
        0.000000
 11
      101.400000
 21
     -213.245435
 31
        0.000000
  0
LINE
  8
LVL0001
 10
       99.600000
 20
     -212.345437
 30
        0.000000
 11
       98.850000
 21
     -212.345437
 31
        0.000000
  0
LINE
  8
LVL0001
 10
       99.600000
 20
     -213.245435
 30
        0.000000
 11
       98.850000
 21
     -213.245435
 31
        0.000000
  0
LINE
  8
LVL0001
 10
      100.050000
 20
     -211.895439
 30
        0.000000
 11
      100.050000
 21
     -211.145435
 31
        0.000000
  0
LINE
  8
LVL0001
 10
      100.950000
 20
     -211.895439
 30
        0.000000
 11
      100.950000
 21
     -211.145435
 31
        0.000000
  0
ARC
  8
LVL0001
 10
       99.600000
 20
     -211.895439
 30
        0.000000
 40
        0.449999
 50
      270.000000
 51
      360.000000
  0
ARC
  8
LVL0001
 10
      101.400000
 20
     -211.895439
 30
        0.000000
 40
        0.450000
 50
      180.000010
 51
      270.000000
  0
ARC
  8
LVL0001
 10
      101.400000
 20
     -213.695434
 30
        0.000000
 40
        0.449999
 50
       90.000000
 51
      180.000010
  0
ARC
  8
LVL0001
 10
       99.600000
 20
     -213.695434
 30
        0.000000
 40
        0.450000
 50
        0.000000
 51
       90.000000
  0
ARC
  8
LVL0001
 10
      100.500000
 20
     -222.859435
 30
        0.000000
 40
       11.600000
 50
       79.999998
 51
       99.999997
  0
ARC
  8
LVL0001
 10
      100.500000
 20
     -222.859435
 30
        0.000000
 40
        8.400000
 50
       79.999998
 51
       99.999997
  0
ARC
  8
LVL0001
 10
      102.236482
 20
     -213.011358
 30
        0.000000
 40
        1.600000
 50
      260.000003
 51
      439.999998
  0
ARC
  8
LVL0001
 10
       98.763518
 20
     -213.011358
 30
        0.000000
 40
        1.600000
 50
       99.999997
 51
      280.000002
  0
ARC
  8
LVL0001
 10
      117.500000
 20
     -222.859435
 30
        0.000000
 40
       11.600000
 50
       79.999998
 51
       99.999997
  0
ARC
  8
LVL0001
 10
      117.500000
 20
     -222.859435
 30
        0.000000
 40
        8.400000
 50
       79.999998
 51
       99.999997
  0
ARC
  8
LVL0001
 10
      115.763518
 20
     -213.011358
 30
        0.000000
 40
        1.600000
 50
       99.999997
 51
      280.000002
  0
ARC
  8
LVL0001
 10
      119.236482
 20
     -213.011358
 30
        0.000000
 40
        1.600000
 50
      260.000003
 51
      439.999998
  0
ARC
  8
LVL0001
 10
      100.500000
 20
     -222.859435
 30
        0.000000
 40
        8.400000
 50
      260.000003
 51
      280.000002
  0
ARC
  8
LVL0001
 10
      100.500000
 20
     -222.859435
 30
        0.000000
 40
       11.600000
 50
      260.000003
 51
      280.000002
  0
CIRCLE
  8
LVL0001
 10
      100.500000
 20
     -232.859435
 30
        0.000000
 40
        2.750000
  0
LINE
  8
LVL0001
 10
      100.950000
 20
     -231.145435
 30
        0.000000
 11
      100.050000
 21
     -231.145435
 31
        0.000000
  0
LINE
  8
LVL0001
 10
      100.950000
 20
     -234.445436
 30
        0.000000
 11
      100.050000
 21
     -234.445436
 31
        0.000000
  0
LINE
  8
LVL0001
 10
       98.850000
 20
     -233.245435
 30
        0.000000
 11
       98.850000
 21
     -232.345437
 31
        0.000000
  0
LINE
  8
LVL0001
 10
      102.150000
 20
     -233.245435
 30
        0.000000
 11
      102.150000
 21
     -232.345437
 31
        0.000000
  0
LINE
  8
LVL0001
 10
      100.950000
 20
     -234.445436
 30
        0.000000
 11
      100.950000
 21
     -233.695434
 31
        0.000000
  0
LINE
  8
LVL0001
 10
      100.050000
 20
     -234.445436
 30
        0.000000
 11
      100.050000
 21
     -233.695434
 31
        0.000000
  0
LINE
  8
LVL0001
 10
      102.150000
 20
     -232.345437
 30
        0.000000
 11
      101.400000
 21
     -232.345437
 31
        0.000000
  0
LINE
  8
LVL0001
 10
      102.150000
 20
     -233.245435
 30
        0.000000
 11
      101.400000
 21
     -233.245435
 31
        0.000000
  0
LINE
  8
LVL0001
 10
       99.600000
 20
     -232.345437
 30
        0.000000
 11
       98.850000
 21
     -232.345437
 31
        0.000000
  0
LINE
  8
LVL0001
 10
       99.600000
 20
     -233.245435
 30
        0.000000
 11
       98.850000
 21
     -233.245435
 31
        0.000000
  0
LINE
  8
LVL0001
 10
      100.050000
 20
     -231.895439
 30
        0.000000
 11
      100.050000
 21
     -231.145435
 31
        0.000000
  0
LINE
  8
LVL0001
 10
      100.950000
 20
     -231.895439
 30
        0.000000
 11
      100.950000
 21
     -231.145435
 31
        0.000000
  0
ARC
  8
LVL0001
 10
       99.600000
 20
     -231.895439
 30
        0.000000
 40
        0.449999
 50
      270.000000
 51
      360.000000
  0
ARC
  8
LVL0001
 10
      101.400000
 20
     -231.895439
 30
        0.000000
 40
        0.450000
 50
      180.000010
 51
      270.000000
  0
ARC
  8
LVL0001
 10
      101.400000
 20
     -233.695434
 30
        0.000000
 40
        0.449999
 50
       90.000000
 51
      180.000010
  0
ARC
  8
LVL0001
 10
       99.600000
 20
     -233.695434
 30
        0.000000
 40
        0.450000
 50
        0.000000
 51
       90.000000
  0
ARC
  8
LVL0001
 10
      102.236482
 20
     -232.707513
 30
        0.000000
 40
        1.600000
 50
      280.000002
 51
      459.999997
  0
ARC
  8
LVL0001
 10
       98.763518
 20
     -232.707513
 30
        0.000000
 40
        1.600000
 50
       79.999998
 51
      260.000003
  0
ARC
  8
LVL0001
 10
      117.500000
 20
     -222.859435
 30
        0.000000
 40
        8.400000
 50
      260.000003
 51
      280.000002
  0
ARC
  8
LVL0001
 10
      117.500000
 20
     -222.859435
 30
        0.000000
 40
       11.600000
 50
      260.000003
 51
      280.000002
  0
ARC
  8
LVL0001
 10
      115.763518
 20
     -232.707513
 30
        0.000000
 40
        1.600000
 50
       79.999998
 51
      260.000003
  0
ARC
  8
LVL0001
 10
      119.236482
 20
     -232.707513
 30
        0.000000
 40
        1.600000
 50
      280.000002
 51
      459.999997
  0
LINE
  8
LVL0001
 10
      123.000000
 20
     -245.859435
 30
        0.000000
 11
       95.000000
 21
     -245.859435
 31
        0.000000
  0
LINE
  8
LVL0001
 10
      123.000000
 20
     -210.859435
 30
        0.000000
 11
      123.000000
 21
     -247.859435
 31
        0.000000
  0
LINE
  8
LVL0001
 10
      123.000000
 20
     -247.859435
 30
        0.000000
 11
       95.000000
 21
     -247.859435
 31
        0.000000
  0
LINE
  8
LVL0001
 10
       95.000000
 20
     -210.859435
 30
        0.000000
 11
       95.000000
 21
     -247.859435
 31
        0.000000
  0
ARC
  8
LVL0001
 10
      102.236482
 20
     -332.707513
 30
        0.000000
 40
        1.600000
 50
      280.000002
 51
      459.999997
  0
ARC
  8
LVL0001
 10
       98.763518
 20
     -332.707513
 30
        0.000000
 40
        1.600000
 50
       79.999998
 51
      260.000003
  0
ARC
  8
LVL0001
 10
      100.500000
 20
     -322.859435
 30
        0.000000
 40
        8.400000
 50
      260.000003
 51
      280.000002
  0
ARC
  8
LVL0001
 10
      100.500000
 20
     -322.859435
 30
        0.000000
 40
       11.600000
 50
      260.000003
 51
      280.000002
  0
CIRCLE
  8
LVL0001
 10
      100.500000
 20
     -332.859435
 30
        0.000000
 40
        2.750000
  0
LINE
  8
LVL0001
 10
      100.950000
 20
     -331.145435
 30
        0.000000
 11
      100.050000
 21
     -331.145435
 31
        0.000000
  0
LINE
  8
LVL0001
 10
      100.950000
 20
     -334.445436
 30
        0.000000
 11
      100.050000
 21
     -334.445436
 31
        0.000000
  0
LINE
  8
LVL0001
 10
       98.850000
 20
     -333.245435
 30
        0.000000
 11
       98.850000
 21
     -332.345437
 31
        0.000000
  0
LINE
  8
LVL0001
 10
      102.150000
 20
     -333.245435
 30
        0.000000
 11
      102.150000
 21
     -332.345437
 31
        0.000000
  0
LINE
  8
LVL0001
 10
      100.950000
 20
     -334.445436
 30
        0.000000
 11
      100.950000
 21
     -333.695434
 31
        0.000000
  0
LINE
  8
LVL0001
 10
      100.050000
 20
     -334.445436
 30
        0.000000
 11
      100.050000
 21
     -333.695434
 31
        0.000000
  0
LINE
  8
LVL0001
 10
      102.150000
 20
     -332.345437
 30
        0.000000
 11
      101.400000
 21
     -332.345437
 31
        0.000000
  0
LINE
  8
LVL0001
 10
      102.150000
 20
     -333.245435
 30
        0.000000
 11
      101.400000
 21
     -333.245435
 31
        0.000000
  0
LINE
  8
LVL0001
 10
       99.600000
 20
     -332.345437
 30
        0.000000
 11
       98.850000
 21
     -332.345437
 31
        0.000000
  0
LINE
  8
LVL0001
 10
       99.600000
 20
     -333.245435
 30
        0.000000
 11
       98.850000
 21
     -333.245435
 31
        0.000000
  0
LINE
  8
LVL0001
 10
      100.050000
 20
     -331.895439
 30
        0.000000
 11
      100.050000
 21
     -331.145435
 31
        0.000000
  0
LINE
  8
LVL0001
 10
      100.950000
 20
     -331.895439
 30
        0.000000
 11
      100.950000
 21
     -331.145435
 31
        0.000000
  0
ARC
  8
LVL0001
 10
       99.600000
 20
     -331.895439
 30
        0.000000
 40
        0.449999
 50
      270.000000
 51
      360.000000
  0
ARC
  8
LVL0001
 10
      101.400000
 20
     -331.895439
 30
        0.000000
 40
        0.450000
 50
      180.000010
 51
      270.000000
  0
ARC
  8
LVL0001
 10
      101.400000
 20
     -333.695434
 30
        0.000000
 40
        0.449999
 50
       90.000000
 51
      180.000010
  0
ARC
  8
LVL0001
 10
       99.600000
 20
     -333.695434
 30
        0.000000
 40
        0.450000
 50
        0.000000
 51
       90.000000
  0
LINE
  8
LVL0001
 10
      100.950000
 20
     -311.145435
 30
        0.000000
 11
      100.050000
 21
     -311.145435
 31
        0.000000
  0
ARC
  8
LVL0001
 10
      100.500000
 20
     -322.859435
 30
        0.000000
 40
       11.600000
 50
       79.999998
 51
       99.999997
  0
ARC
  8
LVL0001
 10
      100.500000
 20
     -322.859435
 30
        0.000000
 40
        8.400000
 50
       79.999998
 51
       99.999997
  0
ARC
  8
LVL0001
 10
      102.236482
 20
     -313.011358
 30
        0.000000
 40
        1.600000
 50
      260.000003
 51
      439.999998
  0
ARC
  8
LVL0001
 10
       98.763518
 20
     -313.011358
 30
        0.000000
 40
        1.600000
 50
       99.999997
 51
      280.000002
  0
CIRCLE
  8
LVL0001
 10
      100.500000
 20
     -312.859435
 30
        0.000000
 40
        2.750000
  0
LINE
  8
LVL0001
 10
      100.950000
 20
     -314.445436
 30
        0.000000
 11
      100.050000
 21
     -314.445436
 31
        0.000000
  0
LINE
  8
LVL0001
 10
       98.850000
 20
     -313.245435
 30
        0.000000
 11
       98.850000
 21
     -312.345437
 31
        0.000000
  0
LINE
  8
LVL0001
 10
      102.150000
 20
     -313.245435
 30
        0.000000
 11
      102.150000
 21
     -312.345437
 31
        0.000000
  0
LINE
  8
LVL0001
 10
      100.950000
 20
     -314.445436
 30
        0.000000
 11
      100.950000
 21
     -313.695434
 31
        0.000000
  0
LINE
  8
LVL0001
 10
      100.050000
 20
     -314.445436
 30
        0.000000
 11
      100.050000
 21
     -313.695434
 31
        0.000000
  0
LINE
  8
LVL0001
 10
      102.150000
 20
     -312.345437
 30
        0.000000
 11
      101.400000
 21
     -312.345437
 31
        0.000000
  0
LINE
  8
LVL0001
 10
      102.150000
 20
     -313.245435
 30
        0.000000
 11
      101.400000
 21
     -313.245435
 31
        0.000000
  0
LINE
  8
LVL0001
 10
       99.600000
 20
     -312.345437
 30
        0.000000
 11
       98.850000
 21
     -312.345437
 31
        0.000000
  0
LINE
  8
LVL0001
 10
       99.600000
 20
     -313.245435
 30
        0.000000
 11
       98.850000
 21
     -313.245435
 31
        0.000000
  0
LINE
  8
LVL0001
 10
      100.050000
 20
     -311.895439
 30
        0.000000
 11
      100.050000
 21
     -311.145435
 31
        0.000000
  0
LINE
  8
LVL0001
 10
      100.950000
 20
     -311.895439
 30
        0.000000
 11
      100.950000
 21
     -311.145435
 31
        0.000000
  0
ARC
  8
LVL0001
 10
       99.600000
 20
     -311.895439
 30
        0.000000
 40
        0.449999
 50
      270.000000
 51
      360.000000
  0
ARC
  8
LVL0001
 10
      101.400000
 20
     -311.895439
 30
        0.000000
 40
        0.450000
 50
      180.000010
 51
      270.000000
  0
ARC
  8
LVL0001
 10
      101.400000
 20
     -313.695434
 30
        0.000000
 40
        0.449999
 50
       90.000000
 51
      180.000010
  0
ARC
  8
LVL0001
 10
       99.600000
 20
     -313.695434
 30
        0.000000
 40
        0.450000
 50
        0.000000
 51
       90.000000
  0
ARC
  8
LVL0001
 10
       97.000000
 20
     -310.859435
 30
        0.000000
 40
        2.000000
 50
       90.000000
 51
      179.999995
  0
LINE
  8
LVL0001
 10
      121.000000
 20
     -308.859435
 30
        0.000000
 11
       97.000000
 21
     -308.859435
 31
        0.000000
  0
ARC
  8
LVL0001
 10
      117.500000
 20
     -322.859435
 30
        0.000000
 40
       11.600000
 50
       79.999998
 51
       99.999997
  0
ARC
  8
LVL0001
 10
      117.500000
 20
     -322.859435
 30
        0.000000
 40
        8.400000
 50
       79.999998
 51
       99.999997
  0
ARC
  8
LVL0001
 10
      115.763518
 20
     -313.011358
 30
        0.000000
 40
        1.600000
 50
       99.999997
 51
      280.000002
  0
ARC
  8
LVL0001
 10
      119.236482
 20
     -313.011358
 30
        0.000000
 40
        1.600000
 50
      260.000003
 51
      439.999998
  0
ARC
  8
LVL0001
 10
      121.000000
 20
     -310.859435
 30
        0.000000
 40
        2.000000
 50
        0.000000
 51
       90.000000
  0
ARC
  8
LVL0001
 10
      117.500000
 20
     -322.859435
 30
        0.000000
 40
        8.400000
 50
      260.000003
 51
      280.000002
  0
ARC
  8
LVL0001
 10
      117.500000
 20
     -322.859435
 30
        0.000000
 40
       11.600000
 50
      260.000003
 51
      280.000002
  0
ARC
  8
LVL0001
 10
      115.763518
 20
     -332.707513
 30
        0.000000
 40
        1.600000
 50
       79.999998
 51
      260.000003
  0
ARC
  8
LVL0001
 10
      119.236482
 20
     -332.707513
 30
        0.000000
 40
        1.600000
 50
      280.000002
 51
      459.999997
  0
LINE
  8
LVL0001
  6
DOT
 10
      123.000000
 20
     -345.859435
 30
        0.000000
 11
       95.000000
 21
     -345.859435
 31
        0.000000
  0
LINE
  8
LVL0001
 10
      123.000000
 20
     -310.859435
 30
        0.000000
 11
      123.000000
 21
     -347.859435
 31
        0.000000
  0
LINE
  8
LVL0001
 10
      123.000000
 20
     -347.859435
 30
        0.000000
 11
       95.000000
 21
     -347.859435
 31
        0.000000
  0
LINE
  8
LVL0001
 10
       95.000000
 20
     -310.859435
 30
        0.000000
 11
       95.000000
 21
     -347.859435
 31
        0.000000
  0
LINE
  8
LVL0001
 10
      -13.999970
 20
     -345.859435
 30
        0.000000
 11
      -13.999970
 21
     -347.859435
 31
        0.000000
  0
ARC
  8
LVL0001
 10
       14.000030
 20
     -344.859435
 30
        0.000000
 40
        1.000000
 50
      270.000000
 51
      360.000000
  0
LINE
  8
LVL0001
 10
      -13.999970
 20
     -345.859435
 30
        0.000000
 11
       14.000030
 21
     -345.859435
 31
        0.000000
  0
LINE
  8
LVL0001
 10
      -13.999970
 20
     -347.859435
 30
        0.000000
 11
       14.000030
 21
     -347.859435
 31
        0.000000
  0
ARC
  8
LVL0001
 10
       14.000030
 20
     -344.859435
 30
        0.000000
 40
        3.000000
 50
      270.000000
 51
      360.000000
  0
CIRCLE
  8
LVL0000
 10
        0.000030
 20
     -322.859435
 30
        0.000000
 40
       13.500000
  0
ARC
  8
LVL0000
 10
        6.000030
 20
     -316.859435
 30
        0.000000
 40
        1.000000
 50
        0.000000
 51
       90.000000
  0
LINE
  8
LVL0000
 10
        7.000030
 20
     -316.859435
 30
        0.000000
 11
        7.000030
 21
     -328.859435
 31
        0.000000
  0
ARC
  8
LVL0000
 10
        6.000030
 20
     -328.859435
 30
        0.000000
 40
        1.000000
 50
      270.000000
 51
      360.000000
  0
LINE
  8
LVL0000
 10
       -5.999970
 20
     -329.859435
 30
        0.000000
 11
        6.000030
 21
     -329.859435
 31
        0.000000
  0
ARC
  8
LVL0000
 10
       -5.999970
 20
     -328.859435
 30
        0.000000
 40
        1.000000
 50
      179.999995
 51
      270.000000
  0
LINE
  8
LVL0000
 10
       -6.999970
 20
     -316.859435
 30
        0.000000
 11
       -6.999970
 21
     -328.859435
 31
        0.000000
  0
ARC
  8
LVL0000
 10
       -5.999970
 20
     -316.859435
 30
        0.000000
 40
        1.000000
 50
       90.000000
 51
      179.999995
  0
LINE
  8
LVL0000
 10
       -5.999970
 20
     -315.859435
 30
        0.000000
 11
        6.000030
 21
     -315.859435
 31
        0.000000
  0
ARC
  8
LVL0000
 10
       14.400030
 20
     -337.259435
 30
        0.000000
 40
        0.600000
 50
      270.000000
 51
      360.000000
  0
LINE
  8
LVL0000
 10
       15.000030
 20
     -308.459435
 30
        0.000000
 11
       15.000030
 21
     -337.259435
 31
        0.000000
  0
LINE
  8
LVL0000
 10
      -14.399970
 20
     -337.859435
 30
        0.000000
 11
       14.400030
 21
     -337.859435
 31
        0.000000
  0
ARC
  8
LVL0000
 10
      -14.399970
 20
     -337.259435
 30
        0.000000
 40
        0.600000
 50
      179.999995
 51
      270.000000
  0
LINE
  8
LVL0000
 10
      -14.999970
 20
     -308.459435
 30
        0.000000
 11
      -14.999970
 21
     -337.259435
 31
        0.000000
  0
ARC
  8
LVL0000
 10
      -14.399970
 20
     -308.459435
 30
        0.000000
 40
        0.600000
 50
       90.000000
 51
      179.999995
  0
LINE
  8
LVL0000
 10
      -14.399970
 20
     -307.859435
 30
        0.000000
 11
       14.400030
 21
     -307.859435
 31
        0.000000
  0
ARC
  8
LVL0000
 10
       14.400030
 20
     -308.459435
 30
        0.000000
 40
        0.600000
 50
        0.000000
 51
       90.000000
  0
CIRCLE
  8
LVL0000
 10
        0.000030
 20
     -322.859435
 30
        0.000000
 40
       14.800000
  0
CIRCLE
  8
LVL0000
 10
        0.000030
 20
     -322.859435
 30
        0.000000
 40
       14.700000
  0
CIRCLE
  8
LVL0000
 10
        0.000030
 20
     -322.859435
 30
        0.000000
 40
       12.270000
  0
LINE
  8
LVL0001
 10
       17.000030
 20
     -308.859435
 30
        0.000000
 11
       15.000030
 21
     -308.859435
 31
        0.000000
  0
LINE
  8
LVL0001
 10
       15.000030
 20
     -344.859435
 30
        0.000000
 11
       15.000030
 21
     -308.859435
 31
        0.000000
  0
LINE
  8
LVL0001
 10
       17.000030
 20
     -344.859435
 30
        0.000000
 11
       17.000030
 21
     -308.859435
 31
        0.000000
  0
CIRCLE
  8
LVL0000
 10
      100.500000
 20
     -412.859435
 30
        0.000000
 40
        1.500000
  0
CIRCLE
  8
LVL0000
 10
      100.500000
 20
     -432.859435
 30
        0.000000
 40
        1.500000
  0
CIRCLE
  8
LVL0000
 10
      100.500000
 20
     -432.859435
 30
        0.000000
 40
        1.200000
  0
CIRCLE
  8
LVL0000
 10
      100.500000
 20
     -412.859435
 30
        0.000000
 40
        1.200000
  0
LINE
  8
LVL0000
 10
      144.220000
 20
     -414.544435
 30
        0.000000
 11
      142.500000
 21
     -414.544435
 31
        0.000000
  0
LINE
  8
LVL0000
 10
      144.220000
 20
     -414.544435
 30
        0.000000
 11
      144.220000
 21
     -431.174435
 31
        0.000000
  0
ARC
  8
LVL0000
 10
      141.900000
 20
     -408.559435
 30
        0.000000
 40
        0.600000
 50
        0.000000
 51
       90.000000
  0
LINE
  8
LVL0000
 10
      141.900000
 20
     -407.959435
 30
        0.000000
 11
      103.000000
 21
     -407.959435
 31
        0.000000
  0
LINE
  8
LVL0000
 10
      142.500000
 20
     -437.359435
 30
        0.000000
 11
      142.500000
 21
     -408.559435
 31
        0.000000
  0
ARC
  8
LVL0000
 10
       96.500000
 20
     -437.359435
 30
        0.000000
 40
        0.500000
 50
      179.999995
 51
      270.000000
  0
LINE
  8
LVL0000
 10
       96.000000
 20
     -422.859435
 30
        0.000000
 11
       96.000000
 21
     -437.359435
 31
        0.000000
  0
LINE
  8
LVL0000
 10
      102.900000
 20
     -407.859435
 30
        0.000000
 11
       96.500000
 21
     -407.859435
 31
        0.000000
  0
LINE
  8
LVL0000
 10
       91.000000
 20
     -437.559435
 30
        0.000000
 11
       87.000000
 21
     -437.559435
 31
        0.000000
  0
LINE
  8
LVL0000
 10
       96.000000
 20
     -422.859435
 30
        0.000000
 11
       96.000000
 21
     -408.359435
 31
        0.000000
  0
LINE
  8
LVL0000
 10
       96.101333
 20
     -408.057667
 30
        0.000000
 11
       91.294764
 21
     -408.141566
 31
        0.000000
  0
ARC
  8
LVL0000
 10
       91.300000
 20
     -408.441520
 30
        0.000000
 40
        0.300000
 50
       90.999997
 51
      179.999995
  0
LINE
  8
LVL0000
 10
       91.000000
 20
     -408.441520
 30
        0.000000
 11
       91.000000
 21
     -437.277351
 31
        0.000000
  0
LINE
  8
LVL0000
 10
       96.000000
 20
     -437.659435
 30
        0.000000
 11
       91.294764
 21
     -437.577305
 31
        0.000000
  0
ARC
  8
LVL0000
 10
       91.300000
 20
     -437.277351
 30
        0.000000
 40
        0.300000
 50
      179.999995
 51
      269.000003
  0
ARC
  8
LVL0000
 10
       96.500000
 20
     -408.359435
 30
        0.000000
 40
        0.500000
 50
       90.000000
 51
      179.999995
  0
LINE
  8
LVL0000
 10
       91.000000
 20
     -408.159435
 30
        0.000000
 11
       87.000000
 21
     -408.159435
 31
        0.000000
  0
LINE
  8
LVL0000
 10
      103.000000
 20
     -407.959435
 30
        0.000000
 11
      103.000000
 21
     -435.259435
 31
        0.000000
  0
ARC
  8
LVL0000
 10
      103.400000
 20
     -435.359435
 30
        0.000000
 40
        0.500000
 50
      179.999995
 51
      270.000000
  0
LINE
  8
LVL0000
 10
      102.900000
 20
     -407.859435
 30
        0.000000
 11
      102.900000
 21
     -435.359435
 31
        0.000000
  0
ARC
  8
LVL0000
 10
      103.500000
 20
     -435.259435
 30
        0.000000
 40
        0.500000
 50
      179.999995
 51
      270.000000
  0
LINE
  8
LVL0000
 10
       87.000000
 20
     -436.359435
 30
        0.000000
 11
       86.000000
 21
     -436.359435
 31
        0.000000
  0
LINE
  8
LVL0000
 10
       87.000000
 20
     -437.559435
 30
        0.000000
 11
       87.000000
 21
     -422.859435
 31
        0.000000
  0
LINE
  8
LVL0000
 10
       86.000000
 20
     -436.359435
 30
        0.000000
 11
       86.000000
 21
     -422.859435
 31
        0.000000
  0
LINE
  8
LVL0000
 10
       87.000000
 20
     -409.359435
 30
        0.000000
 11
       86.000000
 21
     -409.359435
 31
        0.000000
  0
LINE
  8
LVL0000
 10
       86.000000
 20
     -409.359435
 30
        0.000000
 11
       86.000000
 21
     -422.859435
 31
        0.000000
  0
LINE
  8
LVL0000
 10
       87.000000
 20
     -408.159435
 30
        0.000000
 11
       87.000000
 21
     -422.859435
 31
        0.000000
  0
LINE
  8
LVL0000
 10
      142.500000
 20
     -435.859435
 30
        0.000000
 11
      103.400000
 21
     -435.859435
 31
        0.000000
  0
LINE
  8
LVL0000
 10
      142.500000
 20
     -435.759435
 30
        0.000000
 11
      103.500000
 21
     -435.759435
 31
        0.000000
  0
LINE
  8
LVL0000
 10
      142.000000
 20
     -437.859435
 30
        0.000000
 11
       96.500000
 21
     -437.859435
 31
        0.000000
  0
ARC
  8
LVL0000
 10
      142.000000
 20
     -437.359435
 30
        0.000000
 40
        0.500000
 50
      270.000000
 51
      360.000000
  0
LINE
  8
LVL0000
 10
      105.400000
 20
     -430.459435
 30
        0.000000
 11
      103.000000
 21
     -430.459435
 31
        0.000000
  0
LINE
  8
LVL0000
 10
      105.400000
 20
     -431.359435
 30
        0.000000
 11
      103.000000
 21
     -431.359435
 31
        0.000000
  0
ARC
  8
LVL0000
 10
      105.400000
 20
     -433.359435
 30
        0.000000
 40
        2.000000
 50
        0.000000
 51
       90.000000
  0
ARC
  8
LVL0000
 10
      105.400000
 20
     -433.359435
 30
        0.000000
 40
        2.900000
 50
        0.000000
 51
       90.000000
  0
LINE
  8
LVL0000
 10
      107.400000
 20
     -433.359435
 30
        0.000000
 11
      107.400000
 21
     -435.759435
 31
        0.000000
  0
LINE
  8
LVL0000
 10
      108.300000
 20
     -433.359435
 30
        0.000000
 11
      108.300000
 21
     -435.759435
 31
        0.000000
  0
LINE
  8
LVL0000
 10
      105.650000
 20
     -434.459436
 30
        0.000000
 11
      105.650000
 21
     -433.909434
 31
        0.000000
  0
LINE
  8
LVL0000
 10
      105.650000
 20
     -434.459436
 30
        0.000000
 11
      105.150000
 21
     -434.459436
 31
        0.000000
  0
LINE
  8
LVL0000
 10
      105.150000
 20
     -434.459436
 30
        0.000000
 11
      105.150000
 21
     -433.909434
 31
        0.000000
  0
ARC
  8
LVL0000
 10
      104.850000
 20
     -433.909434
 30
        0.000000
 40
        0.300000
 50
        0.000000
 51
       90.000000
  0
LINE
  8
LVL0000
 10
      104.850000
 20
     -433.609435
 30
        0.000000
 11
      104.300000
 21
     -433.609435
 31
        0.000000
  0
LINE
  8
LVL0000
 10
      104.300000
 20
     -433.609435
 30
        0.000000
 11
      104.300000
 21
     -433.109436
 31
        0.000000
  0
LINE
  8
LVL0000
 10
      104.850000
 20
     -433.109436
 30
        0.000000
 11
      104.300000
 21
     -433.109436
 31
        0.000000
  0
ARC
  8
LVL0000
 10
      104.850000
 20
     -432.809437
 30
        0.000000
 40
        0.300000
 50
      270.000000
 51
      360.000000
  0
LINE
  8
LVL0000
 10
      105.150000
 20
     -432.809437
 30
        0.000000
 11
      105.150000
 21
     -432.259435
 31
        0.000000
  0
LINE
  8
LVL0000
 10
      105.650000
 20
     -432.259435
 30
        0.000000
 11
      105.150000
 21
     -432.259435
 31
        0.000000
  0
LINE
  8
LVL0000
 10
      105.650000
 20
     -432.809437
 30
        0.000000
 11
      105.650000
 21
     -432.259435
 31
        0.000000
  0
ARC
  8
LVL0000
 10
      105.950000
 20
     -432.809437
 30
        0.000000
 40
        0.300000
 50
      180.000010
 51
      270.000000
  0
LINE
  8
LVL0000
 10
      106.500000
 20
     -433.109436
 30
        0.000000
 11
      105.950000
 21
     -433.109436
 31
        0.000000
  0
LINE
  8
LVL0000
 10
      106.500000
 20
     -433.609435
 30
        0.000000
 11
      106.500000
 21
     -433.109436
 31
        0.000000
  0
LINE
  8
LVL0000
 10
      106.500000
 20
     -433.609435
 30
        0.000000
 11
      105.950000
 21
     -433.609435
 31
        0.000000
  0
ARC
  8
LVL0000
 10
      105.950000
 20
     -433.909434
 30
        0.000000
 40
        0.300000
 50
       90.000000
 51
      180.000010
  0
CIRCLE
  8
LVL0000
 10
      105.400000
 20
     -433.359435
 30
        0.000000
 40
        1.750000
  0
LINE
  8
LVL0000
 10
      143.000000
 20
     -431.709435
 30
        0.000000
 11
      143.000000
 21
     -428.209435
 31
        0.000000
  0
LINE
  8
LVL0000
 10
      143.000000
 20
     -428.209435
 30
        0.000000
 11
      142.500000
 21
     -428.209435
 31
        0.000000
  0
LINE
  8
LVL0000
 10
      143.000000
 20
     -431.709435
 30
        0.000000
 11
      142.500000
 21
     -431.709435
 31
        0.000000
  0
LINE
  8
LVL0000
 10
      144.220000
 20
     -431.174435
 30
        0.000000
 11
      143.000000
 21
     -431.174435
 31
        0.000000
  0
LINE
  8
LVL0000
 10
       51.155583
 20
       37.107803
 30
        0.000000
 11
       51.155583
 21
       52.107803
 31
        0.000000
  0
LINE
  8
LVL0000
 10
       51.255583
 20
       37.207803
 30
        0.000000
 11
       51.255583
 21
       52.107803
 31
        0.000000
  0
LINE
  8
LVL0000
 10
       51.155583
 20
       67.107803
 30
        0.000000
 11
       51.155583
 21
       52.107803
 31
        0.000000
  0
LINE
  8
LVL0000
 10
       51.255583
 20
       67.007803
 30
        0.000000
 11
       51.255583
 21
       52.107803
 31
        0.000000
  0
CIRCLE
  8
LVL0000
 10
       53.655583
 20
       52.107803
 30
        0.000000
 40
        1.750000
  0
ARC
  8
LVL0000
 10
       53.655583
 20
       52.107803
 30
        0.000000
 40
        2.900000
 50
        0.000000
 51
       90.000000
  0
ARC
  8
LVL0000
 10
       53.655583
 20
       52.107803
 30
        0.000000
 40
        2.000000
 50
        0.000000
 51
       90.000000
  0
ARC
  8
LVL0000
 10
       53.655583
 20
       52.107803
 30
        0.000000
 40
        2.000000
 50
      270.000000
 51
      360.000000
  0
ARC
  8
LVL0000
 10
       53.655583
 20
       52.107803
 30
        0.000000
 40
        2.900000
 50
      270.000000
 51
      360.000000
  0
LINE
  8
LVL0000
 10
       53.655583
 20
       55.007803
 30
        0.000000
 11
       51.255583
 21
       55.007803
 31
        0.000000
  0
LINE
  8
LVL0000
 10
       53.655583
 20
       54.107803
 30
        0.000000
 11
       51.255583
 21
       54.107803
 31
        0.000000
  0
LINE
  8
LVL0000
 10
       53.655583
 20
       49.207803
 30
        0.000000
 11
       51.255583
 21
       49.207803
 31
        0.000000
  0
LINE
  8
LVL0000
 10
       52.555583
 20
       51.857804
 30
        0.000000
 11
       52.555583
 21
       52.357803
 31
        0.000000
  0
LINE
  8
LVL0000
 10
       54.755583
 20
       51.857804
 30
        0.000000
 11
       54.755583
 21
       52.357803
 31
        0.000000
  0
LINE
  8
LVL0000
 10
       53.405583
 20
       51.007803
 30
        0.000000
 11
       53.405583
 21
       51.557805
 31
        0.000000
  0
ARC
  8
LVL0000
 10
       53.105583
 20
       51.557805
 30
        0.000000
 40
        0.300000
 50
        0.000000
 51
       90.000000
  0
LINE
  8
LVL0000
 10
       53.105583
 20
       51.857804
 30
        0.000000
 11
       52.555583
 21
       51.857804
 31
        0.000000
  0
LINE
  8
LVL0000
 10
       53.105583
 20
       52.357803
 30
        0.000000
 11
       52.555583
 21
       52.357803
 31
        0.000000
  0
ARC
  8
LVL0000
 10
       53.105583
 20
       52.657802
 30
        0.000000
 40
        0.300000
 50
      270.000000
 51
      360.000000
  0
LINE
  8
LVL0000
 10
       53.405583
 20
       52.657802
 30
        0.000000
 11
       53.405583
 21
       53.207804
 31
        0.000000
  0
LINE
  8
LVL0000
 10
       54.755583
 20
       51.857804
 30
        0.000000
 11
       54.205583
 21
       51.857804
 31
        0.000000
  0
ARC
  8
LVL0000
 10
       54.205583
 20
       51.557805
 30
        0.000000
 40
        0.300000
 50
       90.000000
 51
      180.000010
  0
LINE
  8
LVL0000
 10
       53.905583
 20
       51.007803
 30
        0.000000
 11
       53.905583
 21
       51.557805
 31
        0.000000
  0
LINE
  8
LVL0000
 10
       53.905583
 20
       52.657802
 30
        0.000000
 11
       53.905583
 21
       53.207804
 31
        0.000000
  0
ARC
  8
LVL0000
 10
       54.205583
 20
       52.657802
 30
        0.000000
 40
        0.300000
 50
      180.000010
 51
      270.000000
  0
LINE
  8
LVL0000
 10
       54.755583
 20
       52.357803
 30
        0.000000
 11
       54.205583
 21
       52.357803
 31
        0.000000
  0
LINE
  8
LVL0000
 10
       53.905583
 20
       51.007803
 30
        0.000000
 11
       53.405583
 21
       51.007803
 31
        0.000000
  0
LINE
  8
LVL0000
 10
       53.905583
 20
       53.207804
 30
        0.000000
 11
       53.405583
 21
       53.207804
 31
        0.000000
  0
LINE
  8
LVL0000
 10
       53.655583
 20
       50.107803
 30
        0.000000
 11
       51.255583
 21
       50.107803
 31
        0.000000
  0
LINE
  8
LVL0000
 10
        0.000000
 20
      -92.059826
 30
        0.000000
 11
       14.400000
 21
      -92.059826
 31
        0.000000
  0
LINE
  8
LVL0000
 10
        8.060000
 20
      -93.779826
 30
        0.000000
 11
        8.060000
 21
      -92.059826
 31
        0.000000
  0
LINE
  8
LVL0000
 10
        8.060000
 20
      -93.779826
 30
        0.000000
 11
       -8.060000
 21
      -93.779826
 31
        0.000000
  0
LINE
  8
LVL0000
 10
       -8.060000
 20
      -93.779826
 30
        0.000000
 11
       -8.060000
 21
      -92.059826
 31
        0.000000
  0
LINE
  8
LVL0000
 10
        0.000000
 20
      -92.059826
 30
        0.000000
 11
      -14.500000
 21
      -92.059826
 31
        0.000000
  0
ARC
  8
LVL0000
 10
      -14.500000
 20
      -91.559826
 30
        0.000000
 40
        0.500000
 50
      179.999995
 51
      270.000000
  0
ARC
  8
LVL0000
 10
       14.500000
 20
      -91.559826
 30
        0.000000
 40
        0.500000
 50
      270.000000
 51
      360.000000
  0
CIRCLE
  8
LVL0000
 10
        7.000000
 20
      -87.059826
 30
        0.000000
 40
        1.000000
  0
CIRCLE
  8
LVL0000
 10
       11.000000
 20
      -87.059826
 30
        0.000000
 40
        2.000000
  0
CIRCLE
  8
LVL0000
 10
       10.000000
 20
      -80.059826
 30
        0.000000
 40
        1.200000
  0
CIRCLE
  8
LVL0000
 10
       10.000000
 20
      -80.059826
 30
        0.000000
 40
        1.500000
  0
CIRCLE
  8
LVL0000
 10
      -10.000000
 20
      -80.059826
 30
        0.000000
 40
        1.500000
  0
CIRCLE
  8
LVL0000
 10
      -10.000000
 20
      -80.059826
 30
        0.000000
 40
        1.200000
  0
LINE
  8
LVL0000
 10
       12.100000
 20
      -86.809827
 30
        0.000000
 11
       12.100000
 21
      -87.309825
 31
        0.000000
  0
LINE
  8
LVL0000
 10
       10.750000
 20
      -88.159826
 30
        0.000000
 11
       11.250000
 21
      -88.159826
 31
        0.000000
  0
ARC
  8
LVL0000
 10
       10.450000
 20
      -87.609824
 30
        0.000000
 40
        0.300000
 50
        0.000005
 51
       90.000000
  0
LINE
  8
LVL0000
 10
       10.750000
 20
      -87.609824
 30
        0.000000
 11
       10.750000
 21
      -88.159826
 31
        0.000000
  0
LINE
  8
LVL0000
 10
       11.250000
 20
      -87.609824
 30
        0.000000
 11
       11.250000
 21
      -88.159826
 31
        0.000000
  0
ARC
  8
LVL0000
 10
       11.550000
 20
      -87.609824
 30
        0.000000
 40
        0.300000
 50
       90.000000
 51
      179.999995
  0
LINE
  8
LVL0000
 10
        9.900000
 20
      -87.309825
 30
        0.000000
 11
       10.450000
 21
      -87.309825
 31
        0.000000
  0
LINE
  8
LVL0000
 10
       10.750000
 20
      -85.959825
 30
        0.000000
 11
       10.750000
 21
      -86.509827
 31
        0.000000
  0
ARC
  8
LVL0000
 10
       10.450000
 20
      -86.509827
 30
        0.000000
 40
        0.300000
 50
      270.000000
 51
      360.000005
  0
LINE
  8
LVL0000
 10
        9.900000
 20
      -86.809827
 30
        0.000000
 11
       10.450000
 21
      -86.809827
 31
        0.000000
  0
LINE
  8
LVL0000
 10
       11.550000
 20
      -87.309825
 30
        0.000000
 11
       12.100000
 21
      -87.309825
 31
        0.000000
  0
LINE
  8
LVL0000
 10
       11.550000
 20
      -86.809827
 30
        0.000000
 11
       12.100000
 21
      -86.809827
 31
        0.000000
  0
ARC
  8
LVL0000
 10
       11.550000
 20
      -86.509827
 30
        0.000000
 40
        0.300000
 50
      179.999995
 51
      270.000000
  0
LINE
  8
LVL0000
 10
       11.250000
 20
      -85.959825
 30
        0.000000
 11
       11.250000
 21
      -86.509827
 31
        0.000000
  0
LINE
  8
LVL0000
 10
        9.900000
 20
      -86.809827
 30
        0.000000
 11
        9.900000
 21
      -87.309825
 31
        0.000000
  0
LINE
  8
LVL0000
 10
       10.750000
 20
      -85.959825
 30
        0.000000
 11
       11.250000
 21
      -85.959825
 31
        0.000000
  0
CIRCLE
  8
LVL0000
 10
       11.000000
 20
      -87.059826
 30
        0.000000
 40
        1.750000
  0
CIRCLE
  8
LVL0000
 10
      -11.000000
 20
      -87.059826
 30
        0.000000
 40
        2.000000
  0
CIRCLE
  8
LVL0000
 10
       -7.000000
 20
      -87.059826
 30
        0.000000
 40
        1.000000
  0
CIRCLE
  8
LVL0000
 10
      -11.000000
 20
      -87.059826
 30
        0.000000
 40
        1.750000
  0
LINE
  8
LVL0000
 10
      -10.750000
 20
      -85.959825
 30
        0.000000
 11
      -11.250000
 21
      -85.959825
 31
        0.000000
  0
LINE
  8
LVL0000
 10
       -9.900000
 20
      -86.809827
 30
        0.000000
 11
       -9.900000
 21
      -87.309825
 31
        0.000000
  0
LINE
  8
LVL0000
 10
      -11.250000
 20
      -85.959825
 30
        0.000000
 11
      -11.250000
 21
      -86.509827
 31
        0.000000
  0
ARC
  8
LVL0000
 10
      -11.550000
 20
      -86.509827
 30
        0.000000
 40
        0.300000
 50
      270.000000
 51
      360.000000
  0
LINE
  8
LVL0000
 10
      -11.550000
 20
      -86.809827
 30
        0.000000
 11
      -12.100000
 21
      -86.809827
 31
        0.000000
  0
LINE
  8
LVL0000
 10
      -11.550000
 20
      -87.309825
 30
        0.000000
 11
      -12.100000
 21
      -87.309825
 31
        0.000000
  0
LINE
  8
LVL0000
 10
       -9.900000
 20
      -86.809827
 30
        0.000000
 11
      -10.450000
 21
      -86.809827
 31
        0.000000
  0
ARC
  8
LVL0000
 10
      -10.450000
 20
      -86.509827
 30
        0.000000
 40
        0.300000
 50
      179.999990
 51
      270.000000
  0
LINE
  8
LVL0000
 10
      -10.750000
 20
      -85.959825
 30
        0.000000
 11
      -10.750000
 21
      -86.509827
 31
        0.000000
  0
LINE
  8
LVL0000
 10
       -9.900000
 20
      -87.309825
 30
        0.000000
 11
      -10.450000
 21
      -87.309825
 31
        0.000000
  0
ARC
  8
LVL0000
 10
      -11.550000
 20
      -87.609824
 30
        0.000000
 40
        0.300000
 50
        0.000000
 51
       90.000000
  0
LINE
  8
LVL0000
 10
      -11.250000
 20
      -87.609824
 30
        0.000000
 11
      -11.250000
 21
      -88.159826
 31
        0.000000
  0
LINE
  8
LVL0000
 10
      -10.750000
 20
      -87.609824
 30
        0.000000
 11
      -10.750000
 21
      -88.159826
 31
        0.000000
  0
ARC
  8
LVL0000
 10
      -10.450000
 20
      -87.609824
 30
        0.000000
 40
        0.300000
 50
       90.000000
 51
      179.999990
  0
LINE
  8
LVL0000
 10
      -10.750000
 20
      -88.159826
 30
        0.000000
 11
      -11.250000
 21
      -88.159826
 31
        0.000000
  0
LINE
  8
LVL0000
 10
      -12.100000
 20
      -86.809827
 30
        0.000000
 11
      -12.100000
 21
      -87.309825
 31
        0.000000
  0
LINE
  8
LVL0000
 10
        9.550000
 20
      -92.559826
 30
        0.000000
 11
       13.050000
 21
      -92.559826
 31
        0.000000
  0
LINE
  8
LVL0000
 10
       13.050000
 20
      -92.059826
 30
        0.000000
 11
       13.050000
 21
      -92.559826
 31
        0.000000
  0
LINE
  8
LVL0000
 10
        9.550000
 20
      -92.059826
 30
        0.000000
 11
        9.550000
 21
      -92.559826
 31
        0.000000
  0
LINE
  8
LVL0000
 10
       -9.550000
 20
      -92.059826
 30
        0.000000
 11
       -9.550000
 21
      -92.559826
 31
        0.000000
  0
LINE
  8
LVL0000
 10
      -13.050000
 20
      -92.059826
 30
        0.000000
 11
      -13.050000
 21
      -92.559826
 31
        0.000000
  0
LINE
  8
LVL0000
 10
       -9.550000
 20
      -92.559826
 30
        0.000000
 11
      -13.050000
 21
      -92.559826
 31
        0.000000
  0
LINE
  8
LVL0000
 10
        8.060000
 20
     -111.834070
 30
        0.000000
 11
        8.060000
 21
     -128.464070
 31
        0.000000
  0
LINE
  8
LVL0000
 10
        6.000000
 20
     -116.634070
 30
        0.000000
 11
        6.000000
 21
     -123.614070
 31
        0.000000
  0
LINE
  8
LVL0000
 10
       -6.000000
 20
     -116.634070
 30
        0.000000
 11
        6.000000
 21
     -116.634070
 31
        0.000000
  0
LINE
  8
LVL0000
 10
       -6.000000
 20
     -116.634070
 30
        0.000000
 11
       -6.000000
 21
     -123.614070
 31
        0.000000
  0
LINE
  8
LVL0000
 10
       -4.200000
 20
     -116.634070
 30
        0.000000
 11
       -4.200000
 21
     -120.714070
 31
        0.000000
  0
LINE
  8
LVL0000
 10
       -3.000000
 20
     -116.634070
 30
        0.000000
 11
       -3.000000
 21
     -120.714070
 31
        0.000000
  0
LINE
  8
LVL0000
 10
       -1.800000
 20
     -116.634070
 30
        0.000000
 11
       -1.800000
 21
     -120.714070
 31
        0.000000
  0
LINE
  8
LVL0000
 10
        0.600000
 20
     -116.634070
 30
        0.000000
 11
        0.600000
 21
     -120.714070
 31
        0.000000
  0
LINE
  8
LVL0000
 10
       -0.600000
 20
     -116.634070
 30
        0.000000
 11
       -0.600000
 21
     -120.714070
 31
        0.000000
  0
LINE
  8
LVL0000
 10
        4.200000
 20
     -116.634070
 30
        0.000000
 11
        4.200000
 21
     -120.714070
 31
        0.000000
  0
LINE
  8
LVL0000
 10
        3.000000
 20
     -116.634070
 30
        0.000000
 11
        3.000000
 21
     -120.714070
 31
        0.000000
  0
LINE
  8
LVL0000
 10
        1.800000
 20
     -116.634070
 30
        0.000000
 11
        1.800000
 21
     -120.714070
 31
        0.000000
  0
LINE
  8
LVL0000
 10
       -8.060000
 20
     -111.834070
 30
        0.000000
 11
        8.060000
 21
     -111.834070
 31
        0.000000
  0
LINE
  8
LVL0000
 10
       -8.060000
 20
     -111.834070
 30
        0.000000
 11
       -8.060000
 21
     -128.464070
 31
        0.000000
  0
LINE
  8
LVL0000
 10
        8.300000
 20
     -128.249070
 30
        0.000000
 11
        8.300000
 21
     -112.049070
 31
        0.000000
  0
ARC
  8
LVL0000
 10
        7.800000
 20
     -112.049070
 30
        0.000000
 40
        0.500000
 50
        0.000000
 51
       90.000000
  0
LINE
  8
LVL0000
 10
       -7.800000
 20
     -111.549070
 30
        0.000000
 11
        7.800000
 21
     -111.549070
 31
        0.000000
  0
LINE
  8
LVL0000
 10
       -8.300000
 20
     -128.249070
 30
        0.000000
 11
       -8.300000
 21
     -112.049070
 31
        0.000000
  0
ARC
  8
LVL0000
 10
       -7.800000
 20
     -112.049070
 30
        0.000000
 40
        0.500000
 50
       90.000000
 51
      179.999995
  0
LINE
  8
LVL0000
 10
      -15.000000
 20
     -134.549070
 30
        0.000000
 11
      -15.000000
 21
     -105.749070
 31
        0.000000
  0
ARC
  8
LVL0000
 10
      -14.400000
 20
     -105.749070
 30
        0.000000
 40
        0.600000
 50
       90.000000
 51
      179.999995
  0
CIRCLE
  8
LVL0000
 10
      -11.300000
 20
     -113.049070
 30
        0.000000
 40
        1.750000
  0
CIRCLE
  8
LVL0000
 10
       11.300000
 20
     -113.049070
 30
        0.000000
 40
        1.750000
  0
LINE
  8
LVL0000
 10
       11.050000
 20
     -111.949069
 30
        0.000000
 11
       11.550000
 21
     -111.949069
 31
        0.000000
  0
LINE
  8
LVL0000
 10
       10.200000
 20
     -112.799070
 30
        0.000000
 11
       10.200000
 21
     -113.299069
 31
        0.000000
  0
LINE
  8
LVL0000
 10
       11.550000
 20
     -111.949069
 30
        0.000000
 11
       11.550000
 21
     -112.499071
 31
        0.000000
  0
ARC
  8
LVL0000
 10
       11.850000
 20
     -112.499071
 30
        0.000000
 40
        0.300000
 50
      179.999995
 51
      270.000000
  0
LINE
  8
LVL0000
 10
       11.850000
 20
     -112.799070
 30
        0.000000
 11
       12.400000
 21
     -112.799070
 31
        0.000000
  0
LINE
  8
LVL0000
 10
       11.850000
 20
     -113.299069
 30
        0.000000
 11
       12.400000
 21
     -113.299069
 31
        0.000000
  0
LINE
  8
LVL0000
 10
       10.200000
 20
     -112.799070
 30
        0.000000
 11
       10.750000
 21
     -112.799070
 31
        0.000000
  0
ARC
  8
LVL0000
 10
       10.750000
 20
     -112.499071
 30
        0.000000
 40
        0.300000
 50
      270.000000
 51
      360.000005
  0
LINE
  8
LVL0000
 10
       11.050000
 20
     -111.949069
 30
        0.000000
 11
       11.050000
 21
     -112.499071
 31
        0.000000
  0
LINE
  8
LVL0000
 10
       10.200000
 20
     -113.299069
 30
        0.000000
 11
       10.750000
 21
     -113.299069
 31
        0.000000
  0
ARC
  8
LVL0000
 10
       11.850000
 20
     -113.599068
 30
        0.000000
 40
        0.300000
 50
       90.000000
 51
      179.999995
  0
LINE
  8
LVL0000
 10
       11.550000
 20
     -113.599068
 30
        0.000000
 11
       11.550000
 21
     -114.149070
 31
        0.000000
  0
LINE
  8
LVL0000
 10
       11.050000
 20
     -113.599068
 30
        0.000000
 11
       11.050000
 21
     -114.149070
 31
        0.000000
  0
ARC
  8
LVL0000
 10
       10.750000
 20
     -113.599068
 30
        0.000000
 40
        0.300000
 50
        0.000005
 51
       90.000000
  0
LINE
  8
LVL0000
 10
       11.050000
 20
     -114.149070
 30
        0.000000
 11
       11.550000
 21
     -114.149070
 31
        0.000000
  0
LINE
  8
LVL0000
 10
       12.400000
 20
     -112.799070
 30
        0.000000
 11
       12.400000
 21
     -113.299069
 31
        0.000000
  0
LINE
  8
LVL0000
 10
      -12.400000
 20
     -112.799070
 30
        0.000000
 11
      -12.400000
 21
     -113.299069
 31
        0.000000
  0
LINE
  8
LVL0000
 10
      -10.200000
 20
     -112.799070
 30
        0.000000
 11
      -10.200000
 21
     -113.299069
 31
        0.000000
  0
LINE
  8
LVL0000
 10
      -11.550000
 20
     -111.949069
 30
        0.000000
 11
      -11.550000
 21
     -112.499071
 31
        0.000000
  0
ARC
  8
LVL0000
 10
      -11.850000
 20
     -112.499071
 30
        0.000000
 40
        0.300000
 50
      270.000000
 51
      360.000000
  0
LINE
  8
LVL0000
 10
      -11.850000
 20
     -112.799070
 30
        0.000000
 11
      -12.400000
 21
     -112.799070
 31
        0.000000
  0
LINE
  8
LVL0000
 10
      -11.850000
 20
     -113.299069
 30
        0.000000
 11
      -12.400000
 21
     -113.299069
 31
        0.000000
  0
ARC
  8
LVL0000
 10
      -11.850000
 20
     -113.599068
 30
        0.000000
 40
        0.300000
 50
        0.000000
 51
       90.000000
  0
LINE
  8
LVL0000
 10
      -11.550000
 20
     -113.599068
 30
        0.000000
 11
      -11.550000
 21
     -114.149070
 31
        0.000000
  0
LINE
  8
LVL0000
 10
      -10.200000
 20
     -112.799070
 30
        0.000000
 11
      -10.750000
 21
     -112.799070
 31
        0.000000
  0
ARC
  8
LVL0000
 10
      -10.750000
 20
     -112.499071
 30
        0.000000
 40
        0.300000
 50
      179.999990
 51
      270.000000
  0
LINE
  8
LVL0000
 10
      -11.050000
 20
     -111.949069
 30
        0.000000
 11
      -11.050000
 21
     -112.499071
 31
        0.000000
  0
LINE
  8
LVL0000
 10
      -11.050000
 20
     -113.599068
 30
        0.000000
 11
      -11.050000
 21
     -114.149070
 31
        0.000000
  0
ARC
  8
LVL0000
 10
      -10.750000
 20
     -113.599068
 30
        0.000000
 40
        0.300000
 50
       90.000000
 51
      179.999990
  0
LINE
  8
LVL0000
 10
      -10.200000
 20
     -113.299069
 30
        0.000000
 11
      -10.750000
 21
     -113.299069
 31
        0.000000
  0
LINE
  8
LVL0000
 10
      -11.050000
 20
     -111.949069
 30
        0.000000
 11
      -11.550000
 21
     -111.949069
 31
        0.000000
  0
LINE
  8
LVL0000
 10
      -11.050000
 20
     -114.149070
 30
        0.000000
 11
      -11.550000
 21
     -114.149070
 31
        0.000000
  0
LINE
  8
LVL0000
 10
       15.000000
 20
     -107.149070
 30
        0.000000
 11
      -15.000000
 21
     -107.149070
 31
        0.000000
  0
LINE
  8
LVL0000
 10
       15.000000
 20
     -134.549070
 30
        0.000000
 11
       15.000000
 21
     -105.749070
 31
        0.000000
  0
ARC
  8
LVL0000
 10
       14.400000
 20
     -105.749070
 30
        0.000000
 40
        0.600000
 50
        0.000000
 51
       90.000000
  0
LINE
  8
LVL0000
 10
       14.400000
 20
     -105.149070
 30
        0.000000
 11
      -14.400000
 21
     -105.149070
 31
        0.000000
  0
ARC
  8
LVL0000
 10
       90.155583
 20
       14.300000
 30
        0.000000
 40
        0.600000
 50
        0.000000
 51
       90.000000
  0
ARC
  8
LVL0000
 10
       90.255583
 20
      -14.500000
 30
        0.000000
 40
        0.500000
 50
      270.000000
 51
      360.000000
  0
LINE
  8
LVL0000
 10
       55.655583
 20
      -10.500000
 30
        0.000000
 11
       55.655583
 21
      -12.900000
 31
        0.000000
  0
LINE
  8
LVL0000
 10
       56.555583
 20
      -10.500000
 30
        0.000000
 11
       56.555583
 21
      -12.900000
 31
        0.000000
  0
LINE
  8
LVL0000
 10
       54.755583
 20
      -10.749999
 30
        0.000000
 11
       54.755583
 21
      -10.250001
 31
        0.000000
  0
LINE
  8
LVL0000
  6
DOT
 62
  2
 10
       80.575583
 20
       -3.315000
 30
        0.000000
 11
       92.475583
 21
       -3.315000
 31
        0.000000
  0
LINE
  8
LVL0000
 10
       92.475583
 20
        6.119247
 30
        0.000000
 11
       93.975583
 21
        6.459583
 31
        0.000000
  0
LINE
  8
LVL0000
 10
       92.475583
 20
        7.144664
 30
        0.000000
 11
       93.975583
 21
        7.485000
 31
        0.000000
  0
LINE
  8
LVL0000
 10
       92.475583
 20
        3.285000
 30
        0.000000
 11
       93.975583
 21
        3.285000
 31
        0.000000
  0
LINE
  8
LVL0000
 10
       92.475583
 20
       -3.315000
 30
        0.000000
 11
       93.975583
 21
       -3.315000
 31
        0.000000
  0
LINE
  8
LVL0000
 10
       93.975583
 20
        3.685000
 30
        0.000000
 11
      106.975583
 21
        3.685000
 31
        0.000000
  0
LINE
  8
LVL0000
 10
       93.975583
 20
       -6.315000
 30
        0.000000
 11
      106.975583
 21
       -6.315000
 31
        0.000000
  0
LINE
  8
LVL0000
 10
       93.975583
 20
       10.185000
 30
        0.000000
 11
       99.375583
 21
       10.185000
 31
        0.000000
  0
LINE
  8
LVL0000
 10
       93.975583
 20
       10.185000
 30
        0.000000
 11
       93.975583
 21
       -6.315000
 31
        0.000000
  0
LINE
  8
LVL0000
 10
      106.975583
 20
        3.685000
 30
        0.000000
 11
      106.975583
 21
       -6.315000
 31
        0.000000
  0
LINE
  8
LVL0000
 10
      123.475583
 20
        2.785000
 30
        0.000000
 11
      111.975583
 21
        3.335000
 31
        0.000000
  0
LINE
  8
LVL0000
 10
      111.975583
 20
        3.335000
 30
        0.000000
 11
      111.975583
 21
       -5.965000
 31
        0.000000
  0
LINE
  8
LVL0000
 10
      123.475583
 20
        2.785000
 30
        0.000000
 11
      123.475583
 21
       -5.415000
 31
        0.000000
  0
LINE
  8
LVL0000
 10
      123.475583
 20
       -5.415000
 30
        0.000000
 11
      111.975583
 21
       -5.965000
 31
        0.000000
  0
LINE
  8
LVL0000
 10
      111.975583
 20
       -5.965000
 30
        0.000000
 11
      106.975583
 21
       -6.315000
 31
        0.000000
  0
LINE
  8
LVL0000
 10
      111.975583
 20
        3.335000
 30
        0.000000
 11
      106.975583
 21
        3.685000
 31
        0.000000
  0
ARC
  8
LVL0000
 10
       99.375583
 20
        5.185000
 30
        0.000000
 40
        5.000000
 50
        0.000000
 51
       90.000000
  0
LINE
  8
LVL0000
 10
      104.375583
 20
        5.185000
 30
        0.000000
 11
      104.375583
 21
        3.685000
 31
        0.000000
  0
LINE
  8
LVL0000
 10
      254.894812
 20
        3.335000
 30
        0.000000
 11
      254.894812
 21
       -5.965000
 31
        0.000000
  0
LINE
  8
LVL0000
 10
      243.394812
 20
        2.785000
 30
        0.000000
 11
      254.894812
 21
        3.335000
 31
        0.000000
  0
LINE
  8
LVL0000
 10
      272.894812
 20
       -6.315000
 30
        0.000000
 11
      259.894812
 21
       -6.315000
 31
        0.000000
  0
LINE
  8
LVL0000
 10
      259.894812
 20
        3.685000
 30
        0.000000
 11
      259.894812
 21
       -6.315000
 31
        0.000000
  0
LINE
  8
LVL0000
 10
      272.894812
 20
        3.685000
 30
        0.000000
 11
      259.894812
 21
        3.685000
 31
        0.000000
  0
LINE
  8
LVL0000
 10
      286.294812
 20
       -3.315000
 30
        0.000000
 11
      272.894812
 21
       -3.315000
 31
        0.000000
  0
LINE
  8
LVL0000
 10
      286.294812
 20
        3.285000
 30
        0.000000
 11
      272.894812
 21
        3.285000
 31
        0.000000
  0
LINE
  8
LVL0000
 10
      286.294812
 20
        3.285000
 30
        0.000000
 11
      286.294812
 21
       -3.315000
 31
        0.000000
  0
LINE
  8
LVL0000
 10
      287.294812
 20
        1.785000
 30
        0.000000
 11
      286.294812
 21
        1.785000
 31
        0.000000
  0
LINE
  8
LVL0000
 10
      284.794812
 20
        3.759583
 30
        0.000000
 11
      284.794812
 21
        3.285000
 31
        0.000000
  0
LINE
  8
LVL0000
 10
      279.294812
 20
        6.032899
 30
        0.000000
 11
      279.294812
 21
        5.007482
 31
        0.000000
  0
LINE
  8
LVL0000
 10
      284.794812
 20
        3.759583
 30
        0.000000
 11
      272.894812
 21
        6.459583
 31
        0.000000
  0
LINE
  8
LVL0000
 10
      284.794812
 20
        4.785000
 30
        0.000000
 11
      272.894812
 21
        7.485000
 31
        0.000000
  0
LINE
  8
LVL0000
 10
      287.294812
 20
        4.785000
 30
        0.000000
 11
      284.794812
 21
        4.785000
 31
        0.000000
  0
LINE
  8
LVL0000
 10
      287.294812
 20
        4.785000
 30
        0.000000
 11
      287.294812
 21
        1.785000
 31
        0.000000
  0
LINE
  8
LVL0000
 10
      262.494812
 20
        5.185000
 30
        0.000000
 11
      262.494812
 21
        3.685000
 31
        0.000000
  0
LINE
  8
LVL0000
 10
      272.894812
 20
       10.185000
 30
        0.000000
 11
      272.894812
 21
       -6.315000
 31
        0.000000
  0
LINE
  8
LVL0000
 10
      272.894812
 20
       10.185000
 30
        0.000000
 11
      267.494812
 21
       10.185000
 31
        0.000000
  0
ARC
  8
LVL0000
 10
      267.494812
 20
        5.185000
 30
        0.000000
 40
        5.000000
 50
       90.000000
 51
      179.999995
  0
LINE
  8
LVL0000
 10
      254.894812
 20
        3.335000
 30
        0.000000
 11
      259.894812
 21
        3.685000
 31
        0.000000
  0
LINE
  8
LVL0000
 10
      254.894812
 20
       -5.965000
 30
        0.000000
 11
      259.894812
 21
       -6.315000
 31
        0.000000
  0
LINE
  8
LVL0000
 10
      243.394812
 20
       -5.415000
 30
        0.000000
 11
      254.894812
 21
       -5.965000
 31
        0.000000
  0
LINE
  8
LVL0000
 10
      243.394812
 20
        2.785000
 30
        0.000000
 11
      243.394812
 21
       -5.415000
 31
        0.000000
  0
LINE
  8
LVL0000
 10
      123.475583
 20
        1.935000
 30
        0.000000
 11
      182.613872
 21
        1.935000
 31
        0.000000
  0
LINE
  8
LVL0000
 10
      243.394812
 20
        1.935000
 30
        0.000000
 11
      184.613872
 21
        1.935000
 31
        0.000000
  0
LINE
  8
LVL0000
 10
      123.475583
 20
       -4.565000
 30
        0.000000
 11
      181.317909
 21
       -4.565000
 31
        0.000000
  0
LINE
  8
LVL0000
 10
      243.394812
 20
       -4.565000
 30
        0.000000
 11
      183.317909
 21
       -4.565000
 31
        0.000000
  0
INSERT
  8
LVL0000
 62
  2
  2
BLK0005
 10
        0.000000
 20
        0.000000
  0
INSERT
  8
LVL0000
 62
  2
  2
BLK0006
 10
        0.000000
 20
        0.000000
  0
LINE
  8
LVL0000
  6
DOT
 62
  2
 10
       79.575583
 20
        4.785000
 30
        0.000000
 11
       79.575583
 21
        1.785000
 31
        0.000000
  0
LINE
  8
LVL0000
  6
DOT
 62
  2
 10
       79.575583
 20
        1.785000
 30
        0.000000
 11
       80.575583
 21
        1.785000
 31
        0.000000
  0
LINE
  8
LVL0000
  6
DOT
 62
  2
 10
       82.075583
 20
        3.759583
 30
        0.000000
 11
       82.075583
 21
        3.285000
 31
        0.000000
  0
LINE
  8
LVL0000
  6
DOT
 62
  2
 10
       87.575583
 20
        6.032899
 30
        0.000000
 11
       87.575583
 21
        5.007482
 31
        0.000000
  0
LINE
  8
LVL0000
  6
DOT
 62
  2
 10
       79.575583
 20
        4.785000
 30
        0.000000
 11
       82.075583
 21
        4.785000
 31
        0.000000
  0
LINE
  8
LVL0000
  6
DOT
 62
  2
 10
       80.575583
 20
        3.285000
 30
        0.000000
 11
       80.575583
 21
       -3.315000
 31
        0.000000
  0
LINE
  8
LVL0000
  6
DOT
 62
  2
 10
       80.575583
 20
        3.285000
 30
        0.000000
 11
       92.475583
 21
        3.285000
 31
        0.000000
  0
LINE
  8
LVL0000
  6
DOT
 62
  2
 10
       82.075583
 20
        4.785000
 30
        0.000000
 11
       92.475583
 21
        7.144664
 31
        0.000000
  0
LINE
  8
LVL0000
  6
DOT
 62
  2
 10
       82.075583
 20
        3.759583
 30
        0.000000
 11
       92.475583
 21
        6.119247
 31
        0.000000
  0
ARC
  8
LVL0000
 10
       14.400000
 20
     -134.549070
 30
        0.000000
 40
        0.600000
 50
      270.000000
 51
      360.000000
  0
LINE
  8
LVL0000
 10
       14.400000
 20
     -135.149070
 30
        0.000000
 11
      -14.400000
 21
     -135.149070
 31
        0.000000
  0
ARC
  8
LVL0000
 10
      -14.400000
 20
     -134.549070
 30
        0.000000
 40
        0.600000
 50
      179.999995
 51
      270.000000
  0
LINE
  8
LVL0000
 10
        7.000000
 20
        6.000000
 30
        0.000000
 11
        7.000000
 21
       -6.000000
 31
        0.000000
  0
ARC
  8
LVL0000
 10
        6.000000
 20
        6.000000
 30
        0.000000
 40
        1.000000
 50
        0.000000
 51
       90.000000
  0
LINE
  8
LVL0000
 10
        6.000000
 20
        7.000000
 30
        0.000000
 11
       -6.000000
 21
        7.000000
 31
        0.000000
  0
ARC
  8
LVL0000
 10
       -6.000000
 20
        6.000000
 30
        0.000000
 40
        1.000000
 50
       90.000000
 51
      179.999995
  0
LINE
  8
LVL0000
 10
       -7.000000
 20
        6.000000
 30
        0.000000
 11
       -7.000000
 21
       -6.000000
 31
        0.000000
  0
ARC
  8
LVL0000
 10
       -6.000000
 20
       -6.000000
 30
        0.000000
 40
        1.000000
 50
      179.999995
 51
      270.000000
  0
LINE
  8
LVL0000
 10
        6.000000
 20
       -7.000000
 30
        0.000000
 11
       -6.000000
 21
       -7.000000
 31
        0.000000
  0
ARC
  8
LVL0000
 10
        6.000000
 20
       -6.000000
 30
        0.000000
 40
        1.000000
 50
      270.000000
 51
      360.000000
  0
CIRCLE
  8
LVL0000
 10
        0.000000
 20
        0.000000
 30
        0.000000
 40
       13.500000
  0
CIRCLE
  8
LVL0000
 10
        0.000000
 20
        0.000000
 30
        0.000000
 40
       12.270000
  0
CIRCLE
  8
LVL0000
 10
        0.000000
 20
        0.000000
 30
        0.000000
 40
       14.700000
  0
CIRCLE
  8
LVL0000
 10
        0.000000
 20
        0.000000
 30
        0.000000
 40
       14.800000
  0
ARC
  8
LVL0000
 10
       14.400000
 20
      -14.400000
 30
        0.000000
 40
        0.600000
 50
      270.000000
 51
      360.000000
  0
LINE
  8
LVL0000
 10
       15.000000
 20
       14.400000
 30
        0.000000
 11
       15.000000
 21
      -14.400000
 31
        0.000000
  0
ARC
  8
LVL0000
 10
       14.400000
 20
       14.400000
 30
        0.000000
 40
        0.600000
 50
        0.000000
 51
       90.000000
  0
LINE
  8
LVL0000
 10
       14.400000
 20
       15.000000
 30
        0.000000
 11
      -14.400000
 21
       15.000000
 31
        0.000000
  0
ARC
  8
LVL0000
 10
      -14.400000
 20
       14.400000
 30
        0.000000
 40
        0.600000
 50
       90.000000
 51
      179.999995
  0
LINE
  8
LVL0000
 10
      -15.000000
 20
       14.400000
 30
        0.000000
 11
      -15.000000
 21
      -14.400000
 31
        0.000000
  0
LINE
  8
LVL0000
 10
       14.400000
 20
      -15.000000
 30
        0.000000
 11
      -14.400000
 21
      -15.000000
 31
        0.000000
  0
ARC
  8
LVL0000
 10
      -14.400000
 20
      -14.400000
 30
        0.000000
 40
        0.600000
 50
      179.999995
 51
      270.000000
  0
LINE
  8
LVL0000
 10
       90.255583
 20
       67.007803
 30
        0.000000
 11
       51.255583
 21
       67.007803
 31
        0.000000
  0
ARC
  8
LVL0000
 10
       90.255583
 20
       66.507803
 30
        0.000000
 40
        0.500000
 50
        0.000000
 51
       90.000000
  0
ARC
  8
LVL0000
 10
       90.255583
 20
       66.607803
 30
        0.000000
 40
        0.500000
 50
        0.000000
 51
       90.000000
  0
LINE
  8
LVL0000
 10
       90.755583
 20
       52.107803
 30
        0.000000
 11
       90.755583
 21
       66.507803
 31
        0.000000
  0
LINE
  8
LVL0000
  6
DOT
 62
  2
 10
       80.575583
 20
       49.107803
 30
        0.000000
 11
       80.575583
 21
       46.257803
 31
        0.000000
  0
LINE
  8
LVL0000
  6
DOT
 62
  2
 10
       80.575583
 20
       57.957803
 30
        0.000000
 11
       80.575583
 21
       55.107803
 31
        0.000000
  0
LINE
  8
LVL0000
  6
DOT
 62
  2
 10
       82.075583
 20
       55.107803
 30
        0.000000
 11
       82.075583
 21
       49.107803
 31
        0.000000
  0
LINE
  8
LVL0000
  6
DOT
 62
  2
 10
       87.575583
 20
       50.457803
 30
        0.000000
 11
       87.575583
 21
       49.107803
 31
        0.000000
  0
LINE
  8
LVL0000
  6
DOT
 62
  2
 10
       87.575583
 20
       55.107803
 30
        0.000000
 11
       87.575583
 21
       53.757803
 31
        0.000000
  0
LINE
  8
LVL0000
  6
DOT
 62
  2
 10
       79.575583
 20
       49.107803
 30
        0.000000
 11
       87.575583
 21
       49.107803
 31
        0.000000
  0
LINE
  8
LVL0000
  6
DOT
 62
  2
 10
       79.575583
 20
       55.107803
 30
        0.000000
 11
       87.575583
 21
       55.107803
 31
        0.000000
  0
LINE
  8
LVL0000
  6
DOT
 62
  2
 10
       79.575583
 20
       55.107803
 30
        0.000000
 11
       79.575583
 21
       49.107803
 31
        0.000000
  0
LINE
  8
LVL0000
  6
DOT
 62
  2
 10
       87.575583
 20
       50.457803
 30
        0.000000
 11
       92.475583
 21
       50.457803
 31
        0.000000
  0
LINE
  8
LVL0000
  6
DOT
 62
  2
 10
       87.575583
 20
       53.757803
 30
        0.000000
 11
       92.475583
 21
       53.757803
 31
        0.000000
  0
LINE
  8
LVL0000
  6
DOT
 62
  2
 10
       80.575583
 20
       57.957803
 30
        0.000000
 11
       92.475583
 21
       57.957803
 31
        0.000000
  0
LINE
  8
LVL0000
  6
DOT
 62
  2
 10
       80.575583
 20
       46.257803
 30
        0.000000
 11
       92.475583
 21
       46.257803
 31
        0.000000
  0
LINE
  8
LVL0000
 10
       92.475583
 20
       46.257803
 30
        0.000000
 11
       93.975583
 21
       46.257803
 31
        0.000000
  0
LINE
  8
LVL0000
 10
       92.475583
 20
       57.957803
 30
        0.000000
 11
       93.975583
 21
       57.957803
 31
        0.000000
  0
LINE
  8
LVL0000
 10
       92.475583
 20
       53.757803
 30
        0.000000
 11
       93.975583
 21
       53.757803
 31
        0.000000
  0
LINE
  8
LVL0000
 10
       92.475583
 20
       50.457803
 30
        0.000000
 11
       93.975583
 21
       50.457803
 31
        0.000000
  0
LINE
  8
LVL0000
 10
       93.975583
 20
       58.607803
 30
        0.000000
 11
       93.975583
 21
       45.607803
 31
        0.000000
  0
LINE
  8
LVL0000
 10
      123.475583
 20
       56.207803
 30
        0.000000
 11
      111.975583
 21
       56.757803
 31
        0.000000
  0
LINE
  8
LVL0000
 10
      123.475583
 20
       48.007803
 30
        0.000000
 11
      111.975583
 21
       47.457803
 31
        0.000000
  0
LINE
  8
LVL0000
 10
      111.975583
 20
       47.457803
 30
        0.000000
 11
      106.975583
 21
       45.607803
 31
        0.000000
  0
LINE
  8
LVL0000
 10
      111.975583
 20
       56.757803
 30
        0.000000
 11
      106.975583
 21
       58.607803
 31
        0.000000
  0
LINE
  8
LVL0000
 10
       93.975583
 20
       58.607803
 30
        0.000000
 11
      106.975583
 21
       58.607803
 31
        0.000000
  0
LINE
  8
LVL0000
 10
       93.975583
 20
       45.607803
 30
        0.000000
 11
      106.975583
 21
       45.607803
 31
        0.000000
  0
LINE
  8
LVL0000
 10
      123.475583
 20
       56.207803
 30
        0.000000
 11
      123.475583
 21
       48.007803
 31
        0.000000
  0
LINE
  8
LVL0000
 10
      106.975583
 20
       58.607803
 30
        0.000000
 11
      106.975583
 21
       45.607803
 31
        0.000000
  0
LINE
  8
LVL0000
 10
      111.975583
 20
       56.757803
 30
        0.000000
 11
      111.975583
 21
       47.457803
 31
        0.000000
  0
ARC
  8
LVL0000
 10
       99.375583
 20
       52.107803
 30
        0.000000
 40
        5.000000
 50
      270.000000
 51
      360.000000
  0
ARC
  8
LVL0000
 10
       99.375583
 20
       52.107803
 30
        0.000000
 40
        5.000000
 50
        0.000000
 51
       90.000000
  0
LINE
  8
LVL0000
 10
       93.975583
 20
       47.107803
 30
        0.000000
 11
       99.375583
 21
       47.107803
 31
        0.000000
  0
LINE
  8
LVL0000
 10
       93.975583
 20
       57.107803
 30
        0.000000
 11
       99.375583
 21
       57.107803
 31
        0.000000
  0
LINE
  8
LVL0000
 10
      254.894812
 20
       56.757803
 30
        0.000000
 11
      254.894812
 21
       47.457803
 31
        0.000000
  0
LINE
  8
LVL0000
 10
      259.894812
 20
       58.607803
 30
        0.000000
 11
      259.894812
 21
       45.607803
 31
        0.000000
  0
LINE
  8
LVL0000
 10
      243.394812
 20
       56.207803
 30
        0.000000
 11
      243.394812
 21
       48.007803
 31
        0.000000
  0
LINE
  8
LVL0000
 10
      272.894812
 20
       45.607803
 30
        0.000000
 11
      259.894812
 21
       45.607803
 31
        0.000000
  0
LINE
  8
LVL0000
 10
      272.894812
 20
       58.607803
 30
        0.000000
 11
      259.894812
 21
       58.607803
 31
        0.000000
  0
LINE
  8
LVL0000
 10
      254.894812
 20
       56.757803
 30
        0.000000
 11
      259.894812
 21
       58.607803
 31
        0.000000
  0
LINE
  8
LVL0000
 10
      254.894812
 20
       47.457803
 30
        0.000000
 11
      259.894812
 21
       45.607803
 31
        0.000000
  0
LINE
  8
LVL0000
 10
      243.394812
 20
       48.007803
 30
        0.000000
 11
      254.894812
 21
       47.457803
 31
        0.000000
  0
LINE
  8
LVL0000
 10
      243.394812
 20
       56.207803
 30
        0.000000
 11
      254.894812
 21
       56.757803
 31
        0.000000
  0
LINE
  8
LVL0000
 10
      286.294812
 20
       46.257803
 30
        0.000000
 11
      272.894812
 21
       46.257803
 31
        0.000000
  0
LINE
  8
LVL0000
 10
      286.294812
 20
       57.957803
 30
        0.000000
 11
      272.894812
 21
       57.957803
 31
        0.000000
  0
LINE
  8
LVL0000
 10
      272.894812
 20
       58.607803
 30
        0.000000
 11
      272.894812
 21
       45.607803
 31
        0.000000
  0
LINE
  8
LVL0000
 10
      279.294812
 20
       50.457803
 30
        0.000000
 11
      279.294812
 21
       49.107803
 31
        0.000000
  0
LINE
  8
LVL0000
 10
      279.294812
 20
       55.107803
 30
        0.000000
 11
      279.294812
 21
       53.757803
 31
        0.000000
  0
LINE
  8
LVL0000
 10
      279.294812
 20
       53.757803
 30
        0.000000
 11
      272.894812
 21
       53.757803
 31
        0.000000
  0
LINE
  8
LVL0000
 10
      279.294812
 20
       50.457803
 30
        0.000000
 11
      272.894812
 21
       50.457803
 31
        0.000000
  0
LINE
  8
LVL0000
 10
      287.294812
 20
       49.107803
 30
        0.000000
 11
      279.294812
 21
       49.107803
 31
        0.000000
  0
LINE
  8
LVL0000
 10
      287.294812
 20
       55.107803
 30
        0.000000
 11
      279.294812
 21
       55.107803
 31
        0.000000
  0
LINE
  8
LVL0000
 10
      287.294812
 20
       55.107803
 30
        0.000000
 11
      287.294812
 21
       49.107803
 31
        0.000000
  0
LINE
  8
LVL0000
 10
      286.294812
 20
       49.107803
 30
        0.000000
 11
      286.294812
 21
       46.257803
 31
        0.000000
  0
LINE
  8
LVL0000
 10
      286.294812
 20
       57.957803
 30
        0.000000
 11
      286.294812
 21
       55.107803
 31
        0.000000
  0
LINE
  8
LVL0000
 10
      284.794812
 20
       55.107803
 30
        0.000000
 11
      284.794812
 21
       49.107803
 31
        0.000000
  0
LINE
  8
LVL0000
 10
      272.894812
 20
       57.107803
 30
        0.000000
 11
      267.494812
 21
       57.107803
 31
        0.000000
  0
LINE
  8
LVL0000
 10
      272.894812
 20
       47.107803
 30
        0.000000
 11
      267.494812
 21
       47.107803
 31
        0.000000
  0
ARC
  8
LVL0000
 10
      267.494812
 20
       52.107803
 30
        0.000000
 40
        5.000000
 50
       90.000000
 51
      179.999995
  0
ARC
  8
LVL0000
 10
      267.494812
 20
       52.107803
 30
        0.000000
 40
        5.000000
 50
      179.999995
 51
      270.000000
  0
INSERT
  8
LVL0000
 62
  2
  2
BLK0007
 10
        0.000000
 20
        0.000000
  0
INSERT
  8
LVL0000
 62
  2
  2
BLK0008
 10
        0.000000
 20
        0.000000
  0
LINE
  8
LVL0000
 10
      243.394812
 20
       55.357803
 30
        0.000000
 11
      184.613872
 21
       55.357803
 31
        0.000000
  0
LINE
  8
LVL0000
 10
      243.394812
 20
       48.857803
 30
        0.000000
 11
      183.317909
 21
       48.857803
 31
        0.000000
  0
LINE
  8
LVL0000
 10
      123.475583
 20
       55.357803
 30
        0.000000
 11
      182.613872
 21
       55.357803
 31
        0.000000
  0
LINE
  8
LVL0000
 10
      123.475583
 20
       48.857803
 30
        0.000000
 11
      181.317909
 21
       48.857803
 31
        0.000000
  0
TEXT
  8
LVL0000
 62
  2
 10
      166.927724
 20
      109.402653
 30
        0.000000
 40
        4.000000
  1
ＩＶＲ１００Ｋ３
 50
        0.000000
 41
        0.835000
 51
        0.000000
  7
BIGFONT
  0
LINE
  8
LVL0000
 10
       92.475583
 20
       44.047803
 30
        0.000000
 11
       90.755583
 21
       44.047803
 31
        0.000000
  0
ARC
  8
LVL0000
 10
       90.255583
 20
       37.607803
 30
        0.000000
 40
        0.500000
 50
      270.000000
 51
      360.000000
  0
LINE
  8
LVL0000
 10
       90.755583
 20
       52.107803
 30
        0.000000
 11
       90.755583
 21
       37.607803
 31
        0.000000
  0
ARC
  8
LVL0000
 10
       90.255583
 20
       37.707803
 30
        0.000000
 40
        0.500000
 50
      270.000000
 51
      360.000000
  0
LINE
  8
LVL0000
 10
       92.475583
 20
        8.315000
 30
        0.000000
 11
       90.755583
 21
        8.315000
 31
        0.000000
  0
LINE
  8
LVL0000
 10
       90.755583
 20
      -14.500000
 30
        0.000000
 11
       90.755583
 21
       14.300000
 31
        0.000000
  0
LINE
  8
LVL0000
 10
       92.475583
 20
        8.315000
 30
        0.000000
 11
       92.475583
 21
       -8.315000
 31
        0.000000
  0
LINE
  8
LVL0000
 10
       92.475583
 20
       -8.315000
 30
        0.000000
 11
       91.255583
 21
       -8.315000
 31
        0.000000
  0
LINE
  8
LVL0000
 10
       91.255583
 20
       -8.850000
 30
        0.000000
 11
       90.755583
 21
       -8.850000
 31
        0.000000
  0
LINE
  8
LVL0000
 10
       91.255583
 20
       -5.350000
 30
        0.000000
 11
       90.755583
 21
       -5.350000
 31
        0.000000
  0
LINE
  8
LVL0000
 10
       91.255583
 20
       -8.850000
 30
        0.000000
 11
       91.255583
 21
       -5.350000
 31
        0.000000
  0
CIRCLE
  8
LVL0000
 10
       53.655583
 20
      -10.500000
 30
        0.000000
 40
        1.750000
  0
ARC
  8
LVL0000
 10
       54.205583
 20
      -11.049998
 30
        0.000000
 40
        0.300000
 50
       90.000000
 51
      180.000010
  0
LINE
  8
LVL0000
 10
       54.755583
 20
      -10.749999
 30
        0.000000
 11
       54.205583
 21
      -10.749999
 31
        0.000000
  0
LINE
  8
LVL0000
 10
       54.755583
 20
      -10.250001
 30
        0.000000
 11
       54.205583
 21
      -10.250001
 31
        0.000000
  0
ARC
  8
LVL0000
 10
       54.205583
 20
       -9.950002
 30
        0.000000
 40
        0.300000
 50
      180.000010
 51
      270.000000
  0
LINE
  8
LVL0000
 10
       53.905583
 20
       -9.950002
 30
        0.000000
 11
       53.905583
 21
       -9.400000
 31
        0.000000
  0
LINE
  8
LVL0000
 10
       53.905583
 20
       -9.400000
 30
        0.000000
 11
       53.405583
 21
       -9.400000
 31
        0.000000
  0
LINE
  8
LVL0000
 10
       53.405583
 20
       -9.950002
 30
        0.000000
 11
       53.405583
 21
       -9.400000
 31
        0.000000
  0
ARC
  8
LVL0000
 10
       53.105583
 20
       -9.950002
 30
        0.000000
 40
        0.300000
 50
      270.000000
 51
      360.000000
  0
LINE
  8
LVL0000
 10
       53.105583
 20
      -10.250001
 30
        0.000000
 11
       52.555583
 21
      -10.250001
 31
        0.000000
  0
LINE
  8
LVL0000
 10
       52.555583
 20
      -10.749999
 30
        0.000000
 11
       52.555583
 21
      -10.250001
 31
        0.000000
  0
LINE
  8
LVL0000
 10
       53.105583
 20
      -10.749999
 30
        0.000000
 11
       52.555583
 21
      -10.749999
 31
        0.000000
  0
ARC
  8
LVL0000
 10
       53.105583
 20
      -11.049998
 30
        0.000000
 40
        0.300000
 50
        0.000000
 51
       90.000000
  0
LINE
  8
LVL0000
 10
       53.405583
 20
      -11.600000
 30
        0.000000
 11
       53.405583
 21
      -11.049998
 31
        0.000000
  0
LINE
  8
LVL0000
 10
       53.905583
 20
      -11.600000
 30
        0.000000
 11
       53.405583
 21
      -11.600000
 31
        0.000000
  0
LINE
  8
LVL0000
 10
       53.905583
 20
      -11.600000
 30
        0.000000
 11
       53.905583
 21
      -11.049998
 31
        0.000000
  0
ARC
  8
LVL0000
 10
       53.655583
 20
      -10.500000
 30
        0.000000
 40
        2.900000
 50
        0.000000
 51
       90.000000
  0
ARC
  8
LVL0000
 10
       53.655583
 20
      -10.500000
 30
        0.000000
 40
        2.000000
 50
        0.000000
 51
       90.000000
  0
LINE
  8
LVL0000
 10
       53.655583
 20
       -8.500000
 30
        0.000000
 11
       51.255583
 21
       -8.500000
 31
        0.000000
  0
LINE
  8
LVL0000
 10
       53.655583
 20
       -7.600000
 30
        0.000000
 11
       51.255583
 21
       -7.600000
 31
        0.000000
  0
LINE
  8
LVL0000
 10
       90.755583
 20
      -12.900000
 30
        0.000000
 11
       51.755583
 21
      -12.900000
 31
        0.000000
  0
LINE
  8
LVL0000
 10
       90.755583
 20
      -13.000000
 30
        0.000000
 11
       51.655583
 21
      -13.000000
 31
        0.000000
  0
ARC
  8
LVL0000
 10
       51.755583
 20
      -12.400000
 30
        0.000000
 40
        0.500000
 50
      179.999995
 51
      270.000000
  0
ARC
  8
LVL0000
 10
       51.655583
 20
      -12.500000
 30
        0.000000
 40
        0.500000
 50
      179.999995
 51
      270.000000
  0
LINE
  8
LVL0000
 10
       51.155583
 20
       15.000000
 30
        0.000000
 11
       51.155583
 21
      -12.500000
 31
        0.000000
  0
LINE
  8
LVL0000
 10
       51.255583
 20
       14.900000
 30
        0.000000
 11
       51.255583
 21
      -12.400000
 31
        0.000000
  0
LINE
  8
LVL0000
 10
       90.155583
 20
       14.900000
 30
        0.000000
 11
       51.255583
 21
       14.900000
 31
        0.000000
  0
LINE
  8
LVL0000
 10
       90.255583
 20
       37.207803
 30
        0.000000
 11
       51.255583
 21
       37.207803
 31
        0.000000
  0
CIRCLE
  8
LVL0000
 10
       10.000000
 20
      -50.059826
 30
        0.000000
 40
        1.500000
  0
CIRCLE
  8
LVL0000
 10
       10.000000
 20
      -50.059826
 30
        0.000000
 40
        1.200000
  0
CIRCLE
  8
LVL0000
 10
      -10.000000
 20
      -50.059826
 30
        0.000000
 40
        1.500000
  0
CIRCLE
  8
LVL0000
 10
      -10.000000
 20
      -50.059826
 30
        0.000000
 40
        1.200000
  0
LINE
  8
LVL0000
 10
       92.437937
 20
       49.907803
 30
        0.000000
 11
       91.475583
 21
       49.907803
 31
        0.000000
  0
LINE
  8
LVL0000
 10
       92.437937
 20
       54.307803
 30
        0.000000
 11
       91.475583
 21
       54.307803
 31
        0.000000
  0
LINE
  8
LVL0000
 10
       91.475583
 20
       54.307803
 30
        0.000000
 11
       91.475583
 21
       49.907803
 31
        0.000000
  0
LINE
  8
LVL0000
 10
       92.475583
 20
       60.167803
 30
        0.000000
 11
       92.475583
 21
       44.047803
 31
        0.000000
  0
LINE
  8
LVL0000
 10
       92.475583
 20
       60.167803
 30
        0.000000
 11
       90.755583
 21
       60.167803
 31
        0.000000
  0
ARC
  8
LVL0000
 10
        7.800000
 20
     -128.249070
 30
        0.000000
 40
        0.500000
 50
      270.000000
 51
      360.000000
  0
LINE
  8
LVL0000
 10
       -7.800000
 20
     -128.749070
 30
        0.000000
 11
        7.800000
 21
     -128.749070
 31
        0.000000
  0
ARC
  8
LVL0000
 10
       -7.800000
 20
     -128.249070
 30
        0.000000
 40
        0.500000
 50
      179.999995
 51
      270.000000
  0
LINE
  8
LVL0000
 10
       -8.060000
 20
     -128.464070
 30
        0.000000
 11
        8.060000
 21
     -128.464070
 31
        0.000000
  0
LINE
  8
LVL0000
 10
       -6.000000
 20
     -123.614070
 30
        0.000000
 11
       -3.100000
 21
     -123.614070
 31
        0.000000
  0
LINE
  8
LVL0000
 10
        3.100000
 20
     -123.614070
 30
        0.000000
 11
        6.000000
 21
     -123.614070
 31
        0.000000
  0
LINE
  8
LVL0000
 10
        2.000000
 20
     -125.214070
 30
        0.000000
 11
        3.100000
 21
     -125.214070
 31
        0.000000
  0
LINE
  8
LVL0000
 10
       -3.100000
 20
     -125.214070
 30
        0.000000
 11
       -2.000000
 21
     -125.214070
 31
        0.000000
  0
LINE
  8
LVL0000
 10
        3.100000
 20
     -123.614070
 30
        0.000000
 11
        3.100000
 21
     -125.214070
 31
        0.000000
  0
LINE
  8
LVL0000
 10
       -3.100000
 20
     -123.614070
 30
        0.000000
 11
       -3.100000
 21
     -125.214070
 31
        0.000000
  0
LINE
  8
LVL0000
 10
        2.000000
 20
     -125.214070
 30
        0.000000
 11
        2.000000
 21
     -128.464070
 31
        0.000000
  0
LINE
  8
LVL0000
 10
       -2.000000
 20
     -125.214070
 30
        0.000000
 11
       -2.000000
 21
     -128.464070
 31
        0.000000
  0
TEXT
  8
LVL0000
 62
  2
 10
       20.935180
 20
       86.780892
 30
        0.000000
 40
        4.000000
  1
ＩＶＲ１００Ｃ６
 50
        0.000000
 41
        0.835000
 51
        0.000000
  7
BIGFONT
  0
TEXT
  8
LVL0000
 62
  2
 10
       20.935180
 20
       92.780892
 30
        0.000000
 40
        4.000000
  1
ＩＶＲ１００Ｃ４
 50
        0.000000
 41
        0.835000
 51
        0.000000
  7
BIGFONT
  0
TEXT
  8
LVL0000
 62
  2
 10
       20.935180
 20
       98.780892
 30
        0.000000
 40
        4.000000
  1
ＩＶＲ１００Ｃ２
 50
        0.000000
 41
        0.835000
 51
        0.000000
  7
BIGFONT
  0
TEXT
  8
LVL0000
 62
  2
 10
      161.985341
 20
       80.345020
 30
        0.000000
 40
        3.500000
  1
ＩＶＲ１００Ｋ３＝３ｍ
 50
        0.000000
 41
        0.835000
 51
        0.000000
  7
BIGFONT
  0
TEXT
  8
LVL0000
 62
  2
 10
      161.852449
 20
       75.505542
 30
        0.000000
 40
        3.500000
  1
ＩＶＲ１００ＫＡ＝１０ｍ
 50
        0.000000
 41
        0.835000
 51
        0.000000
  7
BIGFONT
  0
DIMENSION
  8
LVL0000
 62
  4
  2
BLK0009
 10
      243.394806
 20
       69.591858
 11
      161.852448
 21
       70.291855
 13
      243.394806
 23
       56.207802
 14
      123.475586
 24
       56.207802
 50
        0.0
 70
  0
  0
TEXT
  8
LVL0000
 62
  2
 10
      166.927724
 20
       97.402653
 30
        0.000000
 40
        4.000000
  1
ＩＶＲ１００ＫＢ
 50
        0.000000
 41
        0.835000
 51
        0.000000
  7
BIGFONT
  0
TEXT
  8
LVL0000
 62
  2
 10
      166.927724
 20
      103.402653
 30
        0.000000
 40
        4.000000
  1
ＩＶＲ１００ＫＡ
 50
        0.000000
 41
        0.835000
 51
        0.000000
  7
BIGFONT
  0
DIMENSION
  8
LVL0000
 62
  4
  2
BLK0010
 10
      -15.000000
 20
      -24.088791
 11
       -3.142507
 21
      -23.388792
 13
      -15.000000
 23
      -14.000000
 14
       15.000000
 24
      -14.000000
 50
        0.0
 70
  0
  0
DIMENSION
  8
LVL0000
 62
  4
  2
BLK0011
 10
      -21.886745
 20
      -15.000000
 11
      -22.586746
 21
       -3.299031
 13
      -14.000000
 23
      -15.000000
 14
      -14.000000
 24
       15.000000
 50
       90.0
 70
  0
  0
ENDSEC
  0
EOF
