  0
SECTION
  2
HEADER
  9
$ACADVER
  1
AC1006
  9
$INSBASE
 10
0.0
 20
0.0
 30
0.0
  9
$EXTMIN
 10
     -100.294739
 20
       -6.000000
  9
$EXTMAX
 10
      345.584076
 20
      345.584076
  9
$LIMMIN
 10
     -100.294739
 20
       -6.000000
  9
$LIMMAX
 10
      345.584076
 20
      345.584076
  9
$VIEWCTR
 10
      122.644669
 20
      122.644669
  9
$ORTHOMODE
 70
     0
  9
$ANGBASE
 50
0.0
  9
$ANGDIR
 70
     0
  9
$SPLINETYPE
 70
     6
  9
$SPLINESEGS
 70
     8
9
$DIMASZ
 40
        4.000000
9
$DIMEXE
 40
        0.700000
9
$DIMEXO
 40
        1.000000
9
$DIMTXT
 40
        3.500000
9
$DIMGAP
 40
        0.700000
9
$DIMTAD
 70
1
9
$DIMTIH
 70
0
9
$DIMTOH
 70
0
  0
ENDSEC
  0
SECTION
  2
TABLES
  0
TABLE
  2
LTYPE
 70
     5
  0
LTYPE
  2
CONTINUOUS
 70
    64
  3
SOLID LINE
 72
    65
 73
     0
 40
0.0
  0
LTYPE
  2
DASHED
 70
    64
  3
-- -- -- -- -- --
 72
    65
 73
     2
 40
  0.75  
 49
  0.50  
 49
 -0.25  
  0
LTYPE
  2
DOT
 70
    64
  3
....................
 72
    65
 73
     2
 40
  0.25  
 49
  0.02  
 49
 -0.23  
  0
LTYPE
  2
CENTER
 70
    64
  3
-- . -- . -- . -- .
 72
    65
 73
    4
 40
  2.00  
 49
  1.25  
 49
 -0.25  
 49
  0.25  
 49
 -0.25  
  0
LTYPE
  2
PHANTOM
 70
    64
  3
-- .. -- .. -- ..
 72
    65
 73
    6
 40
  2.50  
 49
  1.25  
 49
 -0.25  
 49
  0.25  
 49
 -0.25  
 49
  0.25  
 49
 -0.25  
  0
ENDTAB
  0
TABLE
  2
LAYER
 70
     1
  0
LAYER
  2
LVL0000
 70
    64
 62
     3
  6
CONTINUOUS
  0
ENDTAB
  0
TABLE
  2
STYLE
 70
     2
  0
STYLE
  2
STANDARD
 70
    64
 40
0.0
 41
1.0
 50
0.0
 71
     0
 42
5.0
  3
ROMANS
  4
BIGFONT
  0
STYLE
  2
BIGFONT
 70
    64
 40
0.0
 41
1.0
 50
0.0
 71
     0
 42
5.0
  3
ROMANS
  4
BIGFONT
  0
ENDTAB
  0
TABLE
  2
VIEW
 70
     0
  0
ENDTAB
  0
TABLE
  2
UCS
 70
     0
  0
ENDTAB
  0
TABLE
  2
DWGMGR
 70
     0
  0
ENDTAB
  0
ENDSEC
  0
SECTION
  2
BLOCKS
  0
BLOCK
  8
0
  2
BLK0001
 70
    64
 10
        0.000000
 20
        0.000000
  0
TEXT
  8
LVL0000
 62
  4
 10
       99.863968
 20
      280.113708
 30
        0.000000
 40
        3.500000
  1
２２．１
 50
        0.000000
 41
        0.835000
 51
        0.000000
  7
BIGFONT
  0
LINE
  8
LVL0000
 62
  4
 10
      117.500000
 20
      251.252930
 30
        0.000000
 11
      117.500000
 21
      280.113708
 31
        0.000000
  0
LINE
  8
LVL0000
 62
  4
 10
       95.400002
 20
      251.152908
 30
        0.000000
 11
       95.400002
 21
      280.113708
 31
        0.000000
  0
LINE
  8
LVL0000
 62
  4
 10
      113.500000
 20
      278.785370
 30
        0.000000
 11
      117.500000
 21
      279.413696
 31
        0.000000
  0
LINE
  8
LVL0000
 62
  4
 10
      117.500000
 20
      279.413696
 30
        0.000000
 11
      113.500000
 21
      280.042023
 31
        0.000000
  0
LINE
  8
LVL0000
 62
  4
 10
       99.400002
 20
      280.042023
 30
        0.000000
 11
       95.400002
 21
      279.413696
 31
        0.000000
  0
LINE
  8
LVL0000
 62
  4
 10
       95.400002
 20
      279.413696
 30
        0.000000
 11
       99.400002
 21
      278.785370
 31
        0.000000
  0
LINE
  8
LVL0000
 62
  4
 10
      117.500000
 20
      279.413696
 30
        0.000000
 11
       95.400002
 21
      279.413696
 31
        0.000000
  0
ENDBLK
  0
BLOCK
  8
0
  2
BLK0002
 70
    64
 10
        0.000000
 20
        0.000000
  0
TEXT
  8
LVL0000
 62
  4
 10
       -3.544147
 20
      278.919434
 30
        0.000000
 40
        3.500000
  1
５０
 50
        0.000000
 41
        0.835000
 51
        0.000000
  7
BIGFONT
  0
LINE
  8
LVL0000
 62
  4
 10
      -25.000000
 20
      250.721298
 30
        0.000000
 11
      -25.000000
 21
      278.919434
 31
        0.000000
  0
LINE
  8
LVL0000
 62
  4
 10
       25.000000
 20
      250.721298
 30
        0.000000
 11
       25.000000
 21
      278.919434
 31
        0.000000
  0
LINE
  8
LVL0000
 62
  4
 10
      -21.000000
 20
      278.847748
 30
        0.000000
 11
      -25.000000
 21
      278.219421
 31
        0.000000
  0
LINE
  8
LVL0000
 62
  4
 10
      -25.000000
 20
      278.219421
 30
        0.000000
 11
      -21.000000
 21
      277.591095
 31
        0.000000
  0
LINE
  8
LVL0000
 62
  4
 10
       21.000000
 20
      277.591095
 30
        0.000000
 11
       25.000000
 21
      278.219421
 31
        0.000000
  0
LINE
  8
LVL0000
 62
  4
 10
       25.000000
 20
      278.219421
 30
        0.000000
 11
       21.000000
 21
      278.847748
 31
        0.000000
  0
LINE
  8
LVL0000
 62
  4
 10
      -25.000000
 20
      278.219421
 30
        0.000000
 11
       25.000000
 21
      278.219421
 31
        0.000000
  0
ENDBLK
  0
BLOCK
  8
0
  2
BLK0003
 70
    64
 10
        0.000000
 20
        0.000000
  0
TEXT
  8
LVL0000
 62
  4
 10
      -52.035206
 20
      193.589828
 30
        0.000000
 40
        3.500000
  1
１４０．５
 50
       90.000000
 41
        0.835000
 51
        0.000000
  7
BIGFONT
  0
LINE
  8
LVL0000
 62
  4
 10
       -1.000000
 20
      271.502930
 30
        0.000000
 11
      -52.035206
 21
      271.502930
 31
        0.000000
  0
LINE
  8
LVL0000
 62
  4
 10
       -1.000000
 20
      131.002930
 30
        0.000000
 11
      -52.035206
 21
      131.002930
 31
        0.000000
  0
LINE
  8
LVL0000
 62
  4
 10
      -50.706886
 20
      267.502930
 30
        0.000000
 11
      -51.335205
 21
      271.502930
 31
        0.000000
  0
LINE
  8
LVL0000
 62
  4
 10
      -51.335205
 20
      271.502930
 30
        0.000000
 11
      -51.963524
 21
      267.502930
 31
        0.000000
  0
LINE
  8
LVL0000
 62
  4
 10
      -51.963524
 20
      135.002930
 30
        0.000000
 11
      -51.335205
 21
      131.002930
 31
        0.000000
  0
LINE
  8
LVL0000
 62
  4
 10
      -51.335205
 20
      131.002930
 30
        0.000000
 11
      -50.706886
 21
      135.002930
 31
        0.000000
  0
LINE
  8
LVL0000
 62
  4
 10
      -51.335205
 20
      271.502930
 30
        0.000000
 11
      -51.335205
 21
      131.002930
 31
        0.000000
  0
ENDBLK
  0
BLOCK
  8
0
  2
BLK0004
 70
    64
 10
        0.000000
 20
        0.000000
  0
TEXT
  8
LVL0000
 62
  4
 10
      -42.995491
 20
      258.965118
 30
        0.000000
 40
        3.500000
  1
１８
 50
       90.000000
 41
        0.835000
 51
        0.000000
  7
BIGFONT
  0
LINE
  8
LVL0000
 62
  4
 10
       -1.000000
 20
      253.502930
 30
        0.000000
 11
      -42.995491
 21
      253.502930
 31
        0.000000
  0
LINE
  8
LVL0000
 62
  4
 10
       -1.000000
 20
      271.502930
 30
        0.000000
 11
      -42.995491
 21
      271.502930
 31
        0.000000
  0
LINE
  8
LVL0000
 62
  4
 10
      -42.923809
 20
      257.502930
 30
        0.000000
 11
      -42.295490
 21
      253.502930
 31
        0.000000
  0
LINE
  8
LVL0000
 62
  4
 10
      -42.295490
 20
      253.502930
 30
        0.000000
 11
      -41.667171
 21
      257.502930
 31
        0.000000
  0
LINE
  8
LVL0000
 62
  4
 10
      -41.667171
 20
      267.502930
 30
        0.000000
 11
      -42.295490
 21
      271.502930
 31
        0.000000
  0
LINE
  8
LVL0000
 62
  4
 10
      -42.295490
 20
      271.502930
 30
        0.000000
 11
      -42.923809
 21
      267.502930
 31
        0.000000
  0
LINE
  8
LVL0000
 62
  4
 10
      -42.295490
 20
      253.502930
 30
        0.000000
 11
      -42.295490
 21
      271.502930
 31
        0.000000
  0
ENDBLK
  0
BLOCK
  8
0
  2
BLK0005
 70
    64
 10
        0.000000
 20
        0.000000
  0
TEXT
  8
LVL0000
 62
  4
 10
      -42.995491
 20
      186.220184
 30
        0.000000
 40
        3.500000
  1
１２２．５
 50
       90.000000
 41
        0.835000
 51
        0.000000
  7
BIGFONT
  0
LINE
  8
LVL0000
 62
  4
 10
       -1.000000
 20
      131.002930
 30
        0.000000
 11
      -42.995491
 21
      131.002930
 31
        0.000000
  0
LINE
  8
LVL0000
 62
  4
 10
       -1.000000
 20
      253.502930
 30
        0.000000
 11
      -42.995491
 21
      253.502930
 31
        0.000000
  0
LINE
  8
LVL0000
 62
  4
 10
      -42.923809
 20
      135.002930
 30
        0.000000
 11
      -42.295490
 21
      131.002930
 31
        0.000000
  0
LINE
  8
LVL0000
 62
  4
 10
      -42.295490
 20
      131.002930
 30
        0.000000
 11
      -41.667171
 21
      135.002930
 31
        0.000000
  0
LINE
  8
LVL0000
 62
  4
 10
      -41.667171
 20
      249.502930
 30
        0.000000
 11
      -42.295490
 21
      253.502930
 31
        0.000000
  0
LINE
  8
LVL0000
 62
  4
 10
      -42.295490
 20
      253.502930
 30
        0.000000
 11
      -42.923809
 21
      249.502930
 31
        0.000000
  0
LINE
  8
LVL0000
 62
  4
 10
      -42.295490
 20
      131.002930
 30
        0.000000
 11
      -42.295490
 21
      253.502930
 31
        0.000000
  0
ENDBLK
  0
BLOCK
  8
0
  2
BLK0006
 70
    64
 10
        0.000000
 20
        0.000000
  0
TEXT
  8
LVL0000
 62
  4
 10
      -42.971786
 20
       85.020309
 30
        0.000000
 40
        3.500000
  1
３０００
 50
       90.000000
 41
        0.835000
 51
        0.000000
  7
BIGFONT
  0
LINE
  8
LVL0000
 62
  4
 10
       -6.000000
 20
       53.000000
 30
        0.000000
 11
      -42.971786
 21
       53.000000
 31
        0.000000
  0
LINE
  8
LVL0000
 62
  4
 10
       -7.216136
 20
      131.002930
 30
        0.000000
 11
      -42.971786
 21
      131.002930
 31
        0.000000
  0
LINE
  8
LVL0000
 62
  4
 10
      -43.188084
 20
       56.500000
 30
        0.000000
 11
      -42.271786
 21
       53.000000
 31
        0.000000
  0
LINE
  8
LVL0000
 62
  4
 10
      -42.271786
 20
       53.000000
 30
        0.000000
 11
      -41.355488
 21
       56.500000
 31
        0.000000
  0
LINE
  8
LVL0000
 62
  4
 10
      -41.355488
 20
      127.502930
 30
        0.000000
 11
      -42.271786
 21
      131.002930
 31
        0.000000
  0
LINE
  8
LVL0000
 62
  4
 10
      -42.271786
 20
      131.002930
 30
        0.000000
 11
      -43.188084
 21
      127.502930
 31
        0.000000
  0
LINE
  8
LVL0000
 62
  4
 10
      -42.271786
 20
       53.000000
 30
        0.000000
 11
      -42.271786
 21
      131.002930
 31
        0.000000
  0
ENDBLK
  0
BLOCK
  8
0
  2
BLK0007
 70
    64
 10
        0.000000
 20
        0.000000
  0
POLYLINE
  8
LVL0000
 66
1
 70
4
 75
6
  0
VERTEX
  8
LVL0000
 10
        2.249955
 20
       76.646949
 70
 16
  0
VERTEX
  8
LVL0000
 10
        1.719814
 20
       76.039691
 70
 16
  0
VERTEX
  8
LVL0000
 10
        1.145361
 20
       75.681704
 70
 16
  0
VERTEX
  8
LVL0000
 10
        0.798617
 20
       75.813747
 70
 16
  0
VERTEX
  8
LVL0000
 10
        2.249955
 20
       76.646949
 70
  8
  0
VERTEX
  8
LVL0000
 10
        2.049606
 20
       76.431382
 70
  8
  0
VERTEX
  8
LVL0000
 10
        1.848291
 20
       76.242006
 70
  8
  0
VERTEX
  8
LVL0000
 10
        1.649197
 20
       76.081641
 70
  8
  0
VERTEX
  8
LVL0000
 10
        1.455512
 20
       75.953110
 70
  8
  0
VERTEX
  8
LVL0000
 10
        1.270424
 20
       75.859234
 70
  8
  0
VERTEX
  8
LVL0000
 10
        1.097120
 20
       75.802833
 70
  8
  0
VERTEX
  8
LVL0000
 10
        0.938789
 20
       75.786731
 70
  8
  0
VERTEX
  8
LVL0000
 10
        0.798617
 20
       75.813747
 70
  8
  0
SEQEND
  0
POLYLINE
  8
LVL0000
 66
1
 70
4
 75
6
  0
VERTEX
  8
LVL0000
 10
        0.798617
 20
       75.813747
 70
 16
  0
VERTEX
  8
LVL0000
 10
        0.170640
 20
       76.052885
 70
 16
  0
VERTEX
  8
LVL0000
 10
       -0.258992
 20
       77.477426
 70
 16
  0
VERTEX
  8
LVL0000
 10
       -1.045191
 20
       78.219207
 70
 16
  0
VERTEX
  8
LVL0000
 10
        0.798617
 20
       75.813747
 70
  8
  0
VERTEX
  8
LVL0000
 10
        0.571339
 20
       75.955340
 70
  8
  0
VERTEX
  8
LVL0000
 10
        0.356153
 20
       76.186173
 70
  8
  0
VERTEX
  8
LVL0000
 10
        0.146557
 20
       76.484352
 70
  8
  0
VERTEX
  8
LVL0000
 10
       -0.063954
 20
       76.827986
 70
  8
  0
VERTEX
  8
LVL0000
 10
       -0.281881
 20
       77.195180
 70
  8
  0
VERTEX
  8
LVL0000
 10
       -0.513728
 20
       77.564044
 70
  8
  0
VERTEX
  8
LVL0000
 10
       -0.765997
 20
       77.912683
 70
  8
  0
VERTEX
  8
LVL0000
 10
       -1.045191
 20
       78.219207
 70
  8
  0
SEQEND
  0
POLYLINE
  8
LVL0000
 66
1
 70
4
 75
6
  0
VERTEX
  8
LVL0000
 10
       -1.045191
 20
       78.219207
 70
 16
  0
VERTEX
  8
LVL0000
 10
       -1.391769
 20
       78.546204
 70
 16
  0
VERTEX
  8
LVL0000
 10
       -1.801182
 20
       78.719608
 70
 16
  0
VERTEX
  8
LVL0000
 10
       -2.249949
 20
       78.796819
 70
 16
  0
VERTEX
  8
LVL0000
 10
       -1.045191
 20
       78.219207
 70
  8
  0
VERTEX
  8
LVL0000
 10
       -1.178057
 20
       78.334743
 70
  8
  0
VERTEX
  8
LVL0000
 10
       -1.316539
 20
       78.436553
 70
  8
  0
VERTEX
  8
LVL0000
 10
       -1.460362
 20
       78.525309
 70
  8
  0
VERTEX
  8
LVL0000
 10
       -1.609249
 20
       78.601683
 70
  8
  0
VERTEX
  8
LVL0000
 10
       -1.762927
 20
       78.666348
 70
  8
  0
VERTEX
  8
LVL0000
 10
       -1.921120
 20
       78.719978
 70
  8
  0
VERTEX
  8
LVL0000
 10
       -2.083552
 20
       78.763244
 70
  8
  0
VERTEX
  8
LVL0000
 10
       -2.249949
 20
       78.796819
 70
  8
  0
SEQEND
  0
ENDBLK
  0
BLOCK
  8
0
  2
BLK0008
 70
    64
 10
        0.000000
 20
        0.000000
  0
POLYLINE
  8
LVL0000
 66
1
 70
4
 75
6
  0
VERTEX
  8
LVL0000
 10
        2.249955
 20
       79.646949
 70
 16
  0
VERTEX
  8
LVL0000
 10
        1.719814
 20
       79.039691
 70
 16
  0
VERTEX
  8
LVL0000
 10
        1.145361
 20
       78.681704
 70
 16
  0
VERTEX
  8
LVL0000
 10
        0.798617
 20
       78.813747
 70
 16
  0
VERTEX
  8
LVL0000
 10
        2.249955
 20
       79.646949
 70
  8
  0
VERTEX
  8
LVL0000
 10
        2.049606
 20
       79.431382
 70
  8
  0
VERTEX
  8
LVL0000
 10
        1.848291
 20
       79.242006
 70
  8
  0
VERTEX
  8
LVL0000
 10
        1.649197
 20
       79.081641
 70
  8
  0
VERTEX
  8
LVL0000
 10
        1.455512
 20
       78.953110
 70
  8
  0
VERTEX
  8
LVL0000
 10
        1.270424
 20
       78.859234
 70
  8
  0
VERTEX
  8
LVL0000
 10
        1.097120
 20
       78.802833
 70
  8
  0
VERTEX
  8
LVL0000
 10
        0.938789
 20
       78.786731
 70
  8
  0
VERTEX
  8
LVL0000
 10
        0.798617
 20
       78.813747
 70
  8
  0
SEQEND
  0
POLYLINE
  8
LVL0000
 66
1
 70
4
 75
6
  0
VERTEX
  8
LVL0000
 10
        0.798617
 20
       78.813747
 70
 16
  0
VERTEX
  8
LVL0000
 10
        0.170640
 20
       79.052885
 70
 16
  0
VERTEX
  8
LVL0000
 10
       -0.258992
 20
       80.477426
 70
 16
  0
VERTEX
  8
LVL0000
 10
       -1.045191
 20
       81.219207
 70
 16
  0
VERTEX
  8
LVL0000
 10
        0.798617
 20
       78.813747
 70
  8
  0
VERTEX
  8
LVL0000
 10
        0.571339
 20
       78.955340
 70
  8
  0
VERTEX
  8
LVL0000
 10
        0.356153
 20
       79.186173
 70
  8
  0
VERTEX
  8
LVL0000
 10
        0.146557
 20
       79.484352
 70
  8
  0
VERTEX
  8
LVL0000
 10
       -0.063954
 20
       79.827986
 70
  8
  0
VERTEX
  8
LVL0000
 10
       -0.281881
 20
       80.195180
 70
  8
  0
VERTEX
  8
LVL0000
 10
       -0.513728
 20
       80.564044
 70
  8
  0
VERTEX
  8
LVL0000
 10
       -0.765997
 20
       80.912683
 70
  8
  0
VERTEX
  8
LVL0000
 10
       -1.045191
 20
       81.219207
 70
  8
  0
SEQEND
  0
POLYLINE
  8
LVL0000
 66
1
 70
4
 75
6
  0
VERTEX
  8
LVL0000
 10
       -1.045191
 20
       81.219207
 70
 16
  0
VERTEX
  8
LVL0000
 10
       -1.391769
 20
       81.546204
 70
 16
  0
VERTEX
  8
LVL0000
 10
       -1.801182
 20
       81.719608
 70
 16
  0
VERTEX
  8
LVL0000
 10
       -2.249949
 20
       81.796819
 70
 16
  0
VERTEX
  8
LVL0000
 10
       -1.045191
 20
       81.219207
 70
  8
  0
VERTEX
  8
LVL0000
 10
       -1.178057
 20
       81.334743
 70
  8
  0
VERTEX
  8
LVL0000
 10
       -1.316539
 20
       81.436553
 70
  8
  0
VERTEX
  8
LVL0000
 10
       -1.460362
 20
       81.525309
 70
  8
  0
VERTEX
  8
LVL0000
 10
       -1.609249
 20
       81.601683
 70
  8
  0
VERTEX
  8
LVL0000
 10
       -1.762927
 20
       81.666348
 70
  8
  0
VERTEX
  8
LVL0000
 10
       -1.921120
 20
       81.719978
 70
  8
  0
VERTEX
  8
LVL0000
 10
       -2.083552
 20
       81.763244
 70
  8
  0
VERTEX
  8
LVL0000
 10
       -2.249949
 20
       81.796819
 70
  8
  0
SEQEND
  0
ENDBLK
  0
BLOCK
  8
0
  2
BLK0009
 70
    64
 10
        0.000000
 20
        0.000000
  0
POLYLINE
  8
LVL0000
 66
1
 70
4
 75
6
  0
VERTEX
  8
LVL0000
 10
      102.750045
 20
       79.646949
 70
 16
  0
VERTEX
  8
LVL0000
 10
      103.280186
 20
       79.039691
 70
 16
  0
VERTEX
  8
LVL0000
 10
      103.854639
 20
       78.681704
 70
 16
  0
VERTEX
  8
LVL0000
 10
      104.201383
 20
       78.813747
 70
 16
  0
VERTEX
  8
LVL0000
 10
      102.750045
 20
       79.646949
 70
  8
  0
VERTEX
  8
LVL0000
 10
      102.950394
 20
       79.431382
 70
  8
  0
VERTEX
  8
LVL0000
 10
      103.151709
 20
       79.242006
 70
  8
  0
VERTEX
  8
LVL0000
 10
      103.350803
 20
       79.081641
 70
  8
  0
VERTEX
  8
LVL0000
 10
      103.544488
 20
       78.953110
 70
  8
  0
VERTEX
  8
LVL0000
 10
      103.729576
 20
       78.859234
 70
  8
  0
VERTEX
  8
LVL0000
 10
      103.902880
 20
       78.802833
 70
  8
  0
VERTEX
  8
LVL0000
 10
      104.061211
 20
       78.786731
 70
  8
  0
VERTEX
  8
LVL0000
 10
      104.201383
 20
       78.813747
 70
  8
  0
SEQEND
  0
POLYLINE
  8
LVL0000
 66
1
 70
4
 75
6
  0
VERTEX
  8
LVL0000
 10
      104.201383
 20
       78.813747
 70
 16
  0
VERTEX
  8
LVL0000
 10
      104.829360
 20
       79.052885
 70
 16
  0
VERTEX
  8
LVL0000
 10
      105.258992
 20
       80.477426
 70
 16
  0
VERTEX
  8
LVL0000
 10
      106.045191
 20
       81.219207
 70
 16
  0
VERTEX
  8
LVL0000
 10
      104.201383
 20
       78.813747
 70
  8
  0
VERTEX
  8
LVL0000
 10
      104.428661
 20
       78.955340
 70
  8
  0
VERTEX
  8
LVL0000
 10
      104.643847
 20
       79.186173
 70
  8
  0
VERTEX
  8
LVL0000
 10
      104.853443
 20
       79.484352
 70
  8
  0
VERTEX
  8
LVL0000
 10
      105.063954
 20
       79.827986
 70
  8
  0
VERTEX
  8
LVL0000
 10
      105.281881
 20
       80.195180
 70
  8
  0
VERTEX
  8
LVL0000
 10
      105.513728
 20
       80.564044
 70
  8
  0
VERTEX
  8
LVL0000
 10
      105.765997
 20
       80.912683
 70
  8
  0
VERTEX
  8
LVL0000
 10
      106.045191
 20
       81.219207
 70
  8
  0
SEQEND
  0
POLYLINE
  8
LVL0000
 66
1
 70
4
 75
6
  0
VERTEX
  8
LVL0000
 10
      106.045191
 20
       81.219207
 70
 16
  0
VERTEX
  8
LVL0000
 10
      106.391769
 20
       81.546204
 70
 16
  0
VERTEX
  8
LVL0000
 10
      106.801182
 20
       81.719608
 70
 16
  0
VERTEX
  8
LVL0000
 10
      107.249949
 20
       81.796819
 70
 16
  0
VERTEX
  8
LVL0000
 10
      106.045191
 20
       81.219207
 70
  8
  0
VERTEX
  8
LVL0000
 10
      106.178057
 20
       81.334743
 70
  8
  0
VERTEX
  8
LVL0000
 10
      106.316539
 20
       81.436553
 70
  8
  0
VERTEX
  8
LVL0000
 10
      106.460362
 20
       81.525309
 70
  8
  0
VERTEX
  8
LVL0000
 10
      106.609249
 20
       81.601683
 70
  8
  0
VERTEX
  8
LVL0000
 10
      106.762927
 20
       81.666348
 70
  8
  0
VERTEX
  8
LVL0000
 10
      106.921120
 20
       81.719978
 70
  8
  0
VERTEX
  8
LVL0000
 10
      107.083552
 20
       81.763244
 70
  8
  0
VERTEX
  8
LVL0000
 10
      107.249949
 20
       81.796819
 70
  8
  0
SEQEND
  0
ENDBLK
  0
BLOCK
  8
0
  2
BLK0010
 70
    64
 10
        0.000000
 20
        0.000000
  0
POLYLINE
  8
LVL0000
 66
1
 70
4
 75
6
  0
VERTEX
  8
LVL0000
 10
      102.750045
 20
       76.646949
 70
 16
  0
VERTEX
  8
LVL0000
 10
      103.280186
 20
       76.039691
 70
 16
  0
VERTEX
  8
LVL0000
 10
      103.854639
 20
       75.681704
 70
 16
  0
VERTEX
  8
LVL0000
 10
      104.201383
 20
       75.813747
 70
 16
  0
VERTEX
  8
LVL0000
 10
      102.750045
 20
       76.646949
 70
  8
  0
VERTEX
  8
LVL0000
 10
      102.950394
 20
       76.431382
 70
  8
  0
VERTEX
  8
LVL0000
 10
      103.151709
 20
       76.242006
 70
  8
  0
VERTEX
  8
LVL0000
 10
      103.350803
 20
       76.081641
 70
  8
  0
VERTEX
  8
LVL0000
 10
      103.544488
 20
       75.953110
 70
  8
  0
VERTEX
  8
LVL0000
 10
      103.729576
 20
       75.859234
 70
  8
  0
VERTEX
  8
LVL0000
 10
      103.902880
 20
       75.802833
 70
  8
  0
VERTEX
  8
LVL0000
 10
      104.061211
 20
       75.786731
 70
  8
  0
VERTEX
  8
LVL0000
 10
      104.201383
 20
       75.813747
 70
  8
  0
SEQEND
  0
POLYLINE
  8
LVL0000
 66
1
 70
4
 75
6
  0
VERTEX
  8
LVL0000
 10
      104.201383
 20
       75.813747
 70
 16
  0
VERTEX
  8
LVL0000
 10
      104.829360
 20
       76.052885
 70
 16
  0
VERTEX
  8
LVL0000
 10
      105.258992
 20
       77.477426
 70
 16
  0
VERTEX
  8
LVL0000
 10
      106.045191
 20
       78.219207
 70
 16
  0
VERTEX
  8
LVL0000
 10
      104.201383
 20
       75.813747
 70
  8
  0
VERTEX
  8
LVL0000
 10
      104.428661
 20
       75.955340
 70
  8
  0
VERTEX
  8
LVL0000
 10
      104.643847
 20
       76.186173
 70
  8
  0
VERTEX
  8
LVL0000
 10
      104.853443
 20
       76.484352
 70
  8
  0
VERTEX
  8
LVL0000
 10
      105.063954
 20
       76.827986
 70
  8
  0
VERTEX
  8
LVL0000
 10
      105.281881
 20
       77.195180
 70
  8
  0
VERTEX
  8
LVL0000
 10
      105.513728
 20
       77.564044
 70
  8
  0
VERTEX
  8
LVL0000
 10
      105.765997
 20
       77.912683
 70
  8
  0
VERTEX
  8
LVL0000
 10
      106.045191
 20
       78.219207
 70
  8
  0
SEQEND
  0
POLYLINE
  8
LVL0000
 66
1
 70
4
 75
6
  0
VERTEX
  8
LVL0000
 10
      106.045191
 20
       78.219207
 70
 16
  0
VERTEX
  8
LVL0000
 10
      106.391769
 20
       78.546204
 70
 16
  0
VERTEX
  8
LVL0000
 10
      106.801182
 20
       78.719608
 70
 16
  0
VERTEX
  8
LVL0000
 10
      107.249949
 20
       78.796819
 70
 16
  0
VERTEX
  8
LVL0000
 10
      106.045191
 20
       78.219207
 70
  8
  0
VERTEX
  8
LVL0000
 10
      106.178057
 20
       78.334743
 70
  8
  0
VERTEX
  8
LVL0000
 10
      106.316539
 20
       78.436553
 70
  8
  0
VERTEX
  8
LVL0000
 10
      106.460362
 20
       78.525309
 70
  8
  0
VERTEX
  8
LVL0000
 10
      106.609249
 20
       78.601683
 70
  8
  0
VERTEX
  8
LVL0000
 10
      106.762927
 20
       78.666348
 70
  8
  0
VERTEX
  8
LVL0000
 10
      106.921120
 20
       78.719978
 70
  8
  0
VERTEX
  8
LVL0000
 10
      107.083552
 20
       78.763244
 70
  8
  0
VERTEX
  8
LVL0000
 10
      107.249949
 20
       78.796819
 70
  8
  0
SEQEND
  0
ENDBLK
  0
ENDSEC
  0
SECTION
  2
ENTITIES
  0
ARC
  8
LVL0000
 10
        0.000000
 20
      636.484088
 30
        0.000000
 40
      313.000000
 50
      265.987904
 51
      274.012101
  0
LINE
  8
LVL0000
 10
        6.477674
 20
      336.084088
 30
        0.000000
 11
       -6.477674
 21
      336.084088
 31
        0.000000
  0
LINE
  8
LVL0000
 10
        8.101117
 20
      341.084088
 30
        0.000000
 11
       -8.101117
 21
      341.084088
 31
        0.000000
  0
LINE
  8
LVL0000
 10
       23.448346
 20
      345.084088
 30
        0.000000
 11
      -23.448346
 21
      345.084088
 31
        0.000000
  0
LINE
  8
LVL0000
 10
       23.000000
 20
      345.584088
 30
        0.000000
 11
      -23.000000
 21
      345.584088
 31
        0.000000
  0
ARC
  8
LVL0000
 10
        6.477674
 20
      338.084088
 30
        0.000000
 40
        2.000000
 50
      270.000000
 51
      357.000000
  0
LINE
  8
LVL0000
 10
        8.599326
 20
      340.352958
 30
        0.000000
 11
        8.474933
 21
      337.979416
 31
        0.000000
  0
LINE
  8
LVL0000
 10
        8.934322
 20
      340.637052
 30
        0.000000
 11
       13.650236
 21
      333.531124
 31
        0.000000
  0
ARC
  8
LVL0000
 10
        8.101117
 20
      340.084088
 30
        0.000000
 40
        1.000000
 50
       33.570603
 51
       90.000000
  0
ARC
  8
LVL0000
 10
       -6.477674
 20
      338.084088
 30
        0.000000
 40
        2.000000
 50
      183.000005
 51
      270.000000
  0
LINE
  8
LVL0000
 10
       -8.934322
 20
      340.637052
 30
        0.000000
 11
      -13.650236
 21
      333.531124
 31
        0.000000
  0
LINE
  8
LVL0000
 10
       -8.599326
 20
      340.352958
 30
        0.000000
 11
       -8.474933
 21
      337.979416
 31
        0.000000
  0
ARC
  8
LVL0000
 10
       -8.101117
 20
      340.084088
 30
        0.000000
 40
        1.000000
 50
       90.000000
 51
      146.429392
  0
LINE
  8
LVL0000
 10
       14.483441
 20
      333.084088
 30
        0.000000
 11
       25.000000
 21
      333.084088
 31
        0.000000
  0
LINE
  8
LVL0000
 10
      -14.483441
 20
      333.084088
 30
        0.000000
 11
      -25.000000
 21
      333.084088
 31
        0.000000
  0
LINE
  8
LVL0000
 10
      -13.615086
 20
      333.584088
 30
        0.000000
 11
      -25.000000
 21
      333.584088
 31
        0.000000
  0
LINE
  8
LVL0000
 10
       25.000000
 20
      333.584088
 30
        0.000000
 11
       13.615086
 21
      333.584088
 31
        0.000000
  0
LINE
  8
LVL0000
 10
        5.418752
 20
      333.584088
 30
        0.000000
 11
       -5.418752
 21
      333.584088
 31
        0.000000
  0
LINE
  8
LVL0000
 10
       -5.750582
 20
      333.084088
 30
        0.000000
 11
        5.750582
 21
      333.084088
 31
        0.000000
  0
ARC
  8
LVL0000
 10
       21.689807
 20
      327.243806
 30
        0.000000
 40
        3.000000
 50
      274.012101
 51
      357.000000
  0
ARC
  8
LVL0000
 10
      -23.448346
 20
      344.084088
 30
        0.000000
 40
        1.000000
 50
       90.000000
 51
      176.999995
  0
LINE
  8
LVL0000
 10
      -25.000000
 20
      333.584088
 30
        0.000000
 11
      -24.446976
 21
      344.136424
 31
        0.000000
  0
ARC
  8
LVL0000
 10
       23.448346
 20
      344.084088
 30
        0.000000
 40
        1.000000
 50
        3.000000
 51
       90.000000
  0
LINE
  8
LVL0000
 10
       23.000000
 20
      345.084088
 30
        0.000000
 11
       23.000000
 21
      345.584088
 31
        0.000000
  0
LINE
  8
LVL0000
 10
       17.000000
 20
      323.946090
 30
        0.000000
 11
       17.000000
 21
      323.250568
 31
        0.000000
  0
LINE
  8
LVL0000
 10
        7.000000
 20
      323.562373
 30
        0.000000
 11
        7.000000
 21
      323.250568
 31
        0.000000
  0
LINE
  8
LVL0000
 10
       -7.000000
 20
      323.562373
 30
        0.000000
 11
       -7.000000
 21
      323.250568
 31
        0.000000
  0
LINE
  8
LVL0000
 10
      -17.000000
 20
      323.946090
 30
        0.000000
 11
      -17.000000
 21
      323.250568
 31
        0.000000
  0
ARC
  8
LVL0000
 10
       -7.500000
 20
      323.250568
 30
        0.000000
 40
        0.500000
 50
      286.849282
 51
      360.000000
  0
ARC
  8
LVL0000
 10
      -12.000000
 20
      338.109088
 30
        0.000000
 40
       16.025000
 50
      253.150723
 51
      286.849282
  0
ARC
  8
LVL0000
 10
      -16.500000
 20
      323.250568
 30
        0.000000
 40
        0.500000
 50
      179.999995
 51
      253.150723
  0
ARC
  8
LVL0000
 10
       16.500000
 20
      323.250568
 30
        0.000000
 40
        0.500000
 50
      286.849282
 51
      360.000000
  0
ARC
  8
LVL0000
 10
       12.000000
 20
      338.109088
 30
        0.000000
 40
       16.025000
 50
      253.150723
 51
      286.849282
  0
ARC
  8
LVL0000
 10
        7.500000
 20
      323.250568
 30
        0.000000
 40
        0.500000
 50
      179.999995
 51
      253.150723
  0
LINE
  8
LVL0000
 10
       24.600000
 20
      333.584088
 30
        0.000000
 11
       24.600000
 21
      333.084088
 31
        0.000000
  0
LINE
  8
LVL0000
 10
      -24.600000
 20
      333.584088
 30
        0.000000
 11
      -24.600000
 21
      333.084088
 31
        0.000000
  0
LINE
  8
LVL0000
 10
       25.000000
 20
      333.584088
 30
        0.000000
 11
       24.446976
 21
      344.136424
 31
        0.000000
  0
LINE
  8
LVL0000
 10
       25.000000
 20
      333.084088
 30
        0.000000
 11
       24.685695
 21
      327.086798
 31
        0.000000
  0
LINE
  8
LVL0000
 10
      -23.000000
 20
      345.084088
 30
        0.000000
 11
      -23.000000
 21
      345.584088
 31
        0.000000
  0
ARC
  8
LVL0000
 10
      -21.689807
 20
      327.243806
 30
        0.000000
 40
        3.000000
 50
      183.000005
 51
      265.987904
  0
LINE
  8
LVL0000
 10
      -25.000000
 20
      333.084088
 30
        0.000000
 11
      -24.685695
 21
      327.086798
 31
        0.000000
  0
ARC
  8
LVL0000
 10
       14.483441
 20
      334.084088
 30
        0.000000
 40
        1.000000
 50
      213.570608
 51
      270.000000
  0
LINE
  8
LVL0000
 10
       16.000000
 20
      333.084088
 30
        0.000000
 11
       15.837291
 21
      329.979416
 31
        0.000000
  0
LINE
  8
LVL0000
 10
       13.946915
 20
      333.084088
 30
        0.000000
 11
       13.784206
 21
      329.979416
 31
        0.000000
  0
ARC
  8
LVL0000
 10
       13.840032
 20
      330.084088
 30
        0.000000
 40
        2.000000
 50
      270.000000
 51
      357.000000
  0
ARC
  8
LVL0000
 10
       10.159968
 20
      330.084088
 30
        0.000000
 40
        2.000000
 50
      213.160169
 51
      270.000000
  0
LINE
  8
LVL0000
 10
       10.159968
 20
      328.084088
 30
        0.000000
 11
       13.840032
 21
      328.084088
 31
        0.000000
  0
ARC
  8
LVL0000
 10
       11.786947
 20
      330.084088
 30
        0.000000
 40
        2.000000
 50
      270.000000
 51
      357.000000
  0
ARC
  8
LVL0000
 10
      -14.483441
 20
      334.084088
 30
        0.000000
 40
        1.000000
 50
      270.000000
 51
      326.429397
  0
LINE
  8
LVL0000
 10
      -13.946915
 20
      333.084088
 30
        0.000000
 11
      -13.784206
 21
      329.979416
 31
        0.000000
  0
LINE
  8
LVL0000
 10
      -16.000000
 20
      333.084088
 30
        0.000000
 11
      -15.837291
 21
      329.979416
 31
        0.000000
  0
ARC
  8
LVL0000
 10
      -13.840032
 20
      330.084088
 30
        0.000000
 40
        2.000000
 50
      183.000005
 51
      270.000000
  0
ARC
  8
LVL0000
 10
      -11.786947
 20
      330.084088
 30
        0.000000
 40
        2.000000
 50
      183.000005
 51
      270.000000
  0
LINE
  8
LVL0000
 10
      -10.159968
 20
      328.084088
 30
        0.000000
 11
      -13.840032
 21
      328.084088
 31
        0.000000
  0
ARC
  8
LVL0000
 10
      -10.159968
 20
      330.084088
 30
        0.000000
 40
        2.000000
 50
      270.000000
 51
      326.839836
  0
LINE
  8
LVL0000
 10
       -8.375604
 20
      336.084088
 30
        0.000000
 11
      -12.445117
 21
      329.952155
 31
        0.000000
  0
LINE
  8
LVL0000
 10
       -3.759604
 20
      336.084088
 30
        0.000000
 11
       -8.494392
 21
      328.949721
 31
        0.000000
  0
LINE
  8
LVL0000
 10
        3.759604
 20
      336.084088
 30
        0.000000
 11
        8.494392
 21
      328.949721
 31
        0.000000
  0
LINE
  8
LVL0000
 10
        8.375604
 20
      336.084088
 30
        0.000000
 11
       12.445117
 21
      329.952155
 31
        0.000000
  0
DIMENSION
  8
LVL0000
 62
  4
  2
BLK0001
 10
      117.500000
 20
      279.413696
 11
       99.863968
 21
      280.113708
 13
      117.500000
 23
      250.252930
 14
       95.400002
 24
      250.152908
 50
        0.0
 70
  0
  0
DIMENSION
  8
LVL0000
 62
  4
  2
BLK0002
 10
      -25.000000
 20
      278.219421
 11
       -3.544147
 21
      278.919434
 13
      -25.000000
 23
      249.721298
 14
       25.000000
 24
      249.721298
 50
        0.0
 70
  0
  0
DIMENSION
  8
LVL0000
 62
  4
  2
BLK0003
 10
      -51.335205
 20
      271.502930
 11
      -52.035206
 21
      193.589828
 13
        0.000000
 23
      271.502930
 14
        0.000000
 24
      131.002930
 50
       90.0
 70
  0
  0
DIMENSION
  8
LVL0000
 62
  4
  2
BLK0004
 10
      -42.295490
 20
      253.502930
 11
      -42.995491
 21
      258.965118
 13
        0.000000
 23
      253.502930
 14
        0.000000
 24
      271.502930
 50
       90.0
 70
  0
  0
DIMENSION
  8
LVL0000
 62
  4
  2
BLK0005
 10
      -42.295490
 20
      131.002930
 11
      -42.995491
 21
      186.220184
 13
        0.000000
 23
      131.002930
 14
        0.000000
 24
      253.502930
 50
       90.0
 70
  0
  0
CIRCLE
  8
LVL0000
 10
      -10.000000
 20
      187.502924
 30
        0.000000
 40
        4.200000
  0
CIRCLE
  8
LVL0000
 10
      -12.000000
 20
      200.002924
 30
        0.000000
 40
        4.200000
  0
CIRCLE
  8
LVL0000
 10
      -12.000000
 20
      232.002924
 30
        0.000000
 40
        4.200000
  0
LINE
  8
LVL0000
 10
       13.221146
 20
      218.852445
 30
        0.000000
 11
        7.221146
 21
      219.977445
 31
        0.000000
  0
ARC
  8
LVL0000
 10
        7.000000
 20
      218.797998
 30
        0.000000
 40
        1.200000
 50
       79.380343
 51
      179.999995
  0
LINE
  8
LVL0000
 10
        5.800000
 20
      218.797998
 30
        0.000000
 11
        5.800000
 21
      213.207851
 31
        0.000000
  0
ARC
  8
LVL0000
 10
        7.000000
 20
      213.207851
 30
        0.000000
 40
        1.200000
 50
      179.999995
 51
      280.619657
  0
LINE
  8
LVL0000
 10
        7.221146
 20
      212.028404
 30
        0.000000
 11
       13.221146
 21
      213.153404
 31
        0.000000
  0
ARC
  8
LVL0000
 10
       13.000000
 20
      214.332851
 30
        0.000000
 40
        1.200000
 50
      280.619657
 51
      360.000000
  0
LINE
  8
LVL0000
 10
       14.200000
 20
      214.332851
 30
        0.000000
 11
       14.200000
 21
      217.672998
 31
        0.000000
  0
ARC
  8
LVL0000
 10
       13.000000
 20
      217.672998
 30
        0.000000
 40
        1.200000
 50
        0.000000
 51
       79.380343
  0
LINE
  8
LVL0000
 10
        3.974520
 20
      223.224071
 30
        0.000000
 11
        2.849520
 21
      229.224071
 31
        0.000000
  0
ARC
  8
LVL0000
 10
        1.670074
 20
      229.002924
 30
        0.000000
 40
        1.200000
 50
       10.619655
 51
       90.000000
  0
LINE
  8
LVL0000
 10
        1.670074
 20
      230.202924
 30
        0.000000
 11
       -1.670074
 21
      230.202924
 31
        0.000000
  0
ARC
  8
LVL0000
 10
       -1.670074
 20
      229.002924
 30
        0.000000
 40
        1.200000
 50
       90.000000
 51
      169.380340
  0
LINE
  8
LVL0000
 10
       -2.849520
 20
      229.224071
 30
        0.000000
 11
       -3.974520
 21
      223.224071
 31
        0.000000
  0
ARC
  8
LVL0000
 10
       -2.795074
 20
      223.002924
 30
        0.000000
 40
        1.200000
 50
      169.380340
 51
      270.000000
  0
LINE
  8
LVL0000
 10
       -2.795074
 20
      221.802924
 30
        0.000000
 11
        2.795074
 21
      221.802924
 31
        0.000000
  0
ARC
  8
LVL0000
 10
        2.795074
 20
      223.002924
 30
        0.000000
 40
        1.200000
 50
      270.000000
 51
      370.619655
  0
LINE
  8
LVL0000
 10
       -7.221146
 20
      219.977445
 30
        0.000000
 11
      -13.221146
 21
      218.852445
 31
        0.000000
  0
ARC
  8
LVL0000
 10
      -13.000000
 20
      217.672998
 30
        0.000000
 40
        1.200000
 50
      100.619652
 51
      179.999995
  0
LINE
  8
LVL0000
 10
      -14.200000
 20
      217.672998
 30
        0.000000
 11
      -14.200000
 21
      214.332851
 31
        0.000000
  0
ARC
  8
LVL0000
 10
      -13.000000
 20
      214.332851
 30
        0.000000
 40
        1.200000
 50
      179.999995
 51
      259.380348
  0
LINE
  8
LVL0000
 10
      -13.221146
 20
      213.153404
 30
        0.000000
 11
       -7.221146
 21
      212.028404
 31
        0.000000
  0
ARC
  8
LVL0000
 10
       -7.000000
 20
      213.207851
 30
        0.000000
 40
        1.200000
 50
      259.380348
 51
      360.000000
  0
LINE
  8
LVL0000
 10
       -5.800000
 20
      213.207851
 30
        0.000000
 11
       -5.800000
 21
      218.797998
 31
        0.000000
  0
ARC
  8
LVL0000
 10
       -7.000000
 20
      218.797998
 30
        0.000000
 40
        1.200000
 50
        0.000000
 51
      100.619652
  0
LINE
  8
LVL0000
 10
        2.795074
 20
      210.202924
 30
        0.000000
 11
       -2.795074
 21
      210.202924
 31
        0.000000
  0
ARC
  8
LVL0000
 10
       -2.795074
 20
      209.002924
 30
        0.000000
 40
        1.200000
 50
       90.000000
 51
      190.619660
  0
LINE
  8
LVL0000
 10
       -3.974520
 20
      208.781778
 30
        0.000000
 11
       -2.849520
 21
      202.781778
 31
        0.000000
  0
ARC
  8
LVL0000
 10
       -1.670074
 20
      203.002924
 30
        0.000000
 40
        1.200000
 50
      190.619660
 51
      270.000000
  0
LINE
  8
LVL0000
 10
       -1.670074
 20
      201.802924
 30
        0.000000
 11
        1.670074
 21
      201.802924
 31
        0.000000
  0
ARC
  8
LVL0000
 10
        1.670074
 20
      203.002924
 30
        0.000000
 40
        1.200000
 50
      270.000000
 51
      349.380345
  0
LINE
  8
LVL0000
 10
        2.849520
 20
      202.781778
 30
        0.000000
 11
        3.974520
 21
      208.781778
 31
        0.000000
  0
ARC
  8
LVL0000
 10
        2.795074
 20
      209.002924
 30
        0.000000
 40
        1.200000
 50
      349.380345
 51
      450.000000
  0
LINE
  8
LVL0000
 10
      117.500000
 20
      250.252924
 30
        0.000000
 11
      117.500000
 21
      233.252924
 31
        0.000000
  0
LINE
  8
LVL0000
 10
       94.465305
 20
      222.465529
 30
        0.000000
 11
       93.940305
 21
      229.465529
 31
        0.000000
  0
ARC
  8
LVL0000
 10
       94.963904
 20
      222.502924
 30
        0.000000
 40
        0.500000
 50
      184.289158
 51
      270.000000
  0
LINE
  8
LVL0000
 10
      105.500000
 20
      253.102924
 30
        0.000000
 11
      105.000000
 21
      253.102924
 31
        0.000000
  0
ARC
  8
LVL0000
 10
      110.000000
 20
      269.342956
 30
        0.000000
 40
        2.000000
 50
       92.999997
 51
      179.999995
  0
LINE
  8
LVL0000
 10
      113.000000
 20
      271.502924
 30
        0.000000
 11
      109.895328
 21
      271.340215
 31
        0.000000
  0
ARC
  8
LVL0000
 10
      116.000000
 20
      250.925066
 30
        0.000000
 40
        1.000000
 50
        0.000000
 51
       86.999998
  0
LINE
  8
LVL0000
 10
      113.000000
 20
      271.502924
 30
        0.000000
 11
      113.000000
 21
      263.917138
 31
        0.000000
  0
ARC
  8
LVL0000
 10
      112.000000
 20
      263.917138
 30
        0.000000
 40
        1.000000
 50
      315.000001
 51
      360.000000
  0
LINE
  8
LVL0000
 10
      117.000000
 20
      250.925066
 30
        0.000000
 11
      117.000000
 21
      232.245565
 31
        0.000000
  0
LINE
  8
LVL0000
 10
      116.147584
 20
      251.914116
 30
        0.000000
 11
      105.500000
 21
      253.502924
 31
        0.000000
  0
ARC
  8
LVL0000
 10
      102.000000
 20
      255.331351
 30
        0.000000
 40
        3.000000
 50
      134.999996
 51
      179.999995
  0
LINE
  8
LVL0000
 10
       99.000000
 20
      255.331351
 30
        0.000000
 11
       99.000000
 21
      253.188478
 31
        0.000000
  0
LINE
  8
LVL0000
 10
       99.878680
 20
      257.452672
 30
        0.000000
 11
      107.707107
 21
      265.281099
 31
        0.000000
  0
LINE
  8
LVL0000
 10
      108.000000
 20
      269.342956
 30
        0.000000
 11
      108.000000
 21
      265.988206
 31
        0.000000
  0
LINE
  8
LVL0000
 10
      105.000000
 20
      252.502924
 30
        0.000000
 11
      116.052336
 21
      251.923696
 31
        0.000000
  0
ARC
  8
LVL0000
 10
       98.400000
 20
      250.152916
 30
        0.000000
 40
        3.000000
 50
       92.999997
 51
      179.999995
  0
LINE
  8
LVL0000
 10
      105.000000
 20
      253.502924
 30
        0.000000
 11
       98.242992
 21
      253.148805
 31
        0.000000
  0
ARC
  8
LVL0000
 10
      107.000000
 20
      265.988206
 30
        0.000000
 40
        1.000000
 50
      315.000001
 51
      360.000000
  0
LINE
  8
LVL0000
 10
      105.292893
 20
      255.795818
 30
        0.000000
 11
      112.707107
 21
      263.210031
 31
        0.000000
  0
ARC
  8
LVL0000
 10
      106.000000
 20
      255.088711
 30
        0.000000
 40
        1.000000
 50
      134.999996
 51
      179.999995
  0
ARC
  8
LVL0000
 10
      114.000000
 20
      161.152551
 30
        0.000000
 40
        3.000000
 50
      354.289407
 51
      360.000000
  0
LINE
  8
LVL0000
 10
      117.000000
 20
      161.152551
 30
        0.000000
 11
      117.000000
 21
      187.760284
 31
        0.000000
  0
LINE
  8
LVL0000
 10
      114.303675
 20
      134.039672
 30
        0.000000
 11
      116.985112
 21
      160.854040
 31
        0.000000
  0
ARC
  8
LVL0000
 10
      117.000000
 20
      193.245565
 30
        0.000000
 40
        3.000000
 50
      179.999995
 51
      225.000004
  0
LINE
  8
LVL0000
 10
      116.121320
 20
      189.881604
 30
        0.000000
 11
      114.878680
 21
      191.124245
 31
        0.000000
  0
LINE
  8
LVL0000
 10
      114.000000
 20
      226.760284
 30
        0.000000
 11
      114.000000
 21
      193.245565
 31
        0.000000
  0
ARC
  8
LVL0000
 10
      114.000000
 20
      187.760284
 30
        0.000000
 40
        3.000000
 50
        0.000000
 51
       44.999999
  0
ARC
  8
LVL0000
 10
      117.000000
 20
      226.760284
 30
        0.000000
 40
        3.000000
 50
      134.999996
 51
      179.999995
  0
LINE
  8
LVL0000
 10
      116.121320
 20
      230.124245
 30
        0.000000
 11
      114.878680
 21
      228.881604
 31
        0.000000
  0
ARC
  8
LVL0000
 10
      114.000000
 20
      232.245565
 30
        0.000000
 40
        3.000000
 50
      315.000001
 51
      360.000000
  0
ARC
  8
LVL0000
 10
      111.318563
 20
      134.338183
 30
        0.000000
 40
        3.000000
 50
      273.000002
 51
      354.289407
  0
LINE
  8
LVL0000
 10
      105.000000
 20
      131.002924
 30
        0.000000
 11
      111.475571
 21
      131.342295
 31
        0.000000
  0
ARC
  8
LVL0000
 10
       99.204137
 20
      134.310790
 30
        0.000000
 40
        3.000000
 50
      183.299836
 51
      267.000003
  0
LINE
  8
LVL0000
 10
      105.000000
 20
      131.002924
 30
        0.000000
 11
       99.047129
 21
      131.314901
 31
        0.000000
  0
LINE
  8
LVL0000
 10
      117.500000
 20
      162.252924
 30
        0.000000
 11
      117.500000
 21
      186.752924
 31
        0.000000
  0
LINE
  8
LVL0000
 10
      117.500000
 20
      250.252924
 30
        0.000000
 11
      117.000000
 21
      250.252924
 31
        0.000000
  0
LINE
  8
LVL0000
 10
       94.963904
 20
      222.002924
 30
        0.000000
 11
       95.400000
 21
      222.002924
 31
        0.000000
  0
LINE
  8
LVL0000
 10
      117.000000
 20
      233.252924
 30
        0.000000
 11
      117.500000
 21
      233.252924
 31
        0.000000
  0
LINE
  8
LVL0000
 10
      117.000000
 20
      186.752924
 30
        0.000000
 11
      117.500000
 21
      186.752924
 31
        0.000000
  0
LINE
  8
LVL0000
 10
      117.500000
 20
      162.252924
 30
        0.000000
 11
      117.000000
 21
      162.252924
 31
        0.000000
  0
LINE
  8
LVL0000
 10
      105.000000
 20
      255.088711
 30
        0.000000
 11
      105.000000
 21
      131.002924
 31
        0.000000
  0
LINE
  8
LVL0000
 10
      105.500000
 20
      131.029128
 30
        0.000000
 11
      105.500000
 21
      253.502924
 31
        0.000000
  0
LINE
  8
LVL0000
 10
      105.000000
 20
      252.502924
 30
        0.000000
 11
       99.242992
 21
      252.201212
 31
        0.000000
  0
LINE
  8
LVL0000
 10
       96.400000
 20
      136.021966
 30
        0.000000
 11
       96.400000
 21
      249.205324
 31
        0.000000
  0
ARC
  8
LVL0000
 10
      583.400000
 20
      162.227914
 30
        0.000000
 40
      488.000000
 50
      179.999995
 51
      183.299836
  0
LINE
  8
LVL0000
 10
       95.400000
 20
      162.227914
 30
        0.000000
 11
       95.400000
 21
      250.152916
 31
        0.000000
  0
ARC
  8
LVL0000
 10
       95.000000
 20
      196.502924
 30
        0.000000
 40
        0.500000
 50
      196.260209
 51
      270.000000
  0
ARC
  8
LVL0000
 10
      107.000000
 20
      200.002924
 30
        0.000000
 40
       13.000000
 50
      163.739791
 51
      196.260209
  0
ARC
  8
LVL0000
 10
       95.000000
 20
      203.502924
 30
        0.000000
 40
        0.500000
 50
       90.000000
 51
      163.739791
  0
LINE
  8
LVL0000
 10
       95.400000
 20
      204.002924
 30
        0.000000
 11
       95.000000
 21
      204.002924
 31
        0.000000
  0
LINE
  8
LVL0000
 10
       95.400000
 20
      196.002924
 30
        0.000000
 11
       95.000000
 21
      196.002924
 31
        0.000000
  0
LINE
  8
LVL0000
 10
       95.400000
 20
      228.002924
 30
        0.000000
 11
       95.000000
 21
      228.002924
 31
        0.000000
  0
LINE
  8
LVL0000
 10
       95.400000
 20
      236.002924
 30
        0.000000
 11
       95.000000
 21
      236.002924
 31
        0.000000
  0
ARC
  8
LVL0000
 10
       95.000000
 20
      235.502924
 30
        0.000000
 40
        0.500000
 50
       90.000000
 51
      163.739791
  0
ARC
  8
LVL0000
 10
      107.000000
 20
      232.002924
 30
        0.000000
 40
       13.000000
 50
      163.739791
 51
      196.260209
  0
ARC
  8
LVL0000
 10
       95.000000
 20
      228.502924
 30
        0.000000
 40
        0.500000
 50
      196.260209
 51
      270.000000
  0
LINE
  8
LVL0000
 10
       95.400000
 20
      183.502924
 30
        0.000000
 11
       95.000000
 21
      183.502924
 31
        0.000000
  0
LINE
  8
LVL0000
 10
       95.400000
 20
      191.502924
 30
        0.000000
 11
       95.000000
 21
      191.502924
 31
        0.000000
  0
ARC
  8
LVL0000
 10
       95.000000
 20
      191.002924
 30
        0.000000
 40
        0.500000
 50
       90.000000
 51
      163.739791
  0
ARC
  8
LVL0000
 10
      107.000000
 20
      187.502924
 30
        0.000000
 40
       13.000000
 50
      163.739791
 51
      196.260209
  0
ARC
  8
LVL0000
 10
       95.000000
 20
      184.002924
 30
        0.000000
 40
        0.500000
 50
      196.260209
 51
      270.000000
  0
ARC
  8
LVL0000
 10
       95.000000
 20
      171.502924
 30
        0.000000
 40
        0.500000
 50
      196.260209
 51
      270.000000
  0
ARC
  8
LVL0000
 10
      107.000000
 20
      175.002924
 30
        0.000000
 40
       13.000000
 50
      163.739791
 51
      196.260209
  0
ARC
  8
LVL0000
 10
       95.000000
 20
      178.502924
 30
        0.000000
 40
        0.500000
 50
       90.000000
 51
      163.739791
  0
LINE
  8
LVL0000
 10
       95.400000
 20
      179.002924
 30
        0.000000
 11
       95.000000
 21
      179.002924
 31
        0.000000
  0
LINE
  8
LVL0000
 10
       95.400000
 20
      171.002924
 30
        0.000000
 11
       95.000000
 21
      171.002924
 31
        0.000000
  0
ARC
  8
LVL0000
 10
       94.963904
 20
      209.502924
 30
        0.000000
 40
        0.500000
 50
       90.000000
 51
      175.710842
  0
LINE
  8
LVL0000
 10
       94.465305
 20
      209.540319
 30
        0.000000
 11
       93.940305
 21
      202.540319
 31
        0.000000
  0
LINE
  8
LVL0000
 10
       94.963904
 20
      210.002924
 30
        0.000000
 11
       95.400000
 21
      210.002924
 31
        0.000000
  0
ARC
  8
LVL0000
 10
       94.438904
 20
      229.502924
 30
        0.000000
 40
        0.500000
 50
      122.876211
 51
      184.289158
  0
ARC
  8
LVL0000
 10
       94.438904
 20
      202.502924
 30
        0.000000
 40
        0.500000
 50
      175.710842
 51
      237.123789
  0
ARC
  8
LVL0000
 10
       94.965305
 20
      218.002924
 30
        0.000000
 40
        0.500000
 50
       90.000000
 51
      179.999995
  0
ARC
  8
LVL0000
 10
       94.965305
 20
      214.002924
 30
        0.000000
 40
        0.500000
 50
      179.999995
 51
      270.000000
  0
ARC
  8
LVL0000
 10
       94.965305
 20
      219.502924
 30
        0.000000
 40
        0.500000
 50
       90.000000
 51
      179.999995
  0
LINE
  8
LVL0000
 10
       94.465305
 20
      219.502924
 30
        0.000000
 11
       94.465305
 21
      212.502924
 31
        0.000000
  0
ARC
  8
LVL0000
 10
       94.965305
 20
      212.502924
 30
        0.000000
 40
        0.500000
 50
      179.999995
 51
      270.000000
  0
LINE
  8
LVL0000
 10
       94.965305
 20
      212.002924
 30
        0.000000
 11
       95.400000
 21
      212.002924
 31
        0.000000
  0
LINE
  8
LVL0000
 10
       94.965305
 20
      220.002924
 30
        0.000000
 11
       95.400000
 21
      220.002924
 31
        0.000000
  0
LINE
  8
LVL0000
 10
       94.965305
 20
      213.502924
 30
        0.000000
 11
       95.400000
 21
      213.502924
 31
        0.000000
  0
LINE
  8
LVL0000
 10
       94.965305
 20
      218.502924
 30
        0.000000
 11
       95.400000
 21
      218.502924
 31
        0.000000
  0
ARC
  8
LVL0000
 10
       99.400000
 20
      249.205324
 30
        0.000000
 40
        3.000000
 50
       92.999997
 51
      179.999995
  0
DIMENSION
  8
LVL0000
 62
  4
  2
BLK0006
 10
      -42.271786
 20
       53.000000
 11
      -42.971786
 21
       85.020309
 13
       -5.000000
 23
       53.000000
 14
       -6.216136
 24
      131.002930
 50
       90.0
 70
  0
  0
TEXT
  8
LVL0000
 62
  2
 10
     -100.294742
 20
      301.932954
 30
        0.000000
 40
        4.000000
  1
ＩＶＳ２００ＲＫ
 50
        0.000000
 41
        0.835000
 51
        0.000000
  7
BIGFONT
  0
LINE
  8
LVL0000
 10
      -16.000000
 20
       23.000000
 30
        0.000000
 11
      -16.000000
 21
        0.000000
 31
        0.000000
  0
LINE
  8
LVL0000
 10
       16.000000
 20
       23.000000
 30
        0.000000
 11
       16.000000
 21
        0.000000
 31
        0.000000
  0
LINE
  8
LVL0000
 10
        9.000000
 20
        0.000000
 30
        0.000000
 11
        9.000000
 21
       -6.000000
 31
        0.000000
  0
LINE
  8
LVL0000
 10
       -9.000000
 20
        0.000000
 30
        0.000000
 11
       -9.000000
 21
       -6.000000
 31
        0.000000
  0
LINE
  8
LVL0000
 10
       -9.000000
 20
       23.000000
 30
        0.000000
 11
       -7.500000
 21
       29.000000
 31
        0.000000
  0
LINE
  8
LVL0000
 10
        9.000000
 20
       23.000000
 30
        0.000000
 11
        7.500000
 21
       29.000000
 31
        0.000000
  0
LINE
  8
LVL0000
 10
       16.000000
 20
       23.000000
 30
        0.000000
 11
      -16.000000
 21
       23.000000
 31
        0.000000
  0
LINE
  8
LVL0000
 10
        7.500000
 20
       29.000000
 30
        0.000000
 11
       -7.500000
 21
       29.000000
 31
        0.000000
  0
LINE
  8
LVL0000
 10
        7.000000
 20
       29.000000
 30
        0.000000
 11
        5.000000
 21
       53.000000
 31
        0.000000
  0
LINE
  8
LVL0000
 10
       -5.000000
 20
       53.000000
 30
        0.000000
 11
       -7.000000
 21
       29.000000
 31
        0.000000
  0
LINE
  8
LVL0000
 10
        5.000000
 20
       53.000000
 30
        0.000000
 11
       -5.000000
 21
       53.000000
 31
        0.000000
  0
INSERT
  8
LVL0000
 62
  2
  2
BLK0007
 10
        0.000000
 20
        0.000000
  0
INSERT
  8
LVL0000
 62
  2
  2
BLK0008
 10
        0.000000
 20
        0.000000
  0
LINE
  8
LVL0000
 10
        2.250000
 20
       76.646949
 30
        0.000000
 11
        2.250000
 21
       53.000000
 31
        0.000000
  0
LINE
  8
LVL0000
 10
       -2.250000
 20
       78.796819
 30
        0.000000
 11
       -2.250000
 21
       53.000000
 31
        0.000000
  0
LINE
  8
LVL0000
 10
       -3.500000
 20
      112.002924
 30
        0.000000
 11
       -4.000000
 21
      127.502924
 31
        0.000000
  0
LINE
  8
LVL0000
 10
        3.500000
 20
      112.002924
 30
        0.000000
 11
        4.000000
 21
      127.502924
 31
        0.000000
  0
ARC
  8
LVL0000
 10
       -6.698793
 20
      127.583649
 30
        0.000000
 40
        2.700000
 50
      358.286724
 51
      423.640787
  0
ARC
  8
LVL0000
 10
        6.698793
 20
      127.583649
 30
        0.000000
 40
        2.700000
 50
      116.359208
 51
      181.713281
  0
LINE
  8
LVL0000
 10
        3.500000
 20
      112.002924
 30
        0.000000
 11
       -3.500000
 21
      112.002924
 31
        0.000000
  0
LINE
  8
LVL0000
 10
        4.000000
 20
      127.502924
 30
        0.000000
 11
       -4.000000
 21
      127.502924
 31
        0.000000
  0
LINE
  8
LVL0000
 10
        5.500000
 20
      130.002924
 30
        0.000000
 11
       -5.500000
 21
      130.002924
 31
        0.000000
  0
LINE
  8
LVL0000
 10
        5.500000
 20
      131.002924
 30
        0.000000
 11
        5.500000
 21
      130.002924
 31
        0.000000
  0
LINE
  8
LVL0000
 10
       -5.500000
 20
      131.002924
 30
        0.000000
 11
       -5.500000
 21
      130.002924
 31
        0.000000
  0
LINE
  8
LVL0000
 10
        2.250000
 20
      112.002924
 30
        0.000000
 11
        2.250000
 21
       79.646949
 31
        0.000000
  0
LINE
  8
LVL0000
 10
       -2.250000
 20
      112.002924
 30
        0.000000
 11
       -2.250000
 21
       81.796819
 31
        0.000000
  0
LINE
  8
LVL0000
 10
        9.000000
 20
       -6.000000
 30
        0.000000
 11
       -9.000000
 21
       -6.000000
 31
        0.000000
  0
LINE
  8
LVL0000
 10
       16.000000
 20
        1.000000
 30
        0.000000
 11
      -16.000000
 21
        1.000000
 31
        0.000000
  0
LINE
  8
LVL0000
 10
       16.000000
 20
        0.000000
 30
        0.000000
 11
      -16.000000
 21
        0.000000
 31
        0.000000
  0
LINE
  8
LVL0000
 10
       97.000000
 20
       29.000000
 30
        0.000000
 11
      113.000000
 21
       29.000000
 31
        0.000000
  0
LINE
  8
LVL0000
 10
      113.000000
 20
       29.000000
 30
        0.000000
 11
      113.000000
 21
        0.000000
 31
        0.000000
  0
LINE
  8
LVL0000
 10
       97.000000
 20
       29.000000
 30
        0.000000
 11
       97.000000
 21
        0.000000
 31
        0.000000
  0
LINE
  8
LVL0000
 10
       97.000000
 20
        1.000000
 30
        0.000000
 11
      113.000000
 21
        1.000000
 31
        0.000000
  0
LINE
  8
LVL0000
 10
       97.000000
 20
        0.000000
 30
        0.000000
 11
      113.000000
 21
        0.000000
 31
        0.000000
  0
LINE
  8
LVL0000
 10
       97.000000
 20
       23.000000
 30
        0.000000
 11
      113.000000
 21
       23.000000
 31
        0.000000
  0
LINE
  8
LVL0000
 10
      100.500000
 20
        0.000000
 30
        0.000000
 11
      100.500000
 21
       -6.000000
 31
        0.000000
  0
LINE
  8
LVL0000
 10
      100.500000
 20
       -6.000000
 30
        0.000000
 11
      109.500000
 21
       -6.000000
 31
        0.000000
  0
LINE
  8
LVL0000
 10
      109.500000
 20
        0.000000
 30
        0.000000
 11
      109.500000
 21
       -6.000000
 31
        0.000000
  0
LINE
  8
LVL0000
 10
       99.500000
 20
      131.473802
 30
        0.000000
 11
       99.500000
 21
      130.002924
 31
        0.000000
  0
LINE
  8
LVL0000
 10
      110.500000
 20
      131.443019
 30
        0.000000
 11
      110.500000
 21
      130.002924
 31
        0.000000
  0
LINE
  8
LVL0000
 10
       98.000000
 20
       29.000000
 30
        0.000000
 11
      100.000000
 21
       53.000000
 31
        0.000000
  0
LINE
  8
LVL0000
 10
      110.000000
 20
       53.000000
 30
        0.000000
 11
      112.000000
 21
       29.000000
 31
        0.000000
  0
LINE
  8
LVL0000
 10
      100.000000
 20
       53.000000
 30
        0.000000
 11
      110.000000
 21
       53.000000
 31
        0.000000
  0
LINE
  8
LVL0000
 10
      102.750000
 20
       76.646949
 30
        0.000000
 11
      102.750000
 21
       53.000000
 31
        0.000000
  0
LINE
  8
LVL0000
 10
      107.250000
 20
       78.796819
 30
        0.000000
 11
      107.250000
 21
       53.000000
 31
        0.000000
  0
LINE
  8
LVL0000
 10
      108.500000
 20
      112.002924
 30
        0.000000
 11
      109.000000
 21
      127.502924
 31
        0.000000
  0
LINE
  8
LVL0000
 10
      101.500000
 20
      112.002924
 30
        0.000000
 11
      101.000000
 21
      127.502924
 31
        0.000000
  0
ARC
  8
LVL0000
 10
      111.698793
 20
      127.583649
 30
        0.000000
 40
        2.700000
 50
      116.359208
 51
      181.713281
  0
ARC
  8
LVL0000
 10
       98.301207
 20
      127.583649
 30
        0.000000
 40
        2.700000
 50
      358.286724
 51
      423.640787
  0
LINE
  8
LVL0000
 10
      101.500000
 20
      112.002924
 30
        0.000000
 11
      108.500000
 21
      112.002924
 31
        0.000000
  0
LINE
  8
LVL0000
 10
      101.000000
 20
      127.502924
 30
        0.000000
 11
      109.000000
 21
      127.502924
 31
        0.000000
  0
LINE
  8
LVL0000
 10
       99.500000
 20
      130.002924
 30
        0.000000
 11
      110.500000
 21
      130.002924
 31
        0.000000
  0
LINE
  8
LVL0000
 10
      102.750000
 20
      112.002924
 30
        0.000000
 11
      102.750000
 21
       79.646949
 31
        0.000000
  0
LINE
  8
LVL0000
 10
      107.250000
 20
      112.002924
 30
        0.000000
 11
      107.250000
 21
       81.796819
 31
        0.000000
  0
INSERT
  8
LVL0000
 62
  2
  2
BLK0009
 10
        0.000000
 20
        0.000000
  0
INSERT
  8
LVL0000
 62
  2
  2
BLK0010
 10
        0.000000
 20
        0.000000
  0
LINE
  8
LVL0000
 10
        6.216136
 20
      131.002924
 30
        0.000000
 11
       -6.216136
 21
      131.002924
 31
        0.000000
  0
ARC
  8
LVL0000
 10
       -7.000000
 20
      213.207851
 30
        0.000000
 40
        1.500000
 50
      259.380348
 51
      360.000000
  0
LINE
  8
LVL0000
 10
      -13.276433
 20
      212.858542
 30
        0.000000
 11
       -7.276433
 21
      211.733542
 31
        0.000000
  0
ARC
  8
LVL0000
 10
      -13.000000
 20
      214.332851
 30
        0.000000
 40
        1.500000
 50
      179.999995
 51
      259.380348
  0
LINE
  8
LVL0000
 10
      -14.500000
 20
      217.672998
 30
        0.000000
 11
      -14.500000
 21
      214.332851
 31
        0.000000
  0
ARC
  8
LVL0000
 10
      -13.000000
 20
      217.672998
 30
        0.000000
 40
        1.500000
 50
      100.619652
 51
      179.999995
  0
LINE
  8
LVL0000
 10
       -7.276433
 20
      220.272306
 30
        0.000000
 11
      -13.276433
 21
      219.147306
 31
        0.000000
  0
ARC
  8
LVL0000
 10
       -7.000000
 20
      218.797998
 30
        0.000000
 40
        1.500000
 50
        0.000000
 51
      100.619652
  0
LINE
  8
LVL0000
 10
       -5.500000
 20
      213.207851
 30
        0.000000
 11
       -5.500000
 21
      218.797998
 31
        0.000000
  0
LINE
  8
LVL0000
 10
      -25.000000
 20
      162.227914
 30
        0.000000
 11
      -25.000000
 21
      249.721294
 31
        0.000000
  0
LINE
  8
LVL0000
 10
       25.000000
 20
      162.227914
 30
        0.000000
 11
       25.000000
 21
      249.721294
 31
        0.000000
  0
LINE
  8
LVL0000
 10
       -7.751697
 20
      267.075800
 30
        0.000000
 11
      -14.370819
 21
      255.855412
 31
        0.000000
  0
LINE
  8
LVL0000
 10
       -2.562917
 20
      265.573992
 30
        0.000000
 11
       -8.637642
 21
      265.573992
 31
        0.000000
  0
ARC
  8
LVL0000
 10
        0.000000
 20
      262.502924
 30
        0.000000
 40
        9.000000
 50
       90.000000
 51
      149.462825
  0
ARC
  8
LVL0000
 10
        0.000000
 20
      262.502924
 30
        0.000000
 40
        4.000000
 50
       90.000000
 51
      157.961389
  0
LINE
  8
LVL0000
 10
       -6.715407
 20
      256.573992
 30
        0.000000
 11
      -13.946915
 21
      256.573992
 31
        0.000000
  0
LINE
  8
LVL0000
 10
       -3.707725
 20
      264.003849
 30
        0.000000
 11
       -8.000000
 21
      253.400671
 31
        0.000000
  0
ARC
  8
LVL0000
 10
      -19.538618
 20
      258.903996
 30
        0.000000
 40
        6.000000
 50
      273.511543
 51
      329.462830
  0
ARC
  8
LVL0000
 10
       22.000000
 20
      249.721294
 30
        0.000000
 40
        3.000000
 50
        0.000000
 51
       85.930425
  0
ARC
  8
LVL0000
 10
      -22.000000
 20
      249.721294
 30
        0.000000
 40
        3.000000
 50
       94.069570
 51
      179.999995
  0
LINE
  8
LVL0000
 10
        3.707725
 20
      264.003849
 30
        0.000000
 11
        8.000000
 21
      253.400671
 31
        0.000000
  0
ARC
  8
LVL0000
 10
        0.000000
 20
      262.502924
 30
        0.000000
 40
        4.000000
 50
       22.038606
 51
       90.000000
  0
ARC
  8
LVL0000
 10
        0.000000
 20
      262.502924
 30
        0.000000
 40
        9.000000
 50
       30.537170
 51
       90.000000
  0
LINE
  8
LVL0000
 10
        2.562917
 20
      265.573992
 30
        0.000000
 11
        8.637642
 21
      265.573992
 31
        0.000000
  0
LINE
  8
LVL0000
 10
        6.715407
 20
      256.573992
 30
        0.000000
 11
       13.946915
 21
      256.573992
 31
        0.000000
  0
LINE
  8
LVL0000
 10
        7.751697
 20
      267.075800
 30
        0.000000
 11
       14.370819
 21
      255.855412
 31
        0.000000
  0
ARC
  8
LVL0000
 10
        0.000000
 20
      -59.497076
 30
        0.000000
 40
      313.000000
 50
       85.930425
 51
       94.069570
  0
ARC
  8
LVL0000
 10
       19.538618
 20
      258.903996
 30
        0.000000
 40
        6.000000
 50
      210.537175
 51
      266.488462
  0
ARC
  8
LVL0000
 10
       75.000000
 20
      162.227914
 30
        0.000000
 40
      100.000000
 50
      179.999995
 51
      196.472134
  0
ARC
  8
LVL0000
 10
       -6.216136
 20
      231.002924
 30
        0.000000
 40
      100.000000
 50
      263.011047
 51
      270.000000
  0
ARC
  8
LVL0000
 10
      -18.018904
 20
      134.723671
 30
        0.000000
 40
        3.000000
 50
      196.472134
 51
      263.011047
  0
ARC
  8
LVL0000
 10
       18.018904
 20
      134.723671
 30
        0.000000
 40
        3.000000
 50
      276.988958
 51
      343.527871
  0
ARC
  8
LVL0000
 10
      -75.000000
 20
      162.227914
 30
        0.000000
 40
      100.000000
 50
      343.527871
 51
      360.000000
  0
ARC
  8
LVL0000
 10
        6.216136
 20
      231.002924
 30
        0.000000
 40
      100.000000
 50
      270.000000
 51
      276.988958
  0
LINE
  8
LVL0000
 10
        5.500000
 20
      213.207851
 30
        0.000000
 11
        5.500000
 21
      218.797998
 31
        0.000000
  0
ARC
  8
LVL0000
 10
        7.000000
 20
      218.797998
 30
        0.000000
 40
        1.500000
 50
       79.380343
 51
      179.999995
  0
LINE
  8
LVL0000
 10
        7.276433
 20
      220.272306
 30
        0.000000
 11
       13.276433
 21
      219.147306
 31
        0.000000
  0
ARC
  8
LVL0000
 10
       13.000000
 20
      217.672998
 30
        0.000000
 40
        1.500000
 50
        0.000000
 51
       79.380343
  0
LINE
  8
LVL0000
 10
       14.500000
 20
      217.672998
 30
        0.000000
 11
       14.500000
 21
      214.332851
 31
        0.000000
  0
ARC
  8
LVL0000
 10
       13.000000
 20
      214.332851
 30
        0.000000
 40
        1.500000
 50
      280.619657
 51
      360.000000
  0
LINE
  8
LVL0000
 10
       13.276433
 20
      212.858542
 30
        0.000000
 11
        7.276433
 21
      211.733542
 31
        0.000000
  0
ARC
  8
LVL0000
 10
        7.000000
 20
      213.207851
 30
        0.000000
 40
        1.500000
 50
      179.999995
 51
      280.619657
  0
ARC
  8
LVL0000
 10
        2.795074
 20
      223.002924
 30
        0.000000
 40
        1.500000
 50
      270.000000
 51
      370.619655
  0
LINE
  8
LVL0000
 10
        3.144382
 20
      229.279357
 30
        0.000000
 11
        4.269382
 21
      223.279357
 31
        0.000000
  0
ARC
  8
LVL0000
 10
        1.670074
 20
      229.002924
 30
        0.000000
 40
        1.500000
 50
       10.619655
 51
       90.000000
  0
LINE
  8
LVL0000
 10
       -1.670074
 20
      230.502924
 30
        0.000000
 11
        1.670074
 21
      230.502924
 31
        0.000000
  0
ARC
  8
LVL0000
 10
       -1.670074
 20
      229.002924
 30
        0.000000
 40
        1.500000
 50
       90.000000
 51
      169.380340
  0
LINE
  8
LVL0000
 10
       -4.269382
 20
      223.279357
 30
        0.000000
 11
       -3.144382
 21
      229.279357
 31
        0.000000
  0
ARC
  8
LVL0000
 10
       -2.795074
 20
      223.002924
 30
        0.000000
 40
        1.500000
 50
      169.380340
 51
      270.000000
  0
LINE
  8
LVL0000
 10
        2.795074
 20
      221.502924
 30
        0.000000
 11
       -2.795074
 21
      221.502924
 31
        0.000000
  0
LINE
  8
LVL0000
 10
       -2.795074
 20
      210.502924
 30
        0.000000
 11
        2.795074
 21
      210.502924
 31
        0.000000
  0
ARC
  8
LVL0000
 10
        2.795074
 20
      209.002924
 30
        0.000000
 40
        1.500000
 50
      349.380345
 51
      450.000000
  0
LINE
  8
LVL0000
 10
        4.269382
 20
      208.726492
 30
        0.000000
 11
        3.144382
 21
      202.726492
 31
        0.000000
  0
ARC
  8
LVL0000
 10
        1.670074
 20
      203.002924
 30
        0.000000
 40
        1.500000
 50
      270.000000
 51
      349.380345
  0
LINE
  8
LVL0000
 10
        1.670074
 20
      201.502924
 30
        0.000000
 11
       -1.670074
 21
      201.502924
 31
        0.000000
  0
ARC
  8
LVL0000
 10
       -1.670074
 20
      203.002924
 30
        0.000000
 40
        1.500000
 50
      190.619660
 51
      270.000000
  0
LINE
  8
LVL0000
 10
       -3.144382
 20
      202.726492
 30
        0.000000
 11
       -4.269382
 21
      208.726492
 31
        0.000000
  0
ARC
  8
LVL0000
 10
       -2.795074
 20
      209.002924
 30
        0.000000
 40
        1.500000
 50
       90.000000
 51
      190.619660
  0
CIRCLE
  8
LVL0000
 10
      -12.000000
 20
      232.002924
 30
        0.000000
 40
        4.500000
  0
CIRCLE
  8
LVL0000
 10
      -12.000000
 20
      200.002924
 30
        0.000000
 40
        4.500000
  0
CIRCLE
  8
LVL0000
 10
      -10.000000
 20
      187.502924
 30
        0.000000
 40
        4.500000
  0
CIRCLE
  8
LVL0000
 10
       -8.000000
 20
      175.002924
 30
        0.000000
 40
        4.500000
  0
CIRCLE
  8
LVL0000
 10
        8.000000
 20
      175.002924
 30
        0.000000
 40
        4.500000
  0
CIRCLE
  8
LVL0000
 10
       10.000000
 20
      187.502924
 30
        0.000000
 40
        4.500000
  0
CIRCLE
  8
LVL0000
 10
       12.000000
 20
      200.002924
 30
        0.000000
 40
        4.500000
  0
CIRCLE
  8
LVL0000
 10
       12.000000
 20
      232.002924
 30
        0.000000
 40
        4.500000
  0
CIRCLE
  8
LVL0000
 10
       12.000000
 20
      232.002924
 30
        0.000000
 40
        4.200000
  0
CIRCLE
  8
LVL0000
 10
       12.000000
 20
      200.002924
 30
        0.000000
 40
        4.200000
  0
CIRCLE
  8
LVL0000
 10
       10.000000
 20
      187.502924
 30
        0.000000
 40
        4.200000
  0
CIRCLE
  8
LVL0000
 10
        8.000000
 20
      175.002924
 30
        0.000000
 40
        4.200000
  0
CIRCLE
  8
LVL0000
 10
       -8.000000
 20
      175.002924
 30
        0.000000
 40
        4.200000
  0
ENDSEC
  0
EOF
