  0
SECTION
  2
HEADER
  9
$ACADVER
  1
AC1006
  9
$INSBASE
 10
0.0
 20
0.0
 30
0.0
  9
$EXTMIN
 10
     -416.000000
 20
     -416.000000
  9
$EXTMAX
 10
      449.000000
 20
       88.300049
  9
$LIMMIN
 10
     -416.000000
 20
     -416.000000
  9
$LIMMAX
 10
      449.000000
 20
       88.300049
  9
$VIEWCTR
 10
       16.500000
 20
       16.500000
  9
$ORTHOMODE
 70
     0
  9
$ANGBASE
 50
0.0
  9
$ANGDIR
 70
     0
  9
$SPLINETYPE
 70
     6
  9
$SPLINESEGS
 70
     8
9
$DIMASZ
 40
        3.000000
9
$DIMEXE
 40
        0.700000
9
$DIMEXO
 40
        1.000000
9
$DIMTXT
 40
        3.500000
9
$DIMGAP
 40
        0.700000
9
$DIMTAD
 70
1
9
$DIMTIH
 70
0
9
$DIMTOH
 70
0
  0
ENDSEC
  0
SECTION
  2
TABLES
  0
TABLE
  2
LTYPE
 70
     5
  0
LTYPE
  2
CONTINUOUS
 70
    64
  3
SOLID LINE
 72
    65
 73
     0
 40
0.0
  0
LTYPE
  2
DASHED
 70
    64
  3
-- -- -- -- -- --
 72
    65
 73
     2
 40
  0.75  
 49
  0.50  
 49
 -0.25  
  0
LTYPE
  2
DOT
 70
    64
  3
....................
 72
    65
 73
     2
 40
  0.25  
 49
  0.02  
 49
 -0.23  
  0
LTYPE
  2
CENTER
 70
    64
  3
-- . -- . -- . -- .
 72
    65
 73
    4
 40
  2.00  
 49
  1.25  
 49
 -0.25  
 49
  0.25  
 49
 -0.25  
  0
LTYPE
  2
PHANTOM
 70
    64
  3
-- .. -- .. -- ..
 72
    65
 73
    6
 40
  2.50  
 49
  1.25  
 49
 -0.25  
 49
  0.25  
 49
 -0.25  
 49
  0.25  
 49
 -0.25  
  0
ENDTAB
  0
TABLE
  2
LAYER
 70
     2
  0
LAYER
  2
LVL0000
 70
    64
 62
     3
  6
CONTINUOUS
  0
LAYER
  2
LVL0001
 70
    64
 62
     2
  6
CONTINUOUS
  0
ENDTAB
  0
TABLE
  2
STYLE
 70
     1
  0
STYLE
  2
STANDARD
 70
    64
 40
0.0
 41
1.0
 50
0.0
 71
     0
 42
5.0
  3
ROMANS
  0
ENDTAB
  0
TABLE
  2
VIEW
 70
     0
  0
ENDTAB
  0
TABLE
  2
UCS
 70
     0
  0
ENDTAB
  0
TABLE
  2
DWGMGR
 70
     0
  0
ENDTAB
  0
ENDSEC
  0
SECTION
  2
BLOCKS
  0
BLOCK
  8
0
  2
BLK0001
 70
    64
 10
        0.000000
 20
        0.000000
  0
POLYLINE
  8
LVL0000
 66
1
 70
4
 75
6
  0
VERTEX
  8
LVL0000
 10
      208.727713
 20
     -366.500017
 70
 16
  0
VERTEX
  8
LVL0000
 10
      208.925540
 20
     -366.946788
 70
 16
  0
VERTEX
  8
LVL0000
 10
      209.102059
 20
     -367.402675
 70
 16
  0
VERTEX
  8
LVL0000
 10
      209.241383
 20
     -367.917933
 70
 16
  0
VERTEX
  8
LVL0000
 10
      208.727713
 20
     -366.500017
 70
  8
  0
VERTEX
  8
LVL0000
 10
      208.800868
 20
     -366.668082
 70
  8
  0
VERTEX
  8
LVL0000
 10
      208.871840
 20
     -366.837590
 70
  8
  0
VERTEX
  8
LVL0000
 10
      208.940441
 20
     -367.009130
 70
  8
  0
VERTEX
  8
LVL0000
 10
      209.006487
 20
     -367.183292
 70
  8
  0
VERTEX
  8
LVL0000
 10
      209.069790
 20
     -367.360665
 70
  8
  0
VERTEX
  8
LVL0000
 10
      209.130164
 20
     -367.541836
 70
  8
  0
VERTEX
  8
LVL0000
 10
      209.187424
 20
     -367.727396
 70
  8
  0
VERTEX
  8
LVL0000
 10
      209.241383
 20
     -367.917933
 70
  8
  0
SEQEND
  0
POLYLINE
  8
LVL0000
 66
1
 70
4
 75
6
  0
VERTEX
  8
LVL0000
 10
      209.241383
 20
     -367.917933
 70
 16
  0
VERTEX
  8
LVL0000
 10
      209.416265
 20
     -368.564700
 70
 16
  0
VERTEX
  8
LVL0000
 10
      209.522278
 20
     -369.278430
 70
 16
  0
VERTEX
  8
LVL0000
 10
      209.241383
 20
     -369.810931
 70
 16
  0
VERTEX
  8
LVL0000
 10
      209.241383
 20
     -367.917933
 70
  8
  0
VERTEX
  8
LVL0000
 10
      209.303114
 20
     -368.163125
 70
  8
  0
VERTEX
  8
LVL0000
 10
      209.354662
 20
     -368.411686
 70
  8
  0
VERTEX
  8
LVL0000
 10
      209.392299
 20
     -368.660708
 70
  8
  0
VERTEX
  8
LVL0000
 10
      209.412299
 20
     -368.907282
 70
  8
  0
VERTEX
  8
LVL0000
 10
      209.410934
 20
     -369.148499
 70
  8
  0
VERTEX
  8
LVL0000
 10
      209.384478
 20
     -369.381453
 70
  8
  0
VERTEX
  8
LVL0000
 10
      209.329203
 20
     -369.603233
 70
  8
  0
VERTEX
  8
LVL0000
 10
      209.241383
 20
     -369.810931
 70
  8
  0
SEQEND
  0
POLYLINE
  8
LVL0000
 66
1
 70
4
 75
6
  0
VERTEX
  8
LVL0000
 10
      209.241383
 20
     -369.810931
 70
 16
  0
VERTEX
  8
LVL0000
 10
      208.936780
 20
     -370.388374
 70
 16
  0
VERTEX
  8
LVL0000
 10
      208.201561
 20
     -370.720655
 70
 16
  0
VERTEX
  8
LVL0000
 10
      207.789862
 20
     -371.262452
 70
 16
  0
VERTEX
  8
LVL0000
 10
      209.241383
 20
     -369.810931
 70
  8
  0
VERTEX
  8
LVL0000
 10
      209.108445
 20
     -370.016868
 70
  8
  0
VERTEX
  8
LVL0000
 10
      208.943974
 20
     -370.205149
 70
  8
  0
VERTEX
  8
LVL0000
 10
      208.756807
 20
     -370.381104
 70
  8
  0
VERTEX
  8
LVL0000
 10
      208.555784
 20
     -370.550059
 70
  8
  0
VERTEX
  8
LVL0000
 10
      208.349740
 20
     -370.717343
 70
  8
  0
VERTEX
  8
LVL0000
 10
      208.147513
 20
     -370.888284
 70
  8
  0
VERTEX
  8
LVL0000
 10
      207.957941
 20
     -371.068211
 70
  8
  0
VERTEX
  8
LVL0000
 10
      207.789862
 20
     -371.262452
 70
  8
  0
SEQEND
  0
POLYLINE
  8
LVL0000
 66
1
 70
4
 75
6
  0
VERTEX
  8
LVL0000
 10
      207.789862
 20
     -371.262452
 70
 16
  0
VERTEX
  8
LVL0000
 10
      207.339792
 20
     -371.854743
 70
 16
  0
VERTEX
  8
LVL0000
 10
      207.392269
 20
     -372.643356
 70
 16
  0
VERTEX
  8
LVL0000
 10
      207.618908
 20
     -373.500005
 70
 16
  0
VERTEX
  8
LVL0000
 10
      207.789862
 20
     -371.262452
 70
  8
  0
VERTEX
  8
LVL0000
 10
      207.644001
 20
     -371.493513
 70
  8
  0
VERTEX
  8
LVL0000
 10
      207.541406
 20
     -371.741476
 70
  8
  0
VERTEX
  8
LVL0000
 10
      207.478228
 20
     -372.004838
 70
  8
  0
VERTEX
  8
LVL0000
 10
      207.450619
 20
     -372.282094
 70
  8
  0
VERTEX
  8
LVL0000
 10
      207.454731
 20
     -372.571743
 70
  8
  0
VERTEX
  8
LVL0000
 10
      207.486715
 20
     -372.872279
 70
  8
  0
VERTEX
  8
LVL0000
 10
      207.542724
 20
     -373.182201
 70
  8
  0
VERTEX
  8
LVL0000
 10
      207.618908
 20
     -373.500005
 70
  8
  0
SEQEND
  0
ENDBLK
  0
BLOCK
  8
0
  2
BLK0002
 70
    64
 10
        0.000000
 20
        0.000000
  0
POLYLINE
  8
LVL0000
 66
1
 70
4
 75
6
  0
VERTEX
  8
LVL0000
 10
      208.727713
 20
     -266.500017
 70
 16
  0
VERTEX
  8
LVL0000
 10
      208.925540
 20
     -266.946788
 70
 16
  0
VERTEX
  8
LVL0000
 10
      209.102059
 20
     -267.402675
 70
 16
  0
VERTEX
  8
LVL0000
 10
      209.241383
 20
     -267.917933
 70
 16
  0
VERTEX
  8
LVL0000
 10
      208.727713
 20
     -266.500017
 70
  8
  0
VERTEX
  8
LVL0000
 10
      208.800868
 20
     -266.668082
 70
  8
  0
VERTEX
  8
LVL0000
 10
      208.871840
 20
     -266.837590
 70
  8
  0
VERTEX
  8
LVL0000
 10
      208.940441
 20
     -267.009130
 70
  8
  0
VERTEX
  8
LVL0000
 10
      209.006487
 20
     -267.183292
 70
  8
  0
VERTEX
  8
LVL0000
 10
      209.069790
 20
     -267.360665
 70
  8
  0
VERTEX
  8
LVL0000
 10
      209.130164
 20
     -267.541836
 70
  8
  0
VERTEX
  8
LVL0000
 10
      209.187424
 20
     -267.727396
 70
  8
  0
VERTEX
  8
LVL0000
 10
      209.241383
 20
     -267.917933
 70
  8
  0
SEQEND
  0
POLYLINE
  8
LVL0000
 66
1
 70
4
 75
6
  0
VERTEX
  8
LVL0000
 10
      209.241383
 20
     -267.917933
 70
 16
  0
VERTEX
  8
LVL0000
 10
      209.416265
 20
     -268.564700
 70
 16
  0
VERTEX
  8
LVL0000
 10
      209.522278
 20
     -269.278430
 70
 16
  0
VERTEX
  8
LVL0000
 10
      209.241383
 20
     -269.810931
 70
 16
  0
VERTEX
  8
LVL0000
 10
      209.241383
 20
     -267.917933
 70
  8
  0
VERTEX
  8
LVL0000
 10
      209.303114
 20
     -268.163125
 70
  8
  0
VERTEX
  8
LVL0000
 10
      209.354662
 20
     -268.411686
 70
  8
  0
VERTEX
  8
LVL0000
 10
      209.392299
 20
     -268.660708
 70
  8
  0
VERTEX
  8
LVL0000
 10
      209.412299
 20
     -268.907282
 70
  8
  0
VERTEX
  8
LVL0000
 10
      209.410934
 20
     -269.148499
 70
  8
  0
VERTEX
  8
LVL0000
 10
      209.384478
 20
     -269.381453
 70
  8
  0
VERTEX
  8
LVL0000
 10
      209.329203
 20
     -269.603233
 70
  8
  0
VERTEX
  8
LVL0000
 10
      209.241383
 20
     -269.810931
 70
  8
  0
SEQEND
  0
POLYLINE
  8
LVL0000
 66
1
 70
4
 75
6
  0
VERTEX
  8
LVL0000
 10
      209.241383
 20
     -269.810931
 70
 16
  0
VERTEX
  8
LVL0000
 10
      208.936780
 20
     -270.388374
 70
 16
  0
VERTEX
  8
LVL0000
 10
      208.201561
 20
     -270.720655
 70
 16
  0
VERTEX
  8
LVL0000
 10
      207.789862
 20
     -271.262452
 70
 16
  0
VERTEX
  8
LVL0000
 10
      209.241383
 20
     -269.810931
 70
  8
  0
VERTEX
  8
LVL0000
 10
      209.108445
 20
     -270.016868
 70
  8
  0
VERTEX
  8
LVL0000
 10
      208.943974
 20
     -270.205149
 70
  8
  0
VERTEX
  8
LVL0000
 10
      208.756807
 20
     -270.381104
 70
  8
  0
VERTEX
  8
LVL0000
 10
      208.555784
 20
     -270.550059
 70
  8
  0
VERTEX
  8
LVL0000
 10
      208.349740
 20
     -270.717343
 70
  8
  0
VERTEX
  8
LVL0000
 10
      208.147513
 20
     -270.888284
 70
  8
  0
VERTEX
  8
LVL0000
 10
      207.957941
 20
     -271.068211
 70
  8
  0
VERTEX
  8
LVL0000
 10
      207.789862
 20
     -271.262452
 70
  8
  0
SEQEND
  0
POLYLINE
  8
LVL0000
 66
1
 70
4
 75
6
  0
VERTEX
  8
LVL0000
 10
      207.789862
 20
     -271.262452
 70
 16
  0
VERTEX
  8
LVL0000
 10
      207.339792
 20
     -271.854743
 70
 16
  0
VERTEX
  8
LVL0000
 10
      207.392269
 20
     -272.643356
 70
 16
  0
VERTEX
  8
LVL0000
 10
      207.618908
 20
     -273.500005
 70
 16
  0
VERTEX
  8
LVL0000
 10
      207.789862
 20
     -271.262452
 70
  8
  0
VERTEX
  8
LVL0000
 10
      207.644001
 20
     -271.493513
 70
  8
  0
VERTEX
  8
LVL0000
 10
      207.541406
 20
     -271.741476
 70
  8
  0
VERTEX
  8
LVL0000
 10
      207.478228
 20
     -272.004838
 70
  8
  0
VERTEX
  8
LVL0000
 10
      207.450619
 20
     -272.282094
 70
  8
  0
VERTEX
  8
LVL0000
 10
      207.454731
 20
     -272.571743
 70
  8
  0
VERTEX
  8
LVL0000
 10
      207.486715
 20
     -272.872279
 70
  8
  0
VERTEX
  8
LVL0000
 10
      207.542724
 20
     -273.182201
 70
  8
  0
VERTEX
  8
LVL0000
 10
      207.618908
 20
     -273.500005
 70
  8
  0
SEQEND
  0
ENDBLK
  0
BLOCK
  8
0
  2
BLK0003
 70
    64
 10
        0.000000
 20
        0.000000
  0
POLYLINE
  8
LVL0000
 66
1
 70
4
 75
6
  0
VERTEX
  8
LVL0000
 10
      208.727713
 20
     -166.500017
 70
 16
  0
VERTEX
  8
LVL0000
 10
      208.925540
 20
     -166.946788
 70
 16
  0
VERTEX
  8
LVL0000
 10
      209.102059
 20
     -167.402675
 70
 16
  0
VERTEX
  8
LVL0000
 10
      209.241383
 20
     -167.917933
 70
 16
  0
VERTEX
  8
LVL0000
 10
      208.727713
 20
     -166.500017
 70
  8
  0
VERTEX
  8
LVL0000
 10
      208.800868
 20
     -166.668082
 70
  8
  0
VERTEX
  8
LVL0000
 10
      208.871840
 20
     -166.837590
 70
  8
  0
VERTEX
  8
LVL0000
 10
      208.940441
 20
     -167.009130
 70
  8
  0
VERTEX
  8
LVL0000
 10
      209.006487
 20
     -167.183292
 70
  8
  0
VERTEX
  8
LVL0000
 10
      209.069790
 20
     -167.360665
 70
  8
  0
VERTEX
  8
LVL0000
 10
      209.130164
 20
     -167.541836
 70
  8
  0
VERTEX
  8
LVL0000
 10
      209.187424
 20
     -167.727396
 70
  8
  0
VERTEX
  8
LVL0000
 10
      209.241383
 20
     -167.917933
 70
  8
  0
SEQEND
  0
POLYLINE
  8
LVL0000
 66
1
 70
4
 75
6
  0
VERTEX
  8
LVL0000
 10
      209.241383
 20
     -167.917933
 70
 16
  0
VERTEX
  8
LVL0000
 10
      209.416265
 20
     -168.564700
 70
 16
  0
VERTEX
  8
LVL0000
 10
      209.522278
 20
     -169.278430
 70
 16
  0
VERTEX
  8
LVL0000
 10
      209.241383
 20
     -169.810931
 70
 16
  0
VERTEX
  8
LVL0000
 10
      209.241383
 20
     -167.917933
 70
  8
  0
VERTEX
  8
LVL0000
 10
      209.303114
 20
     -168.163125
 70
  8
  0
VERTEX
  8
LVL0000
 10
      209.354662
 20
     -168.411686
 70
  8
  0
VERTEX
  8
LVL0000
 10
      209.392299
 20
     -168.660708
 70
  8
  0
VERTEX
  8
LVL0000
 10
      209.412299
 20
     -168.907282
 70
  8
  0
VERTEX
  8
LVL0000
 10
      209.410934
 20
     -169.148499
 70
  8
  0
VERTEX
  8
LVL0000
 10
      209.384478
 20
     -169.381453
 70
  8
  0
VERTEX
  8
LVL0000
 10
      209.329203
 20
     -169.603233
 70
  8
  0
VERTEX
  8
LVL0000
 10
      209.241383
 20
     -169.810931
 70
  8
  0
SEQEND
  0
POLYLINE
  8
LVL0000
 66
1
 70
4
 75
6
  0
VERTEX
  8
LVL0000
 10
      209.241383
 20
     -169.810931
 70
 16
  0
VERTEX
  8
LVL0000
 10
      208.936780
 20
     -170.388374
 70
 16
  0
VERTEX
  8
LVL0000
 10
      208.201561
 20
     -170.720655
 70
 16
  0
VERTEX
  8
LVL0000
 10
      207.789862
 20
     -171.262452
 70
 16
  0
VERTEX
  8
LVL0000
 10
      209.241383
 20
     -169.810931
 70
  8
  0
VERTEX
  8
LVL0000
 10
      209.108445
 20
     -170.016868
 70
  8
  0
VERTEX
  8
LVL0000
 10
      208.943974
 20
     -170.205149
 70
  8
  0
VERTEX
  8
LVL0000
 10
      208.756807
 20
     -170.381104
 70
  8
  0
VERTEX
  8
LVL0000
 10
      208.555784
 20
     -170.550059
 70
  8
  0
VERTEX
  8
LVL0000
 10
      208.349740
 20
     -170.717343
 70
  8
  0
VERTEX
  8
LVL0000
 10
      208.147513
 20
     -170.888284
 70
  8
  0
VERTEX
  8
LVL0000
 10
      207.957941
 20
     -171.068211
 70
  8
  0
VERTEX
  8
LVL0000
 10
      207.789862
 20
     -171.262452
 70
  8
  0
SEQEND
  0
POLYLINE
  8
LVL0000
 66
1
 70
4
 75
6
  0
VERTEX
  8
LVL0000
 10
      207.789862
 20
     -171.262452
 70
 16
  0
VERTEX
  8
LVL0000
 10
      207.339792
 20
     -171.854743
 70
 16
  0
VERTEX
  8
LVL0000
 10
      207.392269
 20
     -172.643356
 70
 16
  0
VERTEX
  8
LVL0000
 10
      207.618908
 20
     -173.500005
 70
 16
  0
VERTEX
  8
LVL0000
 10
      207.789862
 20
     -171.262452
 70
  8
  0
VERTEX
  8
LVL0000
 10
      207.644001
 20
     -171.493513
 70
  8
  0
VERTEX
  8
LVL0000
 10
      207.541406
 20
     -171.741476
 70
  8
  0
VERTEX
  8
LVL0000
 10
      207.478228
 20
     -172.004838
 70
  8
  0
VERTEX
  8
LVL0000
 10
      207.450619
 20
     -172.282094
 70
  8
  0
VERTEX
  8
LVL0000
 10
      207.454731
 20
     -172.571743
 70
  8
  0
VERTEX
  8
LVL0000
 10
      207.486715
 20
     -172.872279
 70
  8
  0
VERTEX
  8
LVL0000
 10
      207.542724
 20
     -173.182201
 70
  8
  0
VERTEX
  8
LVL0000
 10
      207.618908
 20
     -173.500005
 70
  8
  0
SEQEND
  0
ENDBLK
  0
BLOCK
  8
0
  2
BLK0004
 70
    64
 10
        0.000000
 20
        0.000000
  0
TEXT
  8
LVL0000
 62
  4
 10
      395.832336
 20
      -33.523056
 30
        0.000000
 40
        3.500000
  1
31
 50
       90.000000
 41
        0.835000
 51
        0.000000
  7
STANDARD
  0
LINE
  8
LVL0000
 62
  4
 10
      409.000000
 20
      -46.000000
 30
        0.000000
 11
      395.832336
 21
      -46.000000
 31
        0.000000
  0
LINE
  8
LVL0000
 62
  4
 10
      412.000000
 20
      -15.000000
 30
        0.000000
 11
      395.832336
 21
      -15.000000
 31
        0.000000
  0
LINE
  8
LVL0000
 62
  4
 10
      395.746948
 20
      -43.000000
 30
        0.000000
 11
      396.532349
 21
      -46.000000
 31
        0.000000
  0
LINE
  8
LVL0000
 62
  4
 10
      396.532349
 20
      -46.000000
 30
        0.000000
 11
      397.317749
 21
      -43.000000
 31
        0.000000
  0
LINE
  8
LVL0000
 62
  4
 10
      397.317749
 20
      -18.000000
 30
        0.000000
 11
      396.532349
 21
      -15.000000
 31
        0.000000
  0
LINE
  8
LVL0000
 62
  4
 10
      396.532349
 20
      -15.000000
 30
        0.000000
 11
      395.746948
 21
      -18.000000
 31
        0.000000
  0
LINE
  8
LVL0000
 62
  4
 10
      396.532349
 20
      -46.000000
 30
        0.000000
 11
      396.532349
 21
      -15.000000
 31
        0.000000
  0
ENDBLK
  0
BLOCK
  8
0
  2
BLK0005
 70
    64
 10
        0.000000
 20
        0.000000
  0
TEXT
  8
LVL0000
 62
  4
 10
      427.251801
 20
       -5.816749
 30
        0.000000
 40
        3.500000
  1
39
 50
        0.000000
 41
        0.835000
 51
        0.000000
  7
STANDARD
  0
LINE
  8
LVL0000
 62
  4
 10
      449.000000
 20
      -14.000000
 30
        0.000000
 11
      449.000000
 21
       -5.816750
 31
        0.000000
  0
LINE
  8
LVL0000
 62
  4
 10
      410.000000
 20
      -17.000000
 30
        0.000000
 11
      410.000000
 21
       -5.816750
 31
        0.000000
  0
LINE
  8
LVL0000
 62
  4
 10
      446.000000
 20
       -7.302148
 30
        0.000000
 11
      449.000000
 21
       -6.516749
 31
        0.000000
  0
LINE
  8
LVL0000
 62
  4
 10
      449.000000
 20
       -6.516749
 30
        0.000000
 11
      446.000000
 21
       -5.731351
 31
        0.000000
  0
LINE
  8
LVL0000
 62
  4
 10
      413.000000
 20
       -5.731351
 30
        0.000000
 11
      410.000000
 21
       -6.516749
 31
        0.000000
  0
LINE
  8
LVL0000
 62
  4
 10
      410.000000
 20
       -6.516749
 30
        0.000000
 11
      413.000000
 21
       -7.302148
 31
        0.000000
  0
LINE
  8
LVL0000
 62
  4
 10
      449.000000
 20
       -6.516749
 30
        0.000000
 11
      410.000000
 21
       -6.516749
 31
        0.000000
  0
ENDBLK
  0
BLOCK
  8
0
  2
BLK0006
 70
    64
 10
        0.000000
 20
        0.000000
  0
TEXT
  8
LVL0000
 62
  4
 10
      397.081787
 20
       15.944556
 30
        0.000000
 40
        3.500000
  1
28
 50
       90.000000
 41
        0.835000
 51
        0.000000
  7
STANDARD
  0
LINE
  8
LVL0000
 62
  4
 10
      409.000000
 20
        4.499970
 30
        0.000000
 11
      397.081787
 21
        4.499970
 31
        0.000000
  0
LINE
  8
LVL0000
 62
  4
 10
      409.000000
 20
       32.499969
 30
        0.000000
 11
      397.081787
 21
       32.499969
 31
        0.000000
  0
LINE
  8
LVL0000
 62
  4
 10
      396.996399
 20
        7.499970
 30
        0.000000
 11
      397.781799
 21
        4.499970
 31
        0.000000
  0
LINE
  8
LVL0000
 62
  4
 10
      397.781799
 20
        4.499970
 30
        0.000000
 11
      398.567200
 21
        7.499970
 31
        0.000000
  0
LINE
  8
LVL0000
 62
  4
 10
      398.567200
 20
       29.499969
 30
        0.000000
 11
      397.781799
 21
       32.499969
 31
        0.000000
  0
LINE
  8
LVL0000
 62
  4
 10
      397.781799
 20
       32.499969
 30
        0.000000
 11
      396.996399
 21
       29.499969
 31
        0.000000
  0
LINE
  8
LVL0000
 62
  4
 10
      397.781799
 20
        4.499970
 30
        0.000000
 11
      397.781799
 21
       32.499969
 31
        0.000000
  0
ENDBLK
  0
BLOCK
  8
0
  2
BLK0007
 70
    64
 10
        0.000000
 20
        0.000000
  0
TEXT
  8
LVL0000
 62
  4
 10
      134.739319
 20
      -19.627655
 30
        0.000000
 40
        3.500000
  1
IVS30KC3=3000
 50
        0.000000
 41
        0.835000
 51
        0.000000
  7
STANDARD
  0
LINE
  8
LVL0000
 62
  4
 10
      123.300049
 20
       -5.500004
 30
        0.000000
 11
      123.300049
 21
      -21.027655
 31
        0.000000
  0
LINE
  8
LVL0000
 62
  4
 10
      190.931091
 20
       -5.500004
 30
        0.000000
 11
      190.931091
 21
      -21.027655
 31
        0.000000
  0
LINE
  8
LVL0000
 62
  4
 10
      126.800049
 20
      -19.411356
 30
        0.000000
 11
      123.300049
 21
      -20.327654
 31
        0.000000
  0
LINE
  8
LVL0000
 62
  4
 10
      123.300049
 20
      -20.327654
 30
        0.000000
 11
      126.800049
 21
      -21.243952
 31
        0.000000
  0
LINE
  8
LVL0000
 62
  4
 10
      187.431091
 20
      -21.243952
 30
        0.000000
 11
      190.931091
 21
      -20.327654
 31
        0.000000
  0
LINE
  8
LVL0000
 62
  4
 10
      190.931091
 20
      -20.327654
 30
        0.000000
 11
      187.431091
 21
      -19.411356
 31
        0.000000
  0
LINE
  8
LVL0000
 62
  4
 10
      123.300049
 20
      -20.327654
 30
        0.000000
 11
      190.931091
 21
      -20.327654
 31
        0.000000
  0
ENDBLK
  0
BLOCK
  8
0
  2
BLK0008
 70
    64
 10
        0.000000
 20
        0.000000
  0
POLYLINE
  8
LVL0000
 66
1
 70
4
 75
6
  0
VERTEX
  8
LVL0000
 10
      158.224649
 20
        4.557010
 70
 16
  0
VERTEX
  8
LVL0000
 10
      158.609423
 20
        3.776623
 70
 16
  0
VERTEX
  8
LVL0000
 10
      158.994196
 20
        2.996235
 70
 16
  0
VERTEX
  8
LVL0000
 10
      159.241383
 20
        2.082067
 70
 16
  0
VERTEX
  8
LVL0000
 10
      158.224649
 20
        4.557010
 70
  8
  0
VERTEX
  8
LVL0000
 10
      158.368670
 20
        4.264104
 70
  8
  0
VERTEX
  8
LVL0000
 10
      158.511079
 20
        3.969629
 70
  8
  0
VERTEX
  8
LVL0000
 10
      158.650264
 20
        3.672020
 70
  8
  0
VERTEX
  8
LVL0000
 10
      158.784611
 20
        3.369706
 70
  8
  0
VERTEX
  8
LVL0000
 10
      158.912509
 20
        3.061122
 70
  8
  0
VERTEX
  8
LVL0000
 10
      159.032345
 20
        2.744700
 70
  8
  0
VERTEX
  8
LVL0000
 10
      159.142507
 20
        2.418870
 70
  8
  0
VERTEX
  8
LVL0000
 10
      159.241383
 20
        2.082067
 70
  8
  0
SEQEND
  0
POLYLINE
  8
LVL0000
 66
1
 70
4
 75
6
  0
VERTEX
  8
LVL0000
 10
      159.241383
 20
        2.082067
 70
 16
  0
VERTEX
  8
LVL0000
 10
      159.416265
 20
        1.435300
 70
 16
  0
VERTEX
  8
LVL0000
 10
      159.522278
 20
        0.721570
 70
 16
  0
VERTEX
  8
LVL0000
 10
      159.241383
 20
        0.189069
 70
 16
  0
VERTEX
  8
LVL0000
 10
      159.241383
 20
        2.082067
 70
  8
  0
VERTEX
  8
LVL0000
 10
      159.303114
 20
        1.836875
 70
  8
  0
VERTEX
  8
LVL0000
 10
      159.354662
 20
        1.588314
 70
  8
  0
VERTEX
  8
LVL0000
 10
      159.392299
 20
        1.339292
 70
  8
  0
VERTEX
  8
LVL0000
 10
      159.412299
 20
        1.092718
 70
  8
  0
VERTEX
  8
LVL0000
 10
      159.410934
 20
        0.851501
 70
  8
  0
VERTEX
  8
LVL0000
 10
      159.384478
 20
        0.618547
 70
  8
  0
VERTEX
  8
LVL0000
 10
      159.329203
 20
        0.396767
 70
  8
  0
VERTEX
  8
LVL0000
 10
      159.241383
 20
        0.189069
 70
  8
  0
SEQEND
  0
POLYLINE
  8
LVL0000
 66
1
 70
4
 75
6
  0
VERTEX
  8
LVL0000
 10
      159.241383
 20
        0.189069
 70
 16
  0
VERTEX
  8
LVL0000
 10
      158.936780
 20
       -0.388374
 70
 16
  0
VERTEX
  8
LVL0000
 10
      158.177206
 20
       -0.752706
 70
 16
  0
VERTEX
  8
LVL0000
 10
      157.789862
 20
       -1.262452
 70
 16
  0
VERTEX
  8
LVL0000
 10
      159.241383
 20
        0.189069
 70
  8
  0
VERTEX
  8
LVL0000
 10
      159.107446
 20
       -0.018183
 70
  8
  0
VERTEX
  8
LVL0000
 10
      158.940549
 20
       -0.209657
 70
  8
  0
VERTEX
  8
LVL0000
 10
      158.750386
 20
       -0.389555
 70
  8
  0
VERTEX
  8
LVL0000
 10
      158.546650
 20
       -0.562078
 70
  8
  0
VERTEX
  8
LVL0000
 10
      158.339037
 20
       -0.731428
 70
  8
  0
VERTEX
  8
LVL0000
 10
      158.137238
 20
       -0.901806
 70
  8
  0
VERTEX
  8
LVL0000
 10
      157.950948
 20
       -1.077413
 70
  8
  0
VERTEX
  8
LVL0000
 10
      157.789862
 20
       -1.262452
 70
  8
  0
SEQEND
  0
POLYLINE
  8
LVL0000
 66
1
 70
4
 75
6
  0
VERTEX
  8
LVL0000
 10
      157.789862
 20
       -1.262452
 70
 16
  0
VERTEX
  8
LVL0000
 10
      157.101092
 20
       -2.168873
 70
 16
  0
VERTEX
  8
LVL0000
 10
      157.589291
 20
       -3.535081
 70
 16
  0
VERTEX
  8
LVL0000
 10
      158.077490
 20
       -4.901288
 70
 16
  0
VERTEX
  8
LVL0000
 10
      157.789862
 20
       -1.262452
 70
  8
  0
VERTEX
  8
LVL0000
 10
      157.584445
 20
       -1.623014
 70
  8
  0
VERTEX
  8
LVL0000
 10
      157.475576
 20
       -2.021294
 70
  8
  0
VERTEX
  8
LVL0000
 10
      157.449463
 20
       -2.451902
 70
  8
  0
VERTEX
  8
LVL0000
 10
      157.492313
 20
       -2.909450
 70
  8
  0
VERTEX
  8
LVL0000
 10
      157.590333
 20
       -3.388551
 70
  8
  0
VERTEX
  8
LVL0000
 10
      157.729731
 20
       -3.883817
 70
  8
  0
VERTEX
  8
LVL0000
 10
      157.896714
 20
       -4.389858
 70
  8
  0
VERTEX
  8
LVL0000
 10
      158.077490
 20
       -4.901288
 70
  8
  0
SEQEND
  0
ENDBLK
  0
BLOCK
  8
0
  2
BLK0009
 70
    64
 10
        0.000000
 20
        0.000000
  0
POLYLINE
  8
LVL0000
 66
1
 70
4
 75
6
  0
VERTEX
  8
LVL0000
 10
      160.224649
 20
        4.557010
 70
 16
  0
VERTEX
  8
LVL0000
 10
      160.609423
 20
        3.776623
 70
 16
  0
VERTEX
  8
LVL0000
 10
      160.994196
 20
        2.996235
 70
 16
  0
VERTEX
  8
LVL0000
 10
      161.241383
 20
        2.082067
 70
 16
  0
VERTEX
  8
LVL0000
 10
      160.224649
 20
        4.557010
 70
  8
  0
VERTEX
  8
LVL0000
 10
      160.368670
 20
        4.264104
 70
  8
  0
VERTEX
  8
LVL0000
 10
      160.511079
 20
        3.969629
 70
  8
  0
VERTEX
  8
LVL0000
 10
      160.650264
 20
        3.672020
 70
  8
  0
VERTEX
  8
LVL0000
 10
      160.784611
 20
        3.369706
 70
  8
  0
VERTEX
  8
LVL0000
 10
      160.912509
 20
        3.061122
 70
  8
  0
VERTEX
  8
LVL0000
 10
      161.032345
 20
        2.744700
 70
  8
  0
VERTEX
  8
LVL0000
 10
      161.142507
 20
        2.418870
 70
  8
  0
VERTEX
  8
LVL0000
 10
      161.241383
 20
        2.082067
 70
  8
  0
SEQEND
  0
POLYLINE
  8
LVL0000
 66
1
 70
4
 75
6
  0
VERTEX
  8
LVL0000
 10
      161.241383
 20
        2.082067
 70
 16
  0
VERTEX
  8
LVL0000
 10
      161.416265
 20
        1.435300
 70
 16
  0
VERTEX
  8
LVL0000
 10
      161.522278
 20
        0.721570
 70
 16
  0
VERTEX
  8
LVL0000
 10
      161.241383
 20
        0.189069
 70
 16
  0
VERTEX
  8
LVL0000
 10
      161.241383
 20
        2.082067
 70
  8
  0
VERTEX
  8
LVL0000
 10
      161.303114
 20
        1.836875
 70
  8
  0
VERTEX
  8
LVL0000
 10
      161.354662
 20
        1.588314
 70
  8
  0
VERTEX
  8
LVL0000
 10
      161.392299
 20
        1.339292
 70
  8
  0
VERTEX
  8
LVL0000
 10
      161.412299
 20
        1.092718
 70
  8
  0
VERTEX
  8
LVL0000
 10
      161.410934
 20
        0.851501
 70
  8
  0
VERTEX
  8
LVL0000
 10
      161.384478
 20
        0.618547
 70
  8
  0
VERTEX
  8
LVL0000
 10
      161.329203
 20
        0.396767
 70
  8
  0
VERTEX
  8
LVL0000
 10
      161.241383
 20
        0.189069
 70
  8
  0
SEQEND
  0
POLYLINE
  8
LVL0000
 66
1
 70
4
 75
6
  0
VERTEX
  8
LVL0000
 10
      161.241383
 20
        0.189069
 70
 16
  0
VERTEX
  8
LVL0000
 10
      160.936780
 20
       -0.388374
 70
 16
  0
VERTEX
  8
LVL0000
 10
      160.177206
 20
       -0.752706
 70
 16
  0
VERTEX
  8
LVL0000
 10
      159.789862
 20
       -1.262452
 70
 16
  0
VERTEX
  8
LVL0000
 10
      161.241383
 20
        0.189069
 70
  8
  0
VERTEX
  8
LVL0000
 10
      161.107446
 20
       -0.018183
 70
  8
  0
VERTEX
  8
LVL0000
 10
      160.940549
 20
       -0.209657
 70
  8
  0
VERTEX
  8
LVL0000
 10
      160.750386
 20
       -0.389555
 70
  8
  0
VERTEX
  8
LVL0000
 10
      160.546650
 20
       -0.562078
 70
  8
  0
VERTEX
  8
LVL0000
 10
      160.339037
 20
       -0.731428
 70
  8
  0
VERTEX
  8
LVL0000
 10
      160.137238
 20
       -0.901806
 70
  8
  0
VERTEX
  8
LVL0000
 10
      159.950948
 20
       -1.077413
 70
  8
  0
VERTEX
  8
LVL0000
 10
      159.789862
 20
       -1.262452
 70
  8
  0
SEQEND
  0
POLYLINE
  8
LVL0000
 66
1
 70
4
 75
6
  0
VERTEX
  8
LVL0000
 10
      159.789862
 20
       -1.262452
 70
 16
  0
VERTEX
  8
LVL0000
 10
      159.101092
 20
       -2.168873
 70
 16
  0
VERTEX
  8
LVL0000
 10
      159.589291
 20
       -3.535081
 70
 16
  0
VERTEX
  8
LVL0000
 10
      160.077490
 20
       -4.901288
 70
 16
  0
VERTEX
  8
LVL0000
 10
      159.789862
 20
       -1.262452
 70
  8
  0
VERTEX
  8
LVL0000
 10
      159.584445
 20
       -1.623014
 70
  8
  0
VERTEX
  8
LVL0000
 10
      159.475576
 20
       -2.021294
 70
  8
  0
VERTEX
  8
LVL0000
 10
      159.449463
 20
       -2.451902
 70
  8
  0
VERTEX
  8
LVL0000
 10
      159.492313
 20
       -2.909450
 70
  8
  0
VERTEX
  8
LVL0000
 10
      159.590333
 20
       -3.388551
 70
  8
  0
VERTEX
  8
LVL0000
 10
      159.729731
 20
       -3.883817
 70
  8
  0
VERTEX
  8
LVL0000
 10
      159.896714
 20
       -4.389858
 70
  8
  0
VERTEX
  8
LVL0000
 10
      160.077490
 20
       -4.901288
 70
  8
  0
SEQEND
  0
ENDBLK
  0
BLOCK
  8
0
  2
BLK0010
 70
    64
 10
        0.000000
 20
        0.000000
  0
TEXT
  8
LVL0000
 62
  4
 10
       55.948318
 20
      -23.408102
 30
        0.000000
 40
        3.500000
  1
40
 50
        0.000000
 41
        0.835000
 51
        0.000000
  7
STANDARD
  0
LINE
  8
LVL0000
 62
  4
 10
       80.000000
 20
      -13.100000
 30
        0.000000
 11
       80.000000
 21
      -24.808102
 31
        0.000000
  0
LINE
  8
LVL0000
 62
  4
 10
       40.000000
 20
      -15.200000
 30
        0.000000
 11
       40.000000
 21
      -24.808102
 31
        0.000000
  0
LINE
  8
LVL0000
 62
  4
 10
       76.500000
 20
      -25.024399
 30
        0.000000
 11
       80.000000
 21
      -24.108101
 31
        0.000000
  0
LINE
  8
LVL0000
 62
  4
 10
       80.000000
 20
      -24.108101
 30
        0.000000
 11
       76.500000
 21
      -23.191803
 31
        0.000000
  0
LINE
  8
LVL0000
 62
  4
 10
       43.500000
 20
      -23.191803
 30
        0.000000
 11
       40.000000
 21
      -24.108101
 31
        0.000000
  0
LINE
  8
LVL0000
 62
  4
 10
       40.000000
 20
      -24.108101
 30
        0.000000
 11
       43.500000
 21
      -25.024399
 31
        0.000000
  0
LINE
  8
LVL0000
 62
  4
 10
       80.000000
 20
      -24.108101
 30
        0.000000
 11
       40.000000
 21
      -24.108101
 31
        0.000000
  0
ENDBLK
  0
BLOCK
  8
0
  2
BLK0011
 70
    64
 10
        0.000000
 20
        0.000000
  0
TEXT
  8
LVL0000
 62
  4
 10
       -3.793574
 20
      -23.224802
 30
        0.000000
 40
        3.500000
  1
30
 50
        0.000000
 41
        0.835000
 51
        0.000000
  7
STANDARD
  0
LINE
  8
LVL0000
 62
  4
 10
      -14.999970
 20
      -14.000000
 30
        0.000000
 11
      -14.999970
 21
      -24.624802
 31
        0.000000
  0
LINE
  8
LVL0000
 62
  4
 10
       15.000030
 20
      -14.000000
 30
        0.000000
 11
       15.000030
 21
      -24.624802
 31
        0.000000
  0
LINE
  8
LVL0000
 62
  4
 10
      -11.499970
 20
      -23.375023
 30
        0.000000
 11
      -14.999970
 21
      -23.924801
 31
        0.000000
  0
LINE
  8
LVL0000
 62
  4
 10
      -14.999970
 20
      -23.924801
 30
        0.000000
 11
      -11.499970
 21
      -24.474579
 31
        0.000000
  0
LINE
  8
LVL0000
 62
  4
 10
       11.500030
 20
      -24.474579
 30
        0.000000
 11
       15.000030
 21
      -23.924801
 31
        0.000000
  0
LINE
  8
LVL0000
 62
  4
 10
       15.000030
 20
      -23.924801
 30
        0.000000
 11
       11.500030
 21
      -23.375023
 31
        0.000000
  0
LINE
  8
LVL0000
 62
  4
 10
      -14.999970
 20
      -23.924801
 30
        0.000000
 11
       15.000030
 21
      -23.924801
 31
        0.000000
  0
ENDBLK
  0
BLOCK
  8
0
  2
BLK0012
 70
    64
 10
        0.000000
 20
        0.000000
  0
TEXT
  8
LVL0000
 62
  4
 10
       23.380568
 20
       -2.208346
 30
        0.000000
 40
        3.500000
  1
32
 50
       90.000000
 41
        0.835000
 51
        0.000000
  7
STANDARD
  0
LINE
  8
LVL0000
 62
  4
 10
       14.000030
 20
      -15.000000
 30
        0.000000
 11
       24.780567
 21
      -15.000000
 31
        0.000000
  0
LINE
  8
LVL0000
 62
  4
 10
        1.000000
 20
       17.000000
 30
        0.000000
 11
       24.780567
 21
       17.000000
 31
        0.000000
  0
LINE
  8
LVL0000
 62
  4
 10
       23.530788
 20
      -11.500000
 30
        0.000000
 11
       24.080566
 21
      -15.000000
 31
        0.000000
  0
LINE
  8
LVL0000
 62
  4
 10
       24.080566
 20
      -15.000000
 30
        0.000000
 11
       24.630344
 21
      -11.500000
 31
        0.000000
  0
LINE
  8
LVL0000
 62
  4
 10
       24.630344
 20
       13.500000
 30
        0.000000
 11
       24.080566
 21
       17.000000
 31
        0.000000
  0
LINE
  8
LVL0000
 62
  4
 10
       24.080566
 20
       17.000000
 30
        0.000000
 11
       23.530788
 21
       13.500000
 31
        0.000000
  0
LINE
  8
LVL0000
 62
  4
 10
       24.080566
 20
      -15.000000
 30
        0.000000
 11
       24.080566
 21
       17.000000
 31
        0.000000
  0
ENDBLK
  0
ENDSEC
  0
SECTION
  2
ENTITIES
  0
LINE
  8
LVL0000
 10
       93.000000
 20
     -183.500000
 30
        0.000000
 11
       93.400000
 21
     -183.500000
 31
        0.000000
  0
LINE
  8
LVL0000
 10
       93.000000
 20
     -156.500000
 30
        0.000000
 11
       93.400000
 21
     -156.500000
 31
        0.000000
  0
LINE
  8
LVL0000
 10
       43.400000
 20
       13.500000
 30
        0.000000
 11
       43.000000
 21
       13.500000
 31
        0.000000
  0
LINE
  8
LVL0000
 10
       43.400000
 20
      -13.500000
 30
        0.000000
 11
       43.000000
 21
      -13.500000
 31
        0.000000
  0
LINE
  8
LVL0000
 10
      -13.500000
 20
      -45.000000
 30
        0.000000
 11
      -13.500000
 21
      -45.400000
 31
        0.000000
  0
LINE
  8
LVL0000
 10
       13.500000
 20
      -45.000000
 30
        0.000000
 11
       13.500000
 21
      -45.400000
 31
        0.000000
  0
LINE
  8
LVL0000
 10
       13.500000
 20
       45.400000
 30
        0.000000
 11
       13.500000
 21
       45.000000
 31
        0.000000
  0
LINE
  8
LVL0000
 10
      -13.500000
 20
       45.400000
 30
        0.000000
 11
      -13.500000
 21
       45.000000
 31
        0.000000
  0
LINE
  8
LVL0000
 10
       40.000000
 20
      -14.500000
 30
        0.000000
 11
       40.000000
 21
       14.500000
 31
        0.000000
  0
LINE
  8
LVL0000
 10
       43.000000
 20
      -14.500000
 30
        0.000000
 11
       43.000000
 21
       14.500000
 31
        0.000000
  0
LINE
  8
LVL0000
 10
       40.000000
 20
       14.500000
 30
        0.000000
 11
       43.000000
 21
       14.500000
 31
        0.000000
  0
LINE
  8
LVL0000
 10
       40.000000
 20
      -14.500000
 30
        0.000000
 11
       43.000000
 21
      -14.500000
 31
        0.000000
  0
LINE
  8
LVL0000
 10
       40.000000
 20
       -0.758871
 30
        0.000000
 11
       43.000000
 21
       -0.758871
 31
        0.000000
  0
LINE
  8
LVL0000
 10
       40.000000
 20
       -1.515663
 30
        0.000000
 11
       43.000000
 21
       -1.515663
 31
        0.000000
  0
LINE
  8
LVL0000
 10
       40.000000
 20
       -2.268300
 30
        0.000000
 11
       43.000000
 21
       -2.268300
 31
        0.000000
  0
LINE
  8
LVL0000
 10
       40.000000
 20
       -3.014720
 30
        0.000000
 11
       43.000000
 21
       -3.014720
 31
        0.000000
  0
LINE
  8
LVL0000
 10
       40.000000
 20
       -3.752876
 30
        0.000000
 11
       43.000000
 21
       -3.752876
 31
        0.000000
  0
LINE
  8
LVL0000
 10
       40.000000
 20
       -4.480746
 30
        0.000000
 11
       43.000000
 21
       -4.480746
 31
        0.000000
  0
LINE
  8
LVL0000
 10
       40.000000
 20
       -5.196335
 30
        0.000000
 11
       43.000000
 21
       -5.196335
 31
        0.000000
  0
LINE
  8
LVL0000
 10
       40.000000
 20
       -5.897681
 30
        0.000000
 11
       43.000000
 21
       -5.897681
 31
        0.000000
  0
LINE
  8
LVL0000
 10
       40.000000
 20
       -6.582862
 30
        0.000000
 11
       43.000000
 21
       -6.582862
 31
        0.000000
  0
LINE
  8
LVL0000
 10
       40.000000
 20
       -7.250000
 30
        0.000000
 11
       43.000000
 21
       -7.250000
 31
        0.000000
  0
LINE
  8
LVL0000
 10
       40.000000
 20
       -7.897266
 30
        0.000000
 11
       43.000000
 21
       -7.897266
 31
        0.000000
  0
LINE
  8
LVL0000
 10
       40.000000
 20
       -8.522886
 30
        0.000000
 11
       43.000000
 21
       -8.522886
 31
        0.000000
  0
LINE
  8
LVL0000
 10
       40.000000
 20
       -9.125146
 30
        0.000000
 11
       43.000000
 21
       -9.125146
 31
        0.000000
  0
LINE
  8
LVL0000
 10
       40.000000
 20
       -9.702394
 30
        0.000000
 11
       43.000000
 21
       -9.702394
 31
        0.000000
  0
LINE
  8
LVL0000
 10
       40.000000
 20
      -10.253048
 30
        0.000000
 11
       43.000000
 21
      -10.253048
 31
        0.000000
  0
LINE
  8
LVL0000
 10
       40.000000
 20
      -10.775600
 30
        0.000000
 11
       43.000000
 21
      -10.775600
 31
        0.000000
  0
LINE
  8
LVL0000
 10
       40.000000
 20
      -11.268616
 30
        0.000000
 11
       43.000000
 21
      -11.268616
 31
        0.000000
  0
LINE
  8
LVL0000
 10
       40.000000
 20
      -11.730746
 30
        0.000000
 11
       43.000000
 21
      -11.730746
 31
        0.000000
  0
LINE
  8
LVL0000
 10
       40.000000
 20
      -12.160723
 30
        0.000000
 11
       43.000000
 21
      -12.160723
 31
        0.000000
  0
LINE
  8
LVL0000
 10
       40.000000
 20
      -12.557368
 30
        0.000000
 11
       43.000000
 21
      -12.557368
 31
        0.000000
  0
LINE
  8
LVL0000
 10
       40.000000
 20
      -12.919595
 30
        0.000000
 11
       43.000000
 21
      -12.919595
 31
        0.000000
  0
LINE
  8
LVL0000
 10
       40.000000
 20
      -13.536916
 30
        0.000000
 11
       43.000000
 21
      -13.536916
 31
        0.000000
  0
LINE
  8
LVL0000
 10
       40.000000
 20
      -13.790319
 30
        0.000000
 11
       43.000000
 21
      -13.790319
 31
        0.000000
  0
LINE
  8
LVL0000
 10
       40.000000
 20
      -14.005924
 30
        0.000000
 11
       43.000000
 21
      -14.005924
 31
        0.000000
  0
LINE
  8
LVL0000
 10
       40.000000
 20
      -14.183140
 30
        0.000000
 11
       43.000000
 21
      -14.183140
 31
        0.000000
  0
LINE
  8
LVL0000
 10
       40.000000
 20
      -14.321481
 30
        0.000000
 11
       43.000000
 21
      -14.321481
 31
        0.000000
  0
LINE
  8
LVL0000
 10
       40.000000
 20
      -14.420567
 30
        0.000000
 11
       43.000000
 21
      -14.420567
 31
        0.000000
  0
LINE
  8
LVL0000
 10
       40.000000
 20
        0.000000
 30
        0.000000
 11
       43.000000
 21
        0.000000
 31
        0.000000
  0
LINE
  8
LVL0000
 10
       40.000000
 20
       14.420567
 30
        0.000000
 11
       43.000000
 21
       14.420567
 31
        0.000000
  0
LINE
  8
LVL0000
 10
       40.000000
 20
       14.321481
 30
        0.000000
 11
       43.000000
 21
       14.321481
 31
        0.000000
  0
LINE
  8
LVL0000
 10
       40.000000
 20
       14.183140
 30
        0.000000
 11
       43.000000
 21
       14.183140
 31
        0.000000
  0
LINE
  8
LVL0000
 10
       40.000000
 20
       14.005924
 30
        0.000000
 11
       43.000000
 21
       14.005924
 31
        0.000000
  0
LINE
  8
LVL0000
 10
       40.000000
 20
       13.790319
 30
        0.000000
 11
       43.000000
 21
       13.790319
 31
        0.000000
  0
LINE
  8
LVL0000
 10
       40.000000
 20
       13.536916
 30
        0.000000
 11
       43.000000
 21
       13.536916
 31
        0.000000
  0
LINE
  8
LVL0000
 10
       40.000000
 20
       13.246409
 30
        0.000000
 11
       43.000000
 21
       13.246409
 31
        0.000000
  0
LINE
  8
LVL0000
 10
       40.000000
 20
       12.919595
 30
        0.000000
 11
       43.000000
 21
       12.919595
 31
        0.000000
  0
LINE
  8
LVL0000
 10
       40.000000
 20
       12.557368
 30
        0.000000
 11
       43.000000
 21
       12.557368
 31
        0.000000
  0
LINE
  8
LVL0000
 10
       40.000000
 20
       12.160723
 30
        0.000000
 11
       43.000000
 21
       12.160723
 31
        0.000000
  0
LINE
  8
LVL0000
 10
       40.000000
 20
       11.730746
 30
        0.000000
 11
       43.000000
 21
       11.730746
 31
        0.000000
  0
LINE
  8
LVL0000
 10
       40.000000
 20
       11.268616
 30
        0.000000
 11
       43.000000
 21
       11.268616
 31
        0.000000
  0
LINE
  8
LVL0000
 10
       40.000000
 20
       10.775600
 30
        0.000000
 11
       43.000000
 21
       10.775600
 31
        0.000000
  0
LINE
  8
LVL0000
 10
       40.000000
 20
       10.253048
 30
        0.000000
 11
       43.000000
 21
       10.253048
 31
        0.000000
  0
LINE
  8
LVL0000
 10
       40.000000
 20
        9.702394
 30
        0.000000
 11
       43.000000
 21
        9.702394
 31
        0.000000
  0
LINE
  8
LVL0000
 10
       40.000000
 20
        9.125146
 30
        0.000000
 11
       43.000000
 21
        9.125146
 31
        0.000000
  0
LINE
  8
LVL0000
 10
       40.000000
 20
        8.522886
 30
        0.000000
 11
       43.000000
 21
        8.522886
 31
        0.000000
  0
LINE
  8
LVL0000
 10
       40.000000
 20
        7.897266
 30
        0.000000
 11
       43.000000
 21
        7.897266
 31
        0.000000
  0
LINE
  8
LVL0000
 10
       40.000000
 20
        7.250000
 30
        0.000000
 11
       43.000000
 21
        7.250000
 31
        0.000000
  0
LINE
  8
LVL0000
 10
       40.000000
 20
        6.582862
 30
        0.000000
 11
       43.000000
 21
        6.582862
 31
        0.000000
  0
LINE
  8
LVL0000
 10
       40.000000
 20
        5.897681
 30
        0.000000
 11
       43.000000
 21
        5.897681
 31
        0.000000
  0
LINE
  8
LVL0000
 10
       40.000000
 20
        5.196335
 30
        0.000000
 11
       43.000000
 21
        5.196335
 31
        0.000000
  0
LINE
  8
LVL0000
 10
       40.000000
 20
        4.480746
 30
        0.000000
 11
       43.000000
 21
        4.480746
 31
        0.000000
  0
LINE
  8
LVL0000
 10
       40.000000
 20
        3.752876
 30
        0.000000
 11
       43.000000
 21
        3.752876
 31
        0.000000
  0
LINE
  8
LVL0000
 10
       40.000000
 20
        3.014720
 30
        0.000000
 11
       43.000000
 21
        3.014720
 31
        0.000000
  0
LINE
  8
LVL0000
 10
       40.000000
 20
        2.268300
 30
        0.000000
 11
       43.000000
 21
        2.268300
 31
        0.000000
  0
LINE
  8
LVL0000
 10
       40.000000
 20
        1.515663
 30
        0.000000
 11
       43.000000
 21
        1.515663
 31
        0.000000
  0
LINE
  8
LVL0000
 10
       40.000000
 20
        0.758871
 30
        0.000000
 11
       43.000000
 21
        0.758871
 31
        0.000000
  0
LINE
  8
LVL0000
 10
       40.000000
 20
      -13.246409
 30
        0.000000
 11
       43.000000
 21
      -13.246409
 31
        0.000000
  0
LINE
  8
LVL0000
 10
       79.000000
 20
      -14.750000
 30
        0.000000
 11
       79.000000
 21
      -11.250000
 31
        0.000000
  0
LINE
  8
LVL0000
 10
       79.000000
 20
       14.750000
 30
        0.000000
 11
       79.000000
 21
       11.250000
 31
        0.000000
  0
LINE
  8
LVL0000
 10
       79.000000
 20
       14.750000
 30
        0.000000
 11
       79.394707
 21
       14.711078
 31
        0.000000
  0
LINE
  8
LVL0000
 10
       79.000000
 20
       11.250000
 30
        0.000000
 11
       79.394707
 21
       11.288922
 31
        0.000000
  0
LINE
  8
LVL0000
 10
       79.000000
 20
      -14.750000
 30
        0.000000
 11
       79.394707
 21
      -14.711078
 31
        0.000000
  0
LINE
  8
LVL0000
 10
       79.000000
 20
      -11.250000
 30
        0.000000
 11
       79.394707
 21
      -11.288922
 31
        0.000000
  0
LINE
  8
LVL0000
 10
       78.200000
 20
      -15.000000
 30
        0.000000
 11
       78.200000
 21
       17.000000
 31
        0.000000
  0
LINE
  8
LVL0000
 10
       79.000000
 20
      -14.900000
 30
        0.000000
 11
       78.200000
 21
      -14.900000
 31
        0.000000
  0
LINE
  8
LVL0000
 10
       79.000000
 20
       16.900000
 30
        0.000000
 11
       78.200000
 21
       16.900000
 31
        0.000000
  0
LINE
  8
LVL0000
 10
       79.000000
 20
      -14.900000
 30
        0.000000
 11
       79.000000
 21
       16.900000
 31
        0.000000
  0
ARC
  8
LVL0000
 10
       80.679351
 20
        0.000000
 30
        0.000000
 40
       40.000000
 50
      201.253814
 51
      201.536180
  0
ARC
  8
LVL0000
 10
       43.937005
 20
      -14.500000
 30
        0.000000
 40
        0.500000
 50
      201.536180
 51
      270.000000
  0
LINE
  8
LVL0000
 10
       46.390913
 20
       13.266572
 30
        0.000000
 11
       78.200000
 21
       13.266572
 31
        0.000000
  0
LINE
  8
LVL0000
 10
       44.790634
 20
       17.000000
 30
        0.000000
 11
       78.200000
 21
       17.000000
 31
        0.000000
  0
LINE
  8
LVL0000
 10
       43.937005
 20
      -15.000000
 30
        0.000000
 11
       78.200000
 21
      -15.000000
 31
        0.000000
  0
ARC
  8
LVL0000
 10
       44.790634
 20
       16.500000
 30
        0.000000
 40
        0.500000
 50
       90.000000
 51
      155.309175
  0
LINE
  8
LVL0000
 10
       44.790634
 20
       17.000000
 30
        0.000000
 11
       46.390913
 21
       13.266572
 31
        0.000000
  0
ARC
  8
LVL0000
 10
       46.390913
 20
       12.766572
 30
        0.000000
 40
        0.500000
 50
       90.000000
 51
      159.310546
  0
ARC
  8
LVL0000
 10
       47.280332
 20
      -14.500000
 30
        0.000000
 40
        0.500000
 50
      204.426036
 51
      270.000000
  0
LINE
  8
LVL0000
 10
       45.923158
 20
       12.943224
 30
        0.000000
 11
       44.336346
 21
       16.708861
 31
        0.000000
  0
ARC
  8
LVL0000
 10
       79.655698
 20
        0.203857
 30
        0.000000
 40
       36.057949
 50
      159.310546
 51
      204.426036
  0
ARC
  8
LVL0000
 10
       80.679351
 20
        0.000000
 30
        0.000000
 40
       40.000000
 50
      155.309175
 51
      158.746186
  0
LINE
  8
LVL0000
 10
       43.400000
 20
      -14.500000
 30
        0.000000
 11
       43.400000
 21
       14.500000
 31
        0.000000
  0
CIRCLE
  8
LVL0000
 10
       50.700000
 20
       10.000000
 30
        0.000000
 40
        1.000000
  0
CIRCLE
  8
LVL0000
 10
       50.700000
 20
      -10.000000
 30
        0.000000
 40
        1.000000
  0
CIRCLE
  8
LVL0000
 10
       50.700000
 20
      -10.000000
 30
        0.000000
 40
        1.500000
  0
CIRCLE
  8
LVL0000
 10
       50.700000
 20
       10.000000
 30
        0.000000
 40
        1.500000
  0
CIRCLE
  8
LVL0000
 10
       50.700000
 20
        0.000000
 30
        0.000000
 40
        1.100000
  0
ARC
  8
LVL0000
 10
       78.800000
 20
        8.500000
 30
        0.000000
 40
        1.200000
 50
        0.000000
 51
       80.405930
  0
ARC
  8
LVL0000
 10
       78.800000
 20
       -9.500000
 30
        0.000000
 40
        1.200000
 50
      279.594070
 51
      360.000000
  0
ARC
  8
LVL0000
 10
       78.800000
 20
       14.100000
 30
        0.000000
 40
        1.200000
 50
        0.000000
 51
       80.405930
  0
LINE
  8
LVL0000
 10
       80.000000
 20
      -12.100000
 30
        0.000000
 11
       80.000000
 21
       14.100000
 31
        0.000000
  0
LINE
  8
LVL0000
 10
       80.000000
 20
        7.000000
 30
        0.000000
 11
       80.000000
 21
       -7.000000
 31
        0.000000
  0
ARC
  8
LVL0000
 10
       79.341561
 20
      -11.899672
 30
        0.000000
 40
        0.600000
 50
       16.387689
 51
       85.000004
  0
ARC
  8
LVL0000
 10
       79.341561
 20
      -14.100328
 30
        0.000000
 40
        0.600000
 50
      275.000000
 51
      343.612316
  0
ARC
  8
LVL0000
 10
       75.600000
 20
      -13.000000
 30
        0.000000
 40
        4.500000
 50
      343.612316
 51
      376.387689
  0
ARC
  8
LVL0000
 10
       79.341561
 20
       11.899672
 30
        0.000000
 40
        0.600000
 50
      274.999996
 51
      343.612311
  0
ARC
  8
LVL0000
 10
       79.341561
 20
       14.100328
 30
        0.000000
 40
        0.600000
 50
       16.387684
 51
       85.000000
  0
ARC
  8
LVL0000
 10
       75.600000
 20
       13.000000
 30
        0.000000
 40
        4.500000
 50
      343.612311
 51
      376.387684
  0
LINE
  8
LVL0000
 10
       80.800049
 20
        7.000000
 30
        0.000000
 11
       80.000000
 21
        7.000000
 31
        0.000000
  0
LINE
  8
LVL0000
 10
       80.800049
 20
       -7.000000
 30
        0.000000
 11
       80.000000
 21
       -7.000000
 31
        0.000000
  0
LINE
  8
LVL0000
 10
       80.800049
 20
       -7.349979
 30
        0.000000
 11
       80.800049
 21
        7.349972
 31
        0.000000
  0
LINE
  8
LVL0000
 10
       90.000000
 20
     -184.500000
 30
        0.000000
 11
       90.000000
 21
     -155.500000
 31
        0.000000
  0
LINE
  8
LVL0000
 10
       93.000000
 20
     -184.500000
 30
        0.000000
 11
       93.000000
 21
     -155.500000
 31
        0.000000
  0
LINE
  8
LVL0000
 10
       90.000000
 20
     -155.500000
 30
        0.000000
 11
       93.000000
 21
     -155.500000
 31
        0.000000
  0
LINE
  8
LVL0000
 10
       90.000000
 20
     -184.500000
 30
        0.000000
 11
       93.000000
 21
     -184.500000
 31
        0.000000
  0
LINE
  8
LVL0000
 10
       90.000000
 20
     -170.758871
 30
        0.000000
 11
       93.000000
 21
     -170.758871
 31
        0.000000
  0
LINE
  8
LVL0000
 10
       90.000000
 20
     -171.515663
 30
        0.000000
 11
       93.000000
 21
     -171.515663
 31
        0.000000
  0
LINE
  8
LVL0000
 10
       90.000000
 20
     -172.268300
 30
        0.000000
 11
       93.000000
 21
     -172.268300
 31
        0.000000
  0
LINE
  8
LVL0000
 10
       90.000000
 20
     -173.014720
 30
        0.000000
 11
       93.000000
 21
     -173.014720
 31
        0.000000
  0
LINE
  8
LVL0000
 10
       90.000000
 20
     -173.752876
 30
        0.000000
 11
       93.000000
 21
     -173.752876
 31
        0.000000
  0
LINE
  8
LVL0000
 10
       90.000000
 20
     -174.480746
 30
        0.000000
 11
       93.000000
 21
     -174.480746
 31
        0.000000
  0
LINE
  8
LVL0000
 10
       90.000000
 20
     -175.196335
 30
        0.000000
 11
       93.000000
 21
     -175.196335
 31
        0.000000
  0
LINE
  8
LVL0000
 10
       90.000000
 20
     -175.897681
 30
        0.000000
 11
       93.000000
 21
     -175.897681
 31
        0.000000
  0
LINE
  8
LVL0000
 10
       90.000000
 20
     -176.582862
 30
        0.000000
 11
       93.000000
 21
     -176.582862
 31
        0.000000
  0
LINE
  8
LVL0000
 10
       90.000000
 20
     -177.250000
 30
        0.000000
 11
       93.000000
 21
     -177.250000
 31
        0.000000
  0
LINE
  8
LVL0000
 10
       90.000000
 20
     -177.897266
 30
        0.000000
 11
       93.000000
 21
     -177.897266
 31
        0.000000
  0
LINE
  8
LVL0000
 10
       90.000000
 20
     -178.522886
 30
        0.000000
 11
       93.000000
 21
     -178.522886
 31
        0.000000
  0
LINE
  8
LVL0000
 10
       90.000000
 20
     -179.125146
 30
        0.000000
 11
       93.000000
 21
     -179.125146
 31
        0.000000
  0
LINE
  8
LVL0000
 10
       90.000000
 20
     -179.702394
 30
        0.000000
 11
       93.000000
 21
     -179.702394
 31
        0.000000
  0
LINE
  8
LVL0000
 10
       90.000000
 20
     -180.253048
 30
        0.000000
 11
       93.000000
 21
     -180.253048
 31
        0.000000
  0
LINE
  8
LVL0000
 10
       90.000000
 20
     -180.775600
 30
        0.000000
 11
       93.000000
 21
     -180.775600
 31
        0.000000
  0
LINE
  8
LVL0000
 10
       90.000000
 20
     -181.268616
 30
        0.000000
 11
       93.000000
 21
     -181.268616
 31
        0.000000
  0
LINE
  8
LVL0000
 10
       90.000000
 20
     -181.730746
 30
        0.000000
 11
       93.000000
 21
     -181.730746
 31
        0.000000
  0
LINE
  8
LVL0000
 10
       90.000000
 20
     -182.160723
 30
        0.000000
 11
       93.000000
 21
     -182.160723
 31
        0.000000
  0
LINE
  8
LVL0000
 10
       90.000000
 20
     -182.557368
 30
        0.000000
 11
       93.000000
 21
     -182.557368
 31
        0.000000
  0
LINE
  8
LVL0000
 10
       90.000000
 20
     -182.919595
 30
        0.000000
 11
       93.000000
 21
     -182.919595
 31
        0.000000
  0
LINE
  8
LVL0000
 10
       90.000000
 20
     -183.536916
 30
        0.000000
 11
       93.000000
 21
     -183.536916
 31
        0.000000
  0
LINE
  8
LVL0000
 10
       90.000000
 20
     -183.790319
 30
        0.000000
 11
       93.000000
 21
     -183.790319
 31
        0.000000
  0
LINE
  8
LVL0000
 10
       90.000000
 20
     -184.005924
 30
        0.000000
 11
       93.000000
 21
     -184.005924
 31
        0.000000
  0
LINE
  8
LVL0000
 10
       90.000000
 20
     -184.183140
 30
        0.000000
 11
       93.000000
 21
     -184.183140
 31
        0.000000
  0
LINE
  8
LVL0000
 10
       90.000000
 20
     -184.321481
 30
        0.000000
 11
       93.000000
 21
     -184.321481
 31
        0.000000
  0
LINE
  8
LVL0000
 10
       90.000000
 20
     -184.420567
 30
        0.000000
 11
       93.000000
 21
     -184.420567
 31
        0.000000
  0
LINE
  8
LVL0000
 10
       90.000000
 20
     -170.000000
 30
        0.000000
 11
       93.000000
 21
     -170.000000
 31
        0.000000
  0
LINE
  8
LVL0000
 10
       90.000000
 20
     -155.579433
 30
        0.000000
 11
       93.000000
 21
     -155.579433
 31
        0.000000
  0
LINE
  8
LVL0000
 10
       90.000000
 20
     -155.678519
 30
        0.000000
 11
       93.000000
 21
     -155.678519
 31
        0.000000
  0
LINE
  8
LVL0000
 10
       90.000000
 20
     -155.816860
 30
        0.000000
 11
       93.000000
 21
     -155.816860
 31
        0.000000
  0
LINE
  8
LVL0000
 10
       90.000000
 20
     -155.994076
 30
        0.000000
 11
       93.000000
 21
     -155.994076
 31
        0.000000
  0
LINE
  8
LVL0000
 10
       90.000000
 20
     -156.209681
 30
        0.000000
 11
       93.000000
 21
     -156.209681
 31
        0.000000
  0
LINE
  8
LVL0000
 10
       90.000000
 20
     -156.463084
 30
        0.000000
 11
       93.000000
 21
     -156.463084
 31
        0.000000
  0
LINE
  8
LVL0000
 10
       90.000000
 20
     -156.753591
 30
        0.000000
 11
       93.000000
 21
     -156.753591
 31
        0.000000
  0
LINE
  8
LVL0000
 10
       90.000000
 20
     -157.080405
 30
        0.000000
 11
       93.000000
 21
     -157.080405
 31
        0.000000
  0
LINE
  8
LVL0000
 10
       90.000000
 20
     -157.442632
 30
        0.000000
 11
       93.000000
 21
     -157.442632
 31
        0.000000
  0
LINE
  8
LVL0000
 10
       90.000000
 20
     -157.839277
 30
        0.000000
 11
       93.000000
 21
     -157.839277
 31
        0.000000
  0
LINE
  8
LVL0000
 10
       90.000000
 20
     -158.269254
 30
        0.000000
 11
       93.000000
 21
     -158.269254
 31
        0.000000
  0
LINE
  8
LVL0000
 10
       90.000000
 20
     -158.731384
 30
        0.000000
 11
       93.000000
 21
     -158.731384
 31
        0.000000
  0
LINE
  8
LVL0000
 10
       90.000000
 20
     -159.224400
 30
        0.000000
 11
       93.000000
 21
     -159.224400
 31
        0.000000
  0
LINE
  8
LVL0000
 10
       90.000000
 20
     -159.746952
 30
        0.000000
 11
       93.000000
 21
     -159.746952
 31
        0.000000
  0
LINE
  8
LVL0000
 10
       90.000000
 20
     -160.297606
 30
        0.000000
 11
       93.000000
 21
     -160.297606
 31
        0.000000
  0
LINE
  8
LVL0000
 10
       90.000000
 20
     -160.874854
 30
        0.000000
 11
       93.000000
 21
     -160.874854
 31
        0.000000
  0
LINE
  8
LVL0000
 10
       90.000000
 20
     -161.477114
 30
        0.000000
 11
       93.000000
 21
     -161.477114
 31
        0.000000
  0
LINE
  8
LVL0000
 10
       90.000000
 20
     -162.102734
 30
        0.000000
 11
       93.000000
 21
     -162.102734
 31
        0.000000
  0
LINE
  8
LVL0000
 10
       90.000000
 20
     -162.750000
 30
        0.000000
 11
       93.000000
 21
     -162.750000
 31
        0.000000
  0
LINE
  8
LVL0000
 10
       90.000000
 20
     -163.417138
 30
        0.000000
 11
       93.000000
 21
     -163.417138
 31
        0.000000
  0
LINE
  8
LVL0000
 10
       90.000000
 20
     -164.102319
 30
        0.000000
 11
       93.000000
 21
     -164.102319
 31
        0.000000
  0
LINE
  8
LVL0000
 10
       90.000000
 20
     -164.803665
 30
        0.000000
 11
       93.000000
 21
     -164.803665
 31
        0.000000
  0
LINE
  8
LVL0000
 10
       90.000000
 20
     -165.519254
 30
        0.000000
 11
       93.000000
 21
     -165.519254
 31
        0.000000
  0
LINE
  8
LVL0000
 10
       90.000000
 20
     -166.247124
 30
        0.000000
 11
       93.000000
 21
     -166.247124
 31
        0.000000
  0
LINE
  8
LVL0000
 10
       90.000000
 20
     -166.985280
 30
        0.000000
 11
       93.000000
 21
     -166.985280
 31
        0.000000
  0
LINE
  8
LVL0000
 10
       90.000000
 20
     -167.731700
 30
        0.000000
 11
       93.000000
 21
     -167.731700
 31
        0.000000
  0
LINE
  8
LVL0000
 10
       90.000000
 20
     -168.484337
 30
        0.000000
 11
       93.000000
 21
     -168.484337
 31
        0.000000
  0
LINE
  8
LVL0000
 10
       90.000000
 20
     -169.241129
 30
        0.000000
 11
       93.000000
 21
     -169.241129
 31
        0.000000
  0
LINE
  8
LVL0000
 10
       90.000000
 20
     -183.246409
 30
        0.000000
 11
       93.000000
 21
     -183.246409
 31
        0.000000
  0
LINE
  8
LVL0000
 10
      129.000000
 20
     -184.750000
 30
        0.000000
 11
      129.000000
 21
     -181.250000
 31
        0.000000
  0
LINE
  8
LVL0000
 10
      129.000000
 20
     -155.250000
 30
        0.000000
 11
      129.000000
 21
     -158.750000
 31
        0.000000
  0
LINE
  8
LVL0000
 10
      129.000000
 20
     -155.250000
 30
        0.000000
 11
      129.394707
 21
     -155.288922
 31
        0.000000
  0
LINE
  8
LVL0000
 10
      129.000000
 20
     -158.750000
 30
        0.000000
 11
      129.394707
 21
     -158.711078
 31
        0.000000
  0
LINE
  8
LVL0000
 10
      129.000000
 20
     -184.750000
 30
        0.000000
 11
      129.394707
 21
     -184.711078
 31
        0.000000
  0
LINE
  8
LVL0000
 10
      129.000000
 20
     -181.250000
 30
        0.000000
 11
      129.394707
 21
     -181.288922
 31
        0.000000
  0
LINE
  8
LVL0000
 10
      128.200000
 20
     -185.000000
 30
        0.000000
 11
      128.200000
 21
     -153.000000
 31
        0.000000
  0
LINE
  8
LVL0000
 10
      129.000000
 20
     -184.900000
 30
        0.000000
 11
      128.200000
 21
     -184.900000
 31
        0.000000
  0
LINE
  8
LVL0000
 10
      129.000000
 20
     -153.100000
 30
        0.000000
 11
      128.200000
 21
     -153.100000
 31
        0.000000
  0
LINE
  8
LVL0000
 10
      129.000000
 20
     -184.900000
 30
        0.000000
 11
      129.000000
 21
     -153.100000
 31
        0.000000
  0
ARC
  8
LVL0000
 10
      130.679351
 20
     -170.000000
 30
        0.000000
 40
       40.000000
 50
      201.253814
 51
      201.536180
  0
ARC
  8
LVL0000
 10
       93.937005
 20
     -184.500000
 30
        0.000000
 40
        0.500000
 50
      201.536180
 51
      270.000000
  0
LINE
  8
LVL0000
 10
       93.400000
 20
     -184.500000
 30
        0.000000
 11
       93.400000
 21
     -156.000000
 31
        0.000000
  0
LINE
  8
LVL0000
 10
       96.390913
 20
     -156.733428
 30
        0.000000
 11
      128.200000
 21
     -156.733428
 31
        0.000000
  0
LINE
  8
LVL0000
 10
       94.790634
 20
     -153.000000
 30
        0.000000
 11
      128.200000
 21
     -153.000000
 31
        0.000000
  0
LINE
  8
LVL0000
 10
       93.937005
 20
     -185.000000
 30
        0.000000
 11
      128.200000
 21
     -185.000000
 31
        0.000000
  0
ARC
  8
LVL0000
 10
       94.790634
 20
     -153.500000
 30
        0.000000
 40
        0.500000
 50
       90.000000
 51
      155.309175
  0
LINE
  8
LVL0000
 10
       94.790634
 20
     -153.000000
 30
        0.000000
 11
       96.390913
 21
     -156.733428
 31
        0.000000
  0
ARC
  8
LVL0000
 10
       96.390913
 20
     -157.233428
 30
        0.000000
 40
        0.500000
 50
       90.000000
 51
      159.310546
  0
ARC
  8
LVL0000
 10
       97.280332
 20
     -184.500000
 30
        0.000000
 40
        0.500000
 50
      204.426036
 51
      270.000000
  0
LINE
  8
LVL0000
 10
       95.923158
 20
     -157.056776
 30
        0.000000
 11
       94.336346
 21
     -153.291139
 31
        0.000000
  0
ARC
  8
LVL0000
 10
      129.655698
 20
     -169.796143
 30
        0.000000
 40
       36.057949
 50
      159.310546
 51
      204.426036
  0
ARC
  8
LVL0000
 10
      130.679351
 20
     -170.000000
 30
        0.000000
 40
       40.000000
 50
      155.309175
 51
      158.746186
  0
LINE
  8
LVL0000
 10
       93.400000
 20
     -184.500000
 30
        0.000000
 11
       93.400000
 21
     -155.500000
 31
        0.000000
  0
CIRCLE
  8
LVL0000
 10
      100.700000
 20
     -170.000000
 30
        0.000000
 40
        1.100000
  0
ARC
  8
LVL0000
 10
      128.800000
 20
     -161.500000
 30
        0.000000
 40
        1.200000
 50
        0.000000
 51
       80.405930
  0
ARC
  8
LVL0000
 10
      128.800000
 20
     -179.500000
 30
        0.000000
 40
        1.200000
 50
      279.594070
 51
      360.000000
  0
ARC
  8
LVL0000
 10
      128.800000
 20
     -155.900000
 30
        0.000000
 40
        1.200000
 50
        0.000000
 51
       80.405930
  0
LINE
  8
LVL0000
 10
      130.000000
 20
     -182.100000
 30
        0.000000
 11
      130.000000
 21
     -155.900000
 31
        0.000000
  0
LINE
  8
LVL0000
 10
      130.000000
 20
     -163.000000
 30
        0.000000
 11
      130.000000
 21
     -177.000000
 31
        0.000000
  0
ARC
  8
LVL0000
 10
      129.341561
 20
     -181.899672
 30
        0.000000
 40
        0.600000
 50
       16.387689
 51
       85.000004
  0
ARC
  8
LVL0000
 10
      129.341561
 20
     -184.100328
 30
        0.000000
 40
        0.600000
 50
      275.000000
 51
      343.612316
  0
ARC
  8
LVL0000
 10
      125.600000
 20
     -183.000000
 30
        0.000000
 40
        4.500000
 50
      343.612316
 51
      376.387689
  0
ARC
  8
LVL0000
 10
      129.341561
 20
     -158.100328
 30
        0.000000
 40
        0.600000
 50
      274.999996
 51
      343.612311
  0
ARC
  8
LVL0000
 10
      129.341561
 20
     -155.899672
 30
        0.000000
 40
        0.600000
 50
       16.387684
 51
       85.000000
  0
ARC
  8
LVL0000
 10
      125.600000
 20
     -157.000000
 30
        0.000000
 40
        4.500000
 50
      343.612311
 51
      376.387684
  0
LINE
  8
LVL0000
 10
      130.800049
 20
     -163.000000
 30
        0.000000
 11
      130.000000
 21
     -163.000000
 31
        0.000000
  0
LINE
  8
LVL0000
 10
      130.800049
 20
     -177.000000
 30
        0.000000
 11
      130.000000
 21
     -177.000000
 31
        0.000000
  0
LINE
  8
LVL0000
 10
      130.800049
 20
     -177.349979
 30
        0.000000
 11
      130.800049
 21
     -162.650028
 31
        0.000000
  0
LINE
  8
LVL0000
 10
       90.000000
 20
     -284.500000
 30
        0.000000
 11
       90.000000
 21
     -255.500000
 31
        0.000000
  0
LINE
  8
LVL0000
 10
       93.000000
 20
     -284.500000
 30
        0.000000
 11
       93.000000
 21
     -255.500000
 31
        0.000000
  0
LINE
  8
LVL0000
 10
       90.000000
 20
     -255.500000
 30
        0.000000
 11
       93.000000
 21
     -255.500000
 31
        0.000000
  0
LINE
  8
LVL0000
 10
       90.000000
 20
     -284.500000
 30
        0.000000
 11
       93.000000
 21
     -284.500000
 31
        0.000000
  0
LINE
  8
LVL0000
 10
       90.000000
 20
     -270.758871
 30
        0.000000
 11
       93.000000
 21
     -270.758871
 31
        0.000000
  0
LINE
  8
LVL0000
 10
       90.000000
 20
     -271.515663
 30
        0.000000
 11
       93.000000
 21
     -271.515663
 31
        0.000000
  0
LINE
  8
LVL0000
 10
       90.000000
 20
     -272.268300
 30
        0.000000
 11
       93.000000
 21
     -272.268300
 31
        0.000000
  0
LINE
  8
LVL0000
 10
       90.000000
 20
     -273.014720
 30
        0.000000
 11
       93.000000
 21
     -273.014720
 31
        0.000000
  0
LINE
  8
LVL0000
 10
       90.000000
 20
     -273.752876
 30
        0.000000
 11
       93.000000
 21
     -273.752876
 31
        0.000000
  0
LINE
  8
LVL0000
 10
       90.000000
 20
     -274.480746
 30
        0.000000
 11
       93.000000
 21
     -274.480746
 31
        0.000000
  0
LINE
  8
LVL0000
 10
       90.000000
 20
     -275.196335
 30
        0.000000
 11
       93.000000
 21
     -275.196335
 31
        0.000000
  0
LINE
  8
LVL0000
 10
       90.000000
 20
     -275.897681
 30
        0.000000
 11
       93.000000
 21
     -275.897681
 31
        0.000000
  0
LINE
  8
LVL0000
 10
       90.000000
 20
     -276.582862
 30
        0.000000
 11
       93.000000
 21
     -276.582862
 31
        0.000000
  0
LINE
  8
LVL0000
 10
       90.000000
 20
     -277.250000
 30
        0.000000
 11
       93.000000
 21
     -277.250000
 31
        0.000000
  0
LINE
  8
LVL0000
 10
       90.000000
 20
     -277.897266
 30
        0.000000
 11
       93.000000
 21
     -277.897266
 31
        0.000000
  0
LINE
  8
LVL0000
 10
       90.000000
 20
     -278.522886
 30
        0.000000
 11
       93.000000
 21
     -278.522886
 31
        0.000000
  0
LINE
  8
LVL0000
 10
       90.000000
 20
     -279.125146
 30
        0.000000
 11
       93.000000
 21
     -279.125146
 31
        0.000000
  0
LINE
  8
LVL0000
 10
       90.000000
 20
     -279.702394
 30
        0.000000
 11
       93.000000
 21
     -279.702394
 31
        0.000000
  0
LINE
  8
LVL0000
 10
       90.000000
 20
     -280.253048
 30
        0.000000
 11
       93.000000
 21
     -280.253048
 31
        0.000000
  0
LINE
  8
LVL0000
 10
       90.000000
 20
     -280.775600
 30
        0.000000
 11
       93.000000
 21
     -280.775600
 31
        0.000000
  0
LINE
  8
LVL0000
 10
       90.000000
 20
     -281.268616
 30
        0.000000
 11
       93.000000
 21
     -281.268616
 31
        0.000000
  0
LINE
  8
LVL0000
 10
       90.000000
 20
     -281.730746
 30
        0.000000
 11
       93.000000
 21
     -281.730746
 31
        0.000000
  0
LINE
  8
LVL0000
 10
       90.000000
 20
     -282.160723
 30
        0.000000
 11
       93.000000
 21
     -282.160723
 31
        0.000000
  0
LINE
  8
LVL0000
 10
       90.000000
 20
     -282.557368
 30
        0.000000
 11
       93.000000
 21
     -282.557368
 31
        0.000000
  0
LINE
  8
LVL0000
 10
       90.000000
 20
     -282.919595
 30
        0.000000
 11
       93.000000
 21
     -282.919595
 31
        0.000000
  0
LINE
  8
LVL0000
 10
       90.000000
 20
     -283.536916
 30
        0.000000
 11
       93.000000
 21
     -283.536916
 31
        0.000000
  0
LINE
  8
LVL0000
 10
       90.000000
 20
     -283.790319
 30
        0.000000
 11
       93.000000
 21
     -283.790319
 31
        0.000000
  0
LINE
  8
LVL0000
 10
       90.000000
 20
     -284.005924
 30
        0.000000
 11
       93.000000
 21
     -284.005924
 31
        0.000000
  0
LINE
  8
LVL0000
 10
       90.000000
 20
     -284.183140
 30
        0.000000
 11
       93.000000
 21
     -284.183140
 31
        0.000000
  0
LINE
  8
LVL0000
 10
       90.000000
 20
     -284.321481
 30
        0.000000
 11
       93.000000
 21
     -284.321481
 31
        0.000000
  0
LINE
  8
LVL0000
 10
       90.000000
 20
     -284.420567
 30
        0.000000
 11
       93.000000
 21
     -284.420567
 31
        0.000000
  0
LINE
  8
LVL0000
 10
       90.000000
 20
     -270.000000
 30
        0.000000
 11
       93.000000
 21
     -270.000000
 31
        0.000000
  0
LINE
  8
LVL0000
 10
       90.000000
 20
     -255.579433
 30
        0.000000
 11
       93.000000
 21
     -255.579433
 31
        0.000000
  0
LINE
  8
LVL0000
 10
       90.000000
 20
     -255.678519
 30
        0.000000
 11
       93.000000
 21
     -255.678519
 31
        0.000000
  0
LINE
  8
LVL0000
 10
       90.000000
 20
     -255.816860
 30
        0.000000
 11
       93.000000
 21
     -255.816860
 31
        0.000000
  0
LINE
  8
LVL0000
 10
       90.000000
 20
     -255.994076
 30
        0.000000
 11
       93.000000
 21
     -255.994076
 31
        0.000000
  0
LINE
  8
LVL0000
 10
       90.000000
 20
     -256.209681
 30
        0.000000
 11
       93.000000
 21
     -256.209681
 31
        0.000000
  0
LINE
  8
LVL0000
 10
       90.000000
 20
     -256.463084
 30
        0.000000
 11
       93.000000
 21
     -256.463084
 31
        0.000000
  0
LINE
  8
LVL0000
 10
       90.000000
 20
     -256.753591
 30
        0.000000
 11
       93.000000
 21
     -256.753591
 31
        0.000000
  0
LINE
  8
LVL0000
 10
       90.000000
 20
     -257.080405
 30
        0.000000
 11
       93.000000
 21
     -257.080405
 31
        0.000000
  0
LINE
  8
LVL0000
 10
       90.000000
 20
     -257.442632
 30
        0.000000
 11
       93.000000
 21
     -257.442632
 31
        0.000000
  0
LINE
  8
LVL0000
 10
       90.000000
 20
     -257.839277
 30
        0.000000
 11
       93.000000
 21
     -257.839277
 31
        0.000000
  0
LINE
  8
LVL0000
 10
       90.000000
 20
     -258.269254
 30
        0.000000
 11
       93.000000
 21
     -258.269254
 31
        0.000000
  0
LINE
  8
LVL0000
 10
       90.000000
 20
     -258.731384
 30
        0.000000
 11
       93.000000
 21
     -258.731384
 31
        0.000000
  0
LINE
  8
LVL0000
 10
       90.000000
 20
     -259.224400
 30
        0.000000
 11
       93.000000
 21
     -259.224400
 31
        0.000000
  0
LINE
  8
LVL0000
 10
       90.000000
 20
     -259.746952
 30
        0.000000
 11
       93.000000
 21
     -259.746952
 31
        0.000000
  0
LINE
  8
LVL0000
 10
       90.000000
 20
     -260.297606
 30
        0.000000
 11
       93.000000
 21
     -260.297606
 31
        0.000000
  0
LINE
  8
LVL0000
 10
       90.000000
 20
     -260.874854
 30
        0.000000
 11
       93.000000
 21
     -260.874854
 31
        0.000000
  0
LINE
  8
LVL0000
 10
       90.000000
 20
     -261.477114
 30
        0.000000
 11
       93.000000
 21
     -261.477114
 31
        0.000000
  0
LINE
  8
LVL0000
 10
       90.000000
 20
     -262.102734
 30
        0.000000
 11
       93.000000
 21
     -262.102734
 31
        0.000000
  0
LINE
  8
LVL0000
 10
       90.000000
 20
     -262.750000
 30
        0.000000
 11
       93.000000
 21
     -262.750000
 31
        0.000000
  0
LINE
  8
LVL0000
 10
       90.000000
 20
     -263.417138
 30
        0.000000
 11
       93.000000
 21
     -263.417138
 31
        0.000000
  0
LINE
  8
LVL0000
 10
       90.000000
 20
     -264.102319
 30
        0.000000
 11
       93.000000
 21
     -264.102319
 31
        0.000000
  0
LINE
  8
LVL0000
 10
       90.000000
 20
     -264.803665
 30
        0.000000
 11
       93.000000
 21
     -264.803665
 31
        0.000000
  0
LINE
  8
LVL0000
 10
       90.000000
 20
     -265.519254
 30
        0.000000
 11
       93.000000
 21
     -265.519254
 31
        0.000000
  0
LINE
  8
LVL0000
 10
       90.000000
 20
     -266.247124
 30
        0.000000
 11
       93.000000
 21
     -266.247124
 31
        0.000000
  0
LINE
  8
LVL0000
 10
       90.000000
 20
     -266.985280
 30
        0.000000
 11
       93.000000
 21
     -266.985280
 31
        0.000000
  0
LINE
  8
LVL0000
 10
       90.000000
 20
     -267.731700
 30
        0.000000
 11
       93.000000
 21
     -267.731700
 31
        0.000000
  0
LINE
  8
LVL0000
 10
       90.000000
 20
     -268.484337
 30
        0.000000
 11
       93.000000
 21
     -268.484337
 31
        0.000000
  0
LINE
  8
LVL0000
 10
       90.000000
 20
     -269.241129
 30
        0.000000
 11
       93.000000
 21
     -269.241129
 31
        0.000000
  0
LINE
  8
LVL0000
 10
       90.000000
 20
     -283.246409
 30
        0.000000
 11
       93.000000
 21
     -283.246409
 31
        0.000000
  0
LINE
  8
LVL0000
 10
      129.000000
 20
     -284.750000
 30
        0.000000
 11
      129.000000
 21
     -281.250000
 31
        0.000000
  0
LINE
  8
LVL0000
 10
      129.000000
 20
     -255.250000
 30
        0.000000
 11
      129.000000
 21
     -258.750000
 31
        0.000000
  0
LINE
  8
LVL0000
 10
      129.000000
 20
     -255.250000
 30
        0.000000
 11
      129.394707
 21
     -255.288922
 31
        0.000000
  0
LINE
  8
LVL0000
 10
      129.000000
 20
     -258.750000
 30
        0.000000
 11
      129.394707
 21
     -258.711078
 31
        0.000000
  0
LINE
  8
LVL0000
 10
      129.000000
 20
     -284.750000
 30
        0.000000
 11
      129.394707
 21
     -284.711078
 31
        0.000000
  0
LINE
  8
LVL0000
 10
      129.000000
 20
     -281.250000
 30
        0.000000
 11
      129.394707
 21
     -281.288922
 31
        0.000000
  0
LINE
  8
LVL0000
 10
      128.200000
 20
     -285.000000
 30
        0.000000
 11
      128.200000
 21
     -253.000000
 31
        0.000000
  0
LINE
  8
LVL0000
 10
      129.000000
 20
     -284.900000
 30
        0.000000
 11
      128.200000
 21
     -284.900000
 31
        0.000000
  0
LINE
  8
LVL0000
 10
      129.000000
 20
     -253.100000
 30
        0.000000
 11
      128.200000
 21
     -253.100000
 31
        0.000000
  0
LINE
  8
LVL0000
 10
      129.000000
 20
     -284.900000
 30
        0.000000
 11
      129.000000
 21
     -253.100000
 31
        0.000000
  0
ARC
  8
LVL0000
 10
      130.679351
 20
     -270.000000
 30
        0.000000
 40
       40.000000
 50
      201.253814
 51
      201.536180
  0
ARC
  8
LVL0000
 10
       93.937005
 20
     -284.500000
 30
        0.000000
 40
        0.500000
 50
      201.536180
 51
      270.000000
  0
LINE
  8
LVL0000
 10
       93.400000
 20
     -284.500000
 30
        0.000000
 11
       93.400000
 21
     -256.000000
 31
        0.000000
  0
LINE
  8
LVL0000
 10
       93.000000
 20
     -256.500000
 30
        0.000000
 11
       93.400000
 21
     -256.500000
 31
        0.000000
  0
LINE
  8
LVL0000
 10
       93.000000
 20
     -283.500000
 30
        0.000000
 11
       93.400000
 21
     -283.500000
 31
        0.000000
  0
LINE
  8
LVL0000
 10
       96.390913
 20
     -256.733428
 30
        0.000000
 11
      128.200000
 21
     -256.733428
 31
        0.000000
  0
LINE
  8
LVL0000
 10
       94.790634
 20
     -253.000000
 30
        0.000000
 11
      128.200000
 21
     -253.000000
 31
        0.000000
  0
LINE
  8
LVL0000
 10
       93.937005
 20
     -285.000000
 30
        0.000000
 11
      128.200000
 21
     -285.000000
 31
        0.000000
  0
ARC
  8
LVL0000
 10
       94.790634
 20
     -253.500000
 30
        0.000000
 40
        0.500000
 50
       90.000000
 51
      155.309175
  0
LINE
  8
LVL0000
 10
       94.790634
 20
     -253.000000
 30
        0.000000
 11
       96.390913
 21
     -256.733428
 31
        0.000000
  0
ARC
  8
LVL0000
 10
       96.390913
 20
     -257.233428
 30
        0.000000
 40
        0.500000
 50
       90.000000
 51
      159.310546
  0
ARC
  8
LVL0000
 10
       97.280332
 20
     -284.500000
 30
        0.000000
 40
        0.500000
 50
      204.426036
 51
      270.000000
  0
LINE
  8
LVL0000
 10
       95.923158
 20
     -257.056776
 30
        0.000000
 11
       94.336346
 21
     -253.291139
 31
        0.000000
  0
ARC
  8
LVL0000
 10
      129.655698
 20
     -269.796143
 30
        0.000000
 40
       36.057949
 50
      159.310546
 51
      204.426036
  0
ARC
  8
LVL0000
 10
      130.679351
 20
     -270.000000
 30
        0.000000
 40
       40.000000
 50
      155.309175
 51
      158.746186
  0
LINE
  8
LVL0000
 10
       93.400000
 20
     -284.500000
 30
        0.000000
 11
       93.400000
 21
     -255.500000
 31
        0.000000
  0
CIRCLE
  8
LVL0000
 10
      100.700000
 20
     -270.000000
 30
        0.000000
 40
        1.100000
  0
ARC
  8
LVL0000
 10
      128.800000
 20
     -261.500000
 30
        0.000000
 40
        1.200000
 50
        0.000000
 51
       80.405930
  0
ARC
  8
LVL0000
 10
      128.800000
 20
     -279.500000
 30
        0.000000
 40
        1.200000
 50
      279.594070
 51
      360.000000
  0
ARC
  8
LVL0000
 10
      128.800000
 20
     -255.900000
 30
        0.000000
 40
        1.200000
 50
        0.000000
 51
       80.405930
  0
LINE
  8
LVL0000
 10
      130.000000
 20
     -282.100000
 30
        0.000000
 11
      130.000000
 21
     -255.900000
 31
        0.000000
  0
LINE
  8
LVL0000
 10
      130.000000
 20
     -263.000000
 30
        0.000000
 11
      130.000000
 21
     -277.000000
 31
        0.000000
  0
ARC
  8
LVL0000
 10
      129.341561
 20
     -281.899672
 30
        0.000000
 40
        0.600000
 50
       16.387689
 51
       85.000004
  0
ARC
  8
LVL0000
 10
      129.341561
 20
     -284.100328
 30
        0.000000
 40
        0.600000
 50
      275.000000
 51
      343.612316
  0
ARC
  8
LVL0000
 10
      125.600000
 20
     -283.000000
 30
        0.000000
 40
        4.500000
 50
      343.612316
 51
      376.387689
  0
ARC
  8
LVL0000
 10
      129.341561
 20
     -258.100328
 30
        0.000000
 40
        0.600000
 50
      274.999996
 51
      343.612311
  0
ARC
  8
LVL0000
 10
      129.341561
 20
     -255.899672
 30
        0.000000
 40
        0.600000
 50
       16.387684
 51
       85.000000
  0
ARC
  8
LVL0000
 10
      125.600000
 20
     -257.000000
 30
        0.000000
 40
        4.500000
 50
      343.612311
 51
      376.387684
  0
LINE
  8
LVL0000
 10
      130.800049
 20
     -263.000000
 30
        0.000000
 11
      130.000000
 21
     -263.000000
 31
        0.000000
  0
LINE
  8
LVL0000
 10
      130.800049
 20
     -277.000000
 30
        0.000000
 11
      130.000000
 21
     -277.000000
 31
        0.000000
  0
LINE
  8
LVL0000
 10
       90.000000
 20
     -384.500000
 30
        0.000000
 11
       90.000000
 21
     -355.500000
 31
        0.000000
  0
LINE
  8
LVL0000
 10
       93.000000
 20
     -384.500000
 30
        0.000000
 11
       93.000000
 21
     -355.500000
 31
        0.000000
  0
LINE
  8
LVL0000
 10
       90.000000
 20
     -355.500000
 30
        0.000000
 11
       93.000000
 21
     -355.500000
 31
        0.000000
  0
LINE
  8
LVL0000
 10
       90.000000
 20
     -384.500000
 30
        0.000000
 11
       93.000000
 21
     -384.500000
 31
        0.000000
  0
LINE
  8
LVL0000
 10
       90.000000
 20
     -370.758871
 30
        0.000000
 11
       93.000000
 21
     -370.758871
 31
        0.000000
  0
LINE
  8
LVL0000
 10
       90.000000
 20
     -371.515663
 30
        0.000000
 11
       93.000000
 21
     -371.515663
 31
        0.000000
  0
LINE
  8
LVL0000
 10
       90.000000
 20
     -372.268300
 30
        0.000000
 11
       93.000000
 21
     -372.268300
 31
        0.000000
  0
LINE
  8
LVL0000
 10
       90.000000
 20
     -373.014720
 30
        0.000000
 11
       93.000000
 21
     -373.014720
 31
        0.000000
  0
LINE
  8
LVL0000
 10
       90.000000
 20
     -373.752876
 30
        0.000000
 11
       93.000000
 21
     -373.752876
 31
        0.000000
  0
LINE
  8
LVL0000
 10
       90.000000
 20
     -374.480746
 30
        0.000000
 11
       93.000000
 21
     -374.480746
 31
        0.000000
  0
LINE
  8
LVL0000
 10
       90.000000
 20
     -375.196335
 30
        0.000000
 11
       93.000000
 21
     -375.196335
 31
        0.000000
  0
LINE
  8
LVL0000
 10
       90.000000
 20
     -375.897681
 30
        0.000000
 11
       93.000000
 21
     -375.897681
 31
        0.000000
  0
LINE
  8
LVL0000
 10
       90.000000
 20
     -376.582862
 30
        0.000000
 11
       93.000000
 21
     -376.582862
 31
        0.000000
  0
LINE
  8
LVL0000
 10
       90.000000
 20
     -377.250000
 30
        0.000000
 11
       93.000000
 21
     -377.250000
 31
        0.000000
  0
LINE
  8
LVL0000
 10
       90.000000
 20
     -377.897266
 30
        0.000000
 11
       93.000000
 21
     -377.897266
 31
        0.000000
  0
LINE
  8
LVL0000
 10
       90.000000
 20
     -378.522886
 30
        0.000000
 11
       93.000000
 21
     -378.522886
 31
        0.000000
  0
LINE
  8
LVL0000
 10
       90.000000
 20
     -379.125146
 30
        0.000000
 11
       93.000000
 21
     -379.125146
 31
        0.000000
  0
LINE
  8
LVL0000
 10
       90.000000
 20
     -379.702394
 30
        0.000000
 11
       93.000000
 21
     -379.702394
 31
        0.000000
  0
LINE
  8
LVL0000
 10
       90.000000
 20
     -380.253048
 30
        0.000000
 11
       93.000000
 21
     -380.253048
 31
        0.000000
  0
LINE
  8
LVL0000
 10
       90.000000
 20
     -380.775600
 30
        0.000000
 11
       93.000000
 21
     -380.775600
 31
        0.000000
  0
LINE
  8
LVL0000
 10
       90.000000
 20
     -381.268616
 30
        0.000000
 11
       93.000000
 21
     -381.268616
 31
        0.000000
  0
LINE
  8
LVL0000
 10
       90.000000
 20
     -381.730746
 30
        0.000000
 11
       93.000000
 21
     -381.730746
 31
        0.000000
  0
LINE
  8
LVL0000
 10
       90.000000
 20
     -382.160723
 30
        0.000000
 11
       93.000000
 21
     -382.160723
 31
        0.000000
  0
LINE
  8
LVL0000
 10
       90.000000
 20
     -382.557368
 30
        0.000000
 11
       93.000000
 21
     -382.557368
 31
        0.000000
  0
LINE
  8
LVL0000
 10
       90.000000
 20
     -382.919595
 30
        0.000000
 11
       93.000000
 21
     -382.919595
 31
        0.000000
  0
LINE
  8
LVL0000
 10
       90.000000
 20
     -383.536916
 30
        0.000000
 11
       93.000000
 21
     -383.536916
 31
        0.000000
  0
LINE
  8
LVL0000
 10
       90.000000
 20
     -383.790319
 30
        0.000000
 11
       93.000000
 21
     -383.790319
 31
        0.000000
  0
LINE
  8
LVL0000
 10
       90.000000
 20
     -384.005924
 30
        0.000000
 11
       93.000000
 21
     -384.005924
 31
        0.000000
  0
LINE
  8
LVL0000
 10
       90.000000
 20
     -384.183140
 30
        0.000000
 11
       93.000000
 21
     -384.183140
 31
        0.000000
  0
LINE
  8
LVL0000
 10
       90.000000
 20
     -384.321481
 30
        0.000000
 11
       93.000000
 21
     -384.321481
 31
        0.000000
  0
LINE
  8
LVL0000
 10
       90.000000
 20
     -384.420567
 30
        0.000000
 11
       93.000000
 21
     -384.420567
 31
        0.000000
  0
LINE
  8
LVL0000
 10
       90.000000
 20
     -370.000000
 30
        0.000000
 11
       93.000000
 21
     -370.000000
 31
        0.000000
  0
LINE
  8
LVL0000
 10
       90.000000
 20
     -355.579433
 30
        0.000000
 11
       93.000000
 21
     -355.579433
 31
        0.000000
  0
LINE
  8
LVL0000
 10
       90.000000
 20
     -355.678519
 30
        0.000000
 11
       93.000000
 21
     -355.678519
 31
        0.000000
  0
LINE
  8
LVL0000
 10
       90.000000
 20
     -355.816860
 30
        0.000000
 11
       93.000000
 21
     -355.816860
 31
        0.000000
  0
LINE
  8
LVL0000
 10
       90.000000
 20
     -355.994076
 30
        0.000000
 11
       93.000000
 21
     -355.994076
 31
        0.000000
  0
LINE
  8
LVL0000
 10
       90.000000
 20
     -356.209681
 30
        0.000000
 11
       93.000000
 21
     -356.209681
 31
        0.000000
  0
LINE
  8
LVL0000
 10
       90.000000
 20
     -356.463084
 30
        0.000000
 11
       93.000000
 21
     -356.463084
 31
        0.000000
  0
LINE
  8
LVL0000
 10
       90.000000
 20
     -356.753591
 30
        0.000000
 11
       93.000000
 21
     -356.753591
 31
        0.000000
  0
LINE
  8
LVL0000
 10
       90.000000
 20
     -357.080405
 30
        0.000000
 11
       93.000000
 21
     -357.080405
 31
        0.000000
  0
LINE
  8
LVL0000
 10
       90.000000
 20
     -357.442632
 30
        0.000000
 11
       93.000000
 21
     -357.442632
 31
        0.000000
  0
LINE
  8
LVL0000
 10
       90.000000
 20
     -357.839277
 30
        0.000000
 11
       93.000000
 21
     -357.839277
 31
        0.000000
  0
LINE
  8
LVL0000
 10
       90.000000
 20
     -358.269254
 30
        0.000000
 11
       93.000000
 21
     -358.269254
 31
        0.000000
  0
LINE
  8
LVL0000
 10
       90.000000
 20
     -358.731384
 30
        0.000000
 11
       93.000000
 21
     -358.731384
 31
        0.000000
  0
LINE
  8
LVL0000
 10
       90.000000
 20
     -359.224400
 30
        0.000000
 11
       93.000000
 21
     -359.224400
 31
        0.000000
  0
LINE
  8
LVL0000
 10
       90.000000
 20
     -359.746952
 30
        0.000000
 11
       93.000000
 21
     -359.746952
 31
        0.000000
  0
LINE
  8
LVL0000
 10
       90.000000
 20
     -360.297606
 30
        0.000000
 11
       93.000000
 21
     -360.297606
 31
        0.000000
  0
LINE
  8
LVL0000
 10
       90.000000
 20
     -360.874854
 30
        0.000000
 11
       93.000000
 21
     -360.874854
 31
        0.000000
  0
LINE
  8
LVL0000
 10
       90.000000
 20
     -361.477114
 30
        0.000000
 11
       93.000000
 21
     -361.477114
 31
        0.000000
  0
LINE
  8
LVL0000
 10
       90.000000
 20
     -362.102734
 30
        0.000000
 11
       93.000000
 21
     -362.102734
 31
        0.000000
  0
LINE
  8
LVL0000
 10
       90.000000
 20
     -362.750000
 30
        0.000000
 11
       93.000000
 21
     -362.750000
 31
        0.000000
  0
LINE
  8
LVL0000
 10
       90.000000
 20
     -363.417138
 30
        0.000000
 11
       93.000000
 21
     -363.417138
 31
        0.000000
  0
LINE
  8
LVL0000
 10
       90.000000
 20
     -364.102319
 30
        0.000000
 11
       93.000000
 21
     -364.102319
 31
        0.000000
  0
LINE
  8
LVL0000
 10
       90.000000
 20
     -364.803665
 30
        0.000000
 11
       93.000000
 21
     -364.803665
 31
        0.000000
  0
LINE
  8
LVL0000
 10
       90.000000
 20
     -365.519254
 30
        0.000000
 11
       93.000000
 21
     -365.519254
 31
        0.000000
  0
LINE
  8
LVL0000
 10
       90.000000
 20
     -366.247124
 30
        0.000000
 11
       93.000000
 21
     -366.247124
 31
        0.000000
  0
LINE
  8
LVL0000
 10
       90.000000
 20
     -366.985280
 30
        0.000000
 11
       93.000000
 21
     -366.985280
 31
        0.000000
  0
LINE
  8
LVL0000
 10
       90.000000
 20
     -367.731700
 30
        0.000000
 11
       93.000000
 21
     -367.731700
 31
        0.000000
  0
LINE
  8
LVL0000
 10
       90.000000
 20
     -368.484337
 30
        0.000000
 11
       93.000000
 21
     -368.484337
 31
        0.000000
  0
LINE
  8
LVL0000
 10
       90.000000
 20
     -369.241129
 30
        0.000000
 11
       93.000000
 21
     -369.241129
 31
        0.000000
  0
LINE
  8
LVL0000
 10
       90.000000
 20
     -383.246409
 30
        0.000000
 11
       93.000000
 21
     -383.246409
 31
        0.000000
  0
LINE
  8
LVL0000
 10
      129.000000
 20
     -384.750000
 30
        0.000000
 11
      129.000000
 21
     -381.250000
 31
        0.000000
  0
LINE
  8
LVL0000
 10
      129.000000
 20
     -355.250000
 30
        0.000000
 11
      129.000000
 21
     -358.750000
 31
        0.000000
  0
LINE
  8
LVL0000
 10
      129.000000
 20
     -355.250000
 30
        0.000000
 11
      129.394707
 21
     -355.288922
 31
        0.000000
  0
LINE
  8
LVL0000
 10
      129.000000
 20
     -358.750000
 30
        0.000000
 11
      129.394707
 21
     -358.711078
 31
        0.000000
  0
LINE
  8
LVL0000
 10
      129.000000
 20
     -384.750000
 30
        0.000000
 11
      129.394707
 21
     -384.711078
 31
        0.000000
  0
LINE
  8
LVL0000
 10
      129.000000
 20
     -381.250000
 30
        0.000000
 11
      129.394707
 21
     -381.288922
 31
        0.000000
  0
LINE
  8
LVL0000
 10
      128.200000
 20
     -385.000000
 30
        0.000000
 11
      128.200000
 21
     -353.000000
 31
        0.000000
  0
LINE
  8
LVL0000
 10
      129.000000
 20
     -384.900000
 30
        0.000000
 11
      128.200000
 21
     -384.900000
 31
        0.000000
  0
LINE
  8
LVL0000
 10
      129.000000
 20
     -353.100000
 30
        0.000000
 11
      128.200000
 21
     -353.100000
 31
        0.000000
  0
LINE
  8
LVL0000
 10
      129.000000
 20
     -384.900000
 30
        0.000000
 11
      129.000000
 21
     -353.100000
 31
        0.000000
  0
ARC
  8
LVL0000
 10
      130.679351
 20
     -370.000000
 30
        0.000000
 40
       40.000000
 50
      201.253814
 51
      201.536180
  0
ARC
  8
LVL0000
 10
       93.937005
 20
     -384.500000
 30
        0.000000
 40
        0.500000
 50
      201.536180
 51
      270.000000
  0
LINE
  8
LVL0000
 10
       93.400000
 20
     -384.500000
 30
        0.000000
 11
       93.400000
 21
     -356.000000
 31
        0.000000
  0
LINE
  8
LVL0000
 10
       93.000000
 20
     -356.500000
 30
        0.000000
 11
       93.400000
 21
     -356.500000
 31
        0.000000
  0
LINE
  8
LVL0000
 10
       93.000000
 20
     -383.500000
 30
        0.000000
 11
       93.400000
 21
     -383.500000
 31
        0.000000
  0
LINE
  8
LVL0000
 10
       96.390913
 20
     -356.733428
 30
        0.000000
 11
      128.200000
 21
     -356.733428
 31
        0.000000
  0
LINE
  8
LVL0000
 10
       94.790634
 20
     -353.000000
 30
        0.000000
 11
      128.200000
 21
     -353.000000
 31
        0.000000
  0
LINE
  8
LVL0000
 10
       93.937005
 20
     -385.000000
 30
        0.000000
 11
      128.200000
 21
     -385.000000
 31
        0.000000
  0
ARC
  8
LVL0000
 10
       94.790634
 20
     -353.500000
 30
        0.000000
 40
        0.500000
 50
       90.000000
 51
      155.309175
  0
LINE
  8
LVL0000
 10
       94.790634
 20
     -353.000000
 30
        0.000000
 11
       96.390913
 21
     -356.733428
 31
        0.000000
  0
ARC
  8
LVL0000
 10
       96.390913
 20
     -357.233428
 30
        0.000000
 40
        0.500000
 50
       90.000000
 51
      159.310546
  0
ARC
  8
LVL0000
 10
       97.280332
 20
     -384.500000
 30
        0.000000
 40
        0.500000
 50
      204.426036
 51
      270.000000
  0
LINE
  8
LVL0000
 10
       95.923158
 20
     -357.056776
 30
        0.000000
 11
       94.336346
 21
     -353.291139
 31
        0.000000
  0
ARC
  8
LVL0000
 10
      129.655698
 20
     -369.796143
 30
        0.000000
 40
       36.057949
 50
      159.310546
 51
      204.426036
  0
ARC
  8
LVL0000
 10
      130.679351
 20
     -370.000000
 30
        0.000000
 40
       40.000000
 50
      155.309175
 51
      158.746186
  0
LINE
  8
LVL0000
 10
       93.400000
 20
     -384.500000
 30
        0.000000
 11
       93.400000
 21
     -355.500000
 31
        0.000000
  0
CIRCLE
  8
LVL0000
 10
      100.700000
 20
     -360.000000
 30
        0.000000
 40
        1.000000
  0
CIRCLE
  8
LVL0000
 10
      100.700000
 20
     -380.000000
 30
        0.000000
 40
        1.000000
  0
CIRCLE
  8
LVL0000
 10
      100.700000
 20
     -380.000000
 30
        0.000000
 40
        1.500000
  0
CIRCLE
  8
LVL0000
 10
      100.700000
 20
     -360.000000
 30
        0.000000
 40
        1.500000
  0
CIRCLE
  8
LVL0000
 10
      100.700000
 20
     -370.000000
 30
        0.000000
 40
        1.100000
  0
ARC
  8
LVL0000
 10
      128.800000
 20
     -361.500000
 30
        0.000000
 40
        1.200000
 50
        0.000000
 51
       80.405930
  0
ARC
  8
LVL0000
 10
      128.800000
 20
     -379.500000
 30
        0.000000
 40
        1.200000
 50
      279.594070
 51
      360.000000
  0
ARC
  8
LVL0000
 10
      128.800000
 20
     -355.900000
 30
        0.000000
 40
        1.200000
 50
        0.000000
 51
       80.405930
  0
LINE
  8
LVL0000
 10
      130.000000
 20
     -382.100000
 30
        0.000000
 11
      130.000000
 21
     -355.900000
 31
        0.000000
  0
LINE
  8
LVL0000
 10
      130.000000
 20
     -363.000000
 30
        0.000000
 11
      130.000000
 21
     -377.000000
 31
        0.000000
  0
ARC
  8
LVL0000
 10
      129.341561
 20
     -381.899672
 30
        0.000000
 40
        0.600000
 50
       16.387689
 51
       85.000004
  0
ARC
  8
LVL0000
 10
      129.341561
 20
     -384.100328
 30
        0.000000
 40
        0.600000
 50
      275.000000
 51
      343.612316
  0
ARC
  8
LVL0000
 10
      125.600000
 20
     -383.000000
 30
        0.000000
 40
        4.500000
 50
      343.612316
 51
      376.387689
  0
ARC
  8
LVL0000
 10
      129.341561
 20
     -358.100328
 30
        0.000000
 40
        0.600000
 50
      274.999996
 51
      343.612311
  0
ARC
  8
LVL0000
 10
      129.341561
 20
     -355.899672
 30
        0.000000
 40
        0.600000
 50
       16.387684
 51
       85.000000
  0
ARC
  8
LVL0000
 10
      125.600000
 20
     -357.000000
 30
        0.000000
 40
        4.500000
 50
      343.612311
 51
      376.387684
  0
LINE
  8
LVL0000
 10
      130.800049
 20
     -363.000000
 30
        0.000000
 11
      130.000000
 21
     -363.000000
 31
        0.000000
  0
LINE
  8
LVL0000
 10
      130.800049
 20
     -377.000000
 30
        0.000000
 11
      130.000000
 21
     -377.000000
 31
        0.000000
  0
LINE
  8
LVL0000
 10
      130.800049
 20
     -377.349979
 30
        0.000000
 11
      130.800049
 21
     -362.650028
 31
        0.000000
  0
ARC
  8
LVL0000
 10
       -9.500000
 20
       80.800000
 30
        0.000000
 40
        1.200000
 50
       90.000000
 51
      170.405927
  0
ARC
  8
LVL0000
 10
        8.500000
 20
       80.800000
 30
        0.000000
 40
        1.200000
 50
        9.594068
 51
       90.000000
  0
ARC
  8
LVL0000
 10
        8.500000
 20
      -80.800000
 30
        0.000000
 40
        1.200000
 50
      270.000000
 51
      350.405932
  0
ARC
  8
LVL0000
 10
       -9.500000
 20
      -80.800000
 30
        0.000000
 40
        1.200000
 50
      189.594073
 51
      270.000000
  0
LINE
  8
LVL0000
 10
        0.400000
 20
       49.463068
 30
        0.000000
 11
        0.400000
 21
       45.686700
 31
        0.000000
  0
LINE
  8
LVL0000
 10
       -0.400000
 20
       49.463068
 30
        0.000000
 11
       -0.400000
 21
       45.686700
 31
        0.000000
  0
CIRCLE
  8
LVL0000
 10
        0.000000
 20
       50.700000
 30
        0.000000
 40
        1.100000
  0
CIRCLE
  8
LVL0000
 10
        0.000000
 20
       50.700000
 30
        0.000000
 40
        1.300000
  0
ARC
  8
LVL0000
 10
       11.899672
 20
       81.341561
 30
        0.000000
 40
        0.600000
 50
      106.387686
 51
      175.000001
  0
ARC
  8
LVL0000
 10
       14.100328
 20
       81.341561
 30
        0.000000
 40
        0.600000
 50
        4.999998
 51
       73.612314
  0
ARC
  8
LVL0000
 10
       13.000000
 20
       77.600000
 30
        0.000000
 40
        4.500000
 50
       73.612314
 51
      106.387686
  0
ARC
  8
LVL0000
 10
      -11.899672
 20
       81.341561
 30
        0.000000
 40
        0.600000
 50
        4.999994
 51
       73.612309
  0
ARC
  8
LVL0000
 10
      -14.100328
 20
       81.341561
 30
        0.000000
 40
        0.600000
 50
      106.387681
 51
      174.999997
  0
ARC
  8
LVL0000
 10
      -13.000000
 20
       77.600000
 30
        0.000000
 40
        4.500000
 50
       73.612309
 51
      106.387681
  0
LINE
  8
LVL0000
 10
      -14.500000
 20
       42.000000
 30
        0.000000
 11
       14.500000
 21
       42.000000
 31
        0.000000
  0
LINE
  8
LVL0000
 10
      -14.500000
 20
       45.000000
 30
        0.000000
 11
       14.500000
 21
       45.000000
 31
        0.000000
  0
LINE
  8
LVL0000
 10
       14.500000
 20
       42.000000
 30
        0.000000
 11
       14.500000
 21
       45.000000
 31
        0.000000
  0
LINE
  8
LVL0000
 10
      -14.500000
 20
       42.000000
 30
        0.000000
 11
      -14.500000
 21
       45.000000
 31
        0.000000
  0
LINE
  8
LVL0000
 10
       -0.758871
 20
       42.000000
 30
        0.000000
 11
       -0.758871
 21
       45.000000
 31
        0.000000
  0
LINE
  8
LVL0000
 10
       -1.515663
 20
       42.000000
 30
        0.000000
 11
       -1.515663
 21
       45.000000
 31
        0.000000
  0
LINE
  8
LVL0000
 10
       -2.268300
 20
       42.000000
 30
        0.000000
 11
       -2.268300
 21
       45.000000
 31
        0.000000
  0
LINE
  8
LVL0000
 10
       -3.014720
 20
       42.000000
 30
        0.000000
 11
       -3.014720
 21
       45.000000
 31
        0.000000
  0
LINE
  8
LVL0000
 10
       -3.752876
 20
       42.000000
 30
        0.000000
 11
       -3.752876
 21
       45.000000
 31
        0.000000
  0
LINE
  8
LVL0000
 10
       -4.480746
 20
       42.000000
 30
        0.000000
 11
       -4.480746
 21
       45.000000
 31
        0.000000
  0
LINE
  8
LVL0000
 10
       -5.196335
 20
       42.000000
 30
        0.000000
 11
       -5.196335
 21
       45.000000
 31
        0.000000
  0
LINE
  8
LVL0000
 10
       -5.897681
 20
       42.000000
 30
        0.000000
 11
       -5.897681
 21
       45.000000
 31
        0.000000
  0
LINE
  8
LVL0000
 10
       -6.582862
 20
       42.000000
 30
        0.000000
 11
       -6.582862
 21
       45.000000
 31
        0.000000
  0
LINE
  8
LVL0000
 10
       -7.250000
 20
       42.000000
 30
        0.000000
 11
       -7.250000
 21
       45.000000
 31
        0.000000
  0
LINE
  8
LVL0000
 10
       -7.897266
 20
       42.000000
 30
        0.000000
 11
       -7.897266
 21
       45.000000
 31
        0.000000
  0
LINE
  8
LVL0000
 10
       -8.522886
 20
       42.000000
 30
        0.000000
 11
       -8.522886
 21
       45.000000
 31
        0.000000
  0
LINE
  8
LVL0000
 10
       -9.125146
 20
       42.000000
 30
        0.000000
 11
       -9.125146
 21
       45.000000
 31
        0.000000
  0
LINE
  8
LVL0000
 10
       -9.702394
 20
       42.000000
 30
        0.000000
 11
       -9.702394
 21
       45.000000
 31
        0.000000
  0
LINE
  8
LVL0000
 10
      -10.253048
 20
       42.000000
 30
        0.000000
 11
      -10.253048
 21
       45.000000
 31
        0.000000
  0
LINE
  8
LVL0000
 10
      -10.775600
 20
       42.000000
 30
        0.000000
 11
      -10.775600
 21
       45.000000
 31
        0.000000
  0
LINE
  8
LVL0000
 10
      -11.268616
 20
       42.000000
 30
        0.000000
 11
      -11.268616
 21
       45.000000
 31
        0.000000
  0
LINE
  8
LVL0000
 10
      -11.730746
 20
       42.000000
 30
        0.000000
 11
      -11.730746
 21
       45.000000
 31
        0.000000
  0
LINE
  8
LVL0000
 10
      -12.160723
 20
       42.000000
 30
        0.000000
 11
      -12.160723
 21
       45.000000
 31
        0.000000
  0
LINE
  8
LVL0000
 10
      -12.557368
 20
       42.000000
 30
        0.000000
 11
      -12.557368
 21
       45.000000
 31
        0.000000
  0
LINE
  8
LVL0000
 10
      -12.919595
 20
       42.000000
 30
        0.000000
 11
      -12.919595
 21
       45.000000
 31
        0.000000
  0
LINE
  8
LVL0000
 10
      -13.246409
 20
       42.000000
 30
        0.000000
 11
      -13.246409
 21
       45.000000
 31
        0.000000
  0
LINE
  8
LVL0000
 10
      -13.536916
 20
       42.000000
 30
        0.000000
 11
      -13.536916
 21
       45.000000
 31
        0.000000
  0
LINE
  8
LVL0000
 10
      -13.790319
 20
       42.000000
 30
        0.000000
 11
      -13.790319
 21
       45.000000
 31
        0.000000
  0
LINE
  8
LVL0000
 10
      -14.005924
 20
       42.000000
 30
        0.000000
 11
      -14.005924
 21
       45.000000
 31
        0.000000
  0
LINE
  8
LVL0000
 10
      -14.183140
 20
       42.000000
 30
        0.000000
 11
      -14.183140
 21
       45.000000
 31
        0.000000
  0
LINE
  8
LVL0000
 10
      -14.321481
 20
       42.000000
 30
        0.000000
 11
      -14.321481
 21
       45.000000
 31
        0.000000
  0
LINE
  8
LVL0000
 10
      -14.420567
 20
       42.000000
 30
        0.000000
 11
      -14.420567
 21
       45.000000
 31
        0.000000
  0
LINE
  8
LVL0000
 10
      -14.480128
 20
       42.000000
 30
        0.000000
 11
      -14.480128
 21
       45.000000
 31
        0.000000
  0
LINE
  8
LVL0000
 10
        0.000000
 20
       42.000000
 30
        0.000000
 11
        0.000000
 21
       45.000000
 31
        0.000000
  0
LINE
  8
LVL0000
 10
       14.480128
 20
       42.000000
 30
        0.000000
 11
       14.480128
 21
       45.000000
 31
        0.000000
  0
LINE
  8
LVL0000
 10
       14.420567
 20
       42.000000
 30
        0.000000
 11
       14.420567
 21
       45.000000
 31
        0.000000
  0
LINE
  8
LVL0000
 10
       14.321481
 20
       42.000000
 30
        0.000000
 11
       14.321481
 21
       45.000000
 31
        0.000000
  0
LINE
  8
LVL0000
 10
       14.183140
 20
       42.000000
 30
        0.000000
 11
       14.183140
 21
       45.000000
 31
        0.000000
  0
LINE
  8
LVL0000
 10
       14.005924
 20
       42.000000
 30
        0.000000
 11
       14.005924
 21
       45.000000
 31
        0.000000
  0
LINE
  8
LVL0000
 10
       13.790319
 20
       42.000000
 30
        0.000000
 11
       13.790319
 21
       45.000000
 31
        0.000000
  0
LINE
  8
LVL0000
 10
       13.536916
 20
       42.000000
 30
        0.000000
 11
       13.536916
 21
       45.000000
 31
        0.000000
  0
LINE
  8
LVL0000
 10
       13.246409
 20
       42.000000
 30
        0.000000
 11
       13.246409
 21
       45.000000
 31
        0.000000
  0
LINE
  8
LVL0000
 10
       12.919595
 20
       42.000000
 30
        0.000000
 11
       12.919595
 21
       45.000000
 31
        0.000000
  0
LINE
  8
LVL0000
 10
       12.557368
 20
       42.000000
 30
        0.000000
 11
       12.557368
 21
       45.000000
 31
        0.000000
  0
LINE
  8
LVL0000
 10
       12.160723
 20
       42.000000
 30
        0.000000
 11
       12.160723
 21
       45.000000
 31
        0.000000
  0
LINE
  8
LVL0000
 10
       11.730746
 20
       42.000000
 30
        0.000000
 11
       11.730746
 21
       45.000000
 31
        0.000000
  0
LINE
  8
LVL0000
 10
       11.268616
 20
       42.000000
 30
        0.000000
 11
       11.268616
 21
       45.000000
 31
        0.000000
  0
LINE
  8
LVL0000
 10
       10.775600
 20
       42.000000
 30
        0.000000
 11
       10.775600
 21
       45.000000
 31
        0.000000
  0
LINE
  8
LVL0000
 10
       10.253048
 20
       42.000000
 30
        0.000000
 11
       10.253048
 21
       45.000000
 31
        0.000000
  0
LINE
  8
LVL0000
 10
        9.702394
 20
       42.000000
 30
        0.000000
 11
        9.702394
 21
       45.000000
 31
        0.000000
  0
LINE
  8
LVL0000
 10
        9.125146
 20
       42.000000
 30
        0.000000
 11
        9.125146
 21
       45.000000
 31
        0.000000
  0
LINE
  8
LVL0000
 10
        8.522886
 20
       42.000000
 30
        0.000000
 11
        8.522886
 21
       45.000000
 31
        0.000000
  0
LINE
  8
LVL0000
 10
        7.897266
 20
       42.000000
 30
        0.000000
 11
        7.897266
 21
       45.000000
 31
        0.000000
  0
LINE
  8
LVL0000
 10
        7.250000
 20
       42.000000
 30
        0.000000
 11
        7.250000
 21
       45.000000
 31
        0.000000
  0
LINE
  8
LVL0000
 10
        6.582862
 20
       42.000000
 30
        0.000000
 11
        6.582862
 21
       45.000000
 31
        0.000000
  0
LINE
  8
LVL0000
 10
        5.897681
 20
       42.000000
 30
        0.000000
 11
        5.897681
 21
       45.000000
 31
        0.000000
  0
LINE
  8
LVL0000
 10
        5.196335
 20
       42.000000
 30
        0.000000
 11
        5.196335
 21
       45.000000
 31
        0.000000
  0
LINE
  8
LVL0000
 10
        4.480746
 20
       42.000000
 30
        0.000000
 11
        4.480746
 21
       45.000000
 31
        0.000000
  0
LINE
  8
LVL0000
 10
        3.752876
 20
       42.000000
 30
        0.000000
 11
        3.752876
 21
       45.000000
 31
        0.000000
  0
LINE
  8
LVL0000
 10
        3.014720
 20
       42.000000
 30
        0.000000
 11
        3.014720
 21
       45.000000
 31
        0.000000
  0
LINE
  8
LVL0000
 10
        2.268300
 20
       42.000000
 30
        0.000000
 11
        2.268300
 21
       45.000000
 31
        0.000000
  0
LINE
  8
LVL0000
 10
        1.515663
 20
       42.000000
 30
        0.000000
 11
        1.515663
 21
       45.000000
 31
        0.000000
  0
LINE
  8
LVL0000
 10
        0.758871
 20
       42.000000
 30
        0.000000
 11
        0.758871
 21
       45.000000
 31
        0.000000
  0
ARC
  8
LVL0000
 10
      -14.750000
 20
       79.950000
 30
        0.000000
 40
        0.250000
 50
       90.000000
 51
      179.999995
  0
LINE
  8
LVL0000
 10
      -15.000000
 20
       79.950000
 30
        0.000000
 11
      -15.000000
 21
       79.200000
 31
        0.000000
  0
ARC
  8
LVL0000
 10
       14.750000
 20
       79.950000
 30
        0.000000
 40
        0.250000
 50
        0.000000
 51
       90.000000
  0
LINE
  8
LVL0000
 10
       14.750000
 20
       80.200000
 30
        0.000000
 11
      -14.750000
 21
       80.200000
 31
        0.000000
  0
LINE
  8
LVL0000
 10
       15.000000
 20
       79.950000
 30
        0.000000
 11
       15.000000
 21
       79.200000
 31
        0.000000
  0
LINE
  8
LVL0000
 10
       15.000000
 20
       45.937005
 30
        0.000000
 11
       15.000000
 21
       79.200000
 31
        0.000000
  0
LINE
  8
LVL0000
 10
      -15.000000
 20
       45.937005
 30
        0.000000
 11
      -15.000000
 21
       79.200000
 31
        0.000000
  0
ARC
  8
LVL0000
 10
        0.000000
 20
       80.746303
 30
        0.000000
 40
       35.147952
 50
      245.260387
 51
      294.739618
  0
ARC
  8
LVL0000
 10
       14.500000
 20
       49.278373
 30
        0.000000
 40
        0.500000
 50
      294.739618
 51
      360.000000
  0
ARC
  8
LVL0000
 10
      -14.500000
 20
       49.278373
 30
        0.000000
 40
        0.500000
 50
      179.999995
 51
      245.260387
  0
ARC
  8
LVL0000
 10
       14.500000
 20
       45.937005
 30
        0.000000
 40
        0.500000
 50
      291.536178
 51
      360.000000
  0
ARC
  8
LVL0000
 10
      -14.500000
 20
       45.937005
 30
        0.000000
 40
        0.500000
 50
      179.999995
 51
      248.463827
  0
ARC
  8
LVL0000
 10
        0.000000
 20
       82.679351
 30
        0.000000
 40
       40.000000
 50
      291.253811
 51
      291.536178
  0
LINE
  8
LVL0000
 10
      -14.500000
 20
       45.400000
 30
        0.000000
 11
       14.500000
 21
       45.400000
 31
        0.000000
  0
ARC
  8
LVL0000
 10
        0.000000
 20
       82.679351
 30
        0.000000
 40
       40.000000
 50
      248.463827
 51
      248.746194
  0
LINE
  8
LVL0000
 10
      -14.900000
 20
       81.000000
 30
        0.000000
 11
       14.900000
 21
       81.000000
 31
        0.000000
  0
LINE
  8
LVL0000
 10
      -14.900000
 20
       81.000000
 30
        0.000000
 11
      -14.900000
 21
       80.200000
 31
        0.000000
  0
LINE
  8
LVL0000
 10
       14.900000
 20
       81.000000
 30
        0.000000
 11
       14.900000
 21
       80.200000
 31
        0.000000
  0
LINE
  8
LVL0000
 10
       11.250000
 20
       81.000000
 30
        0.000000
 11
       11.301955
 21
       81.393854
 31
        0.000000
  0
LINE
  8
LVL0000
 10
       14.750000
 20
       81.000000
 30
        0.000000
 11
       14.698045
 21
       81.393854
 31
        0.000000
  0
LINE
  8
LVL0000
 10
       14.750000
 20
       81.000000
 30
        0.000000
 11
       11.250000
 21
       81.000000
 31
        0.000000
  0
LINE
  8
LVL0000
 10
      -11.250000
 20
       81.000000
 30
        0.000000
 11
      -11.301955
 21
       81.393854
 31
        0.000000
  0
LINE
  8
LVL0000
 10
      -14.750000
 20
       81.000000
 30
        0.000000
 11
      -14.698045
 21
       81.393854
 31
        0.000000
  0
LINE
  8
LVL0000
 10
      -14.750000
 20
       81.000000
 30
        0.000000
 11
      -11.250000
 21
       81.000000
 31
        0.000000
  0
LINE
  8
LVL0000
 10
        6.499996
 20
       88.300049
 30
        0.000000
 11
        6.500004
 21
       82.800049
 31
        0.000000
  0
LINE
  8
LVL0000
 10
        6.499996
 20
       88.300049
 30
        0.000000
 11
       -6.500004
 21
       88.300049
 31
        0.000000
  0
LINE
  8
LVL0000
 10
       -6.500004
 20
       88.300049
 30
        0.000000
 11
       -6.500004
 21
       82.800049
 31
        0.000000
  0
LINE
  8
LVL0000
 10
        5.999996
 20
       88.300049
 30
        0.000000
 11
        6.000003
 21
       83.600049
 31
        0.000000
  0
LINE
  8
LVL0000
 10
       -6.000004
 20
       88.300049
 30
        0.000000
 11
       -6.000003
 21
       83.600049
 31
        0.000000
  0
LINE
  8
LVL0000
 10
        6.500003
 20
       83.600049
 30
        0.000000
 11
       -6.500004
 21
       83.600049
 31
        0.000000
  0
LINE
  8
LVL0000
 10
       -6.000003
 20
       83.600049
 30
        0.000000
 11
       -6.500004
 21
       82.800049
 31
        0.000000
  0
LINE
  8
LVL0000
 10
        6.000003
 20
       83.600049
 30
        0.000000
 11
        6.500004
 21
       82.800049
 31
        0.000000
  0
LINE
  8
LVL0000
 10
        7.000000
 20
       82.800049
 30
        0.000000
 11
        7.000000
 21
       82.000000
 31
        0.000000
  0
LINE
  8
LVL0000
 10
       -7.000000
 20
       82.800049
 30
        0.000000
 11
       -7.000000
 21
       82.000000
 31
        0.000000
  0
LINE
  8
LVL0000
 10
        7.000000
 20
       82.800049
 30
        0.000000
 11
       -7.000000
 21
       82.800049
 31
        0.000000
  0
LINE
  8
LVL0000
 10
        7.000000
 20
       82.000000
 30
        0.000000
 11
       -7.000000
 21
       82.000000
 31
        0.000000
  0
LINE
  8
LVL0000
 10
      -12.100000
 20
       82.000000
 30
        0.000000
 11
       12.300000
 21
       82.000000
 31
        0.000000
  0
LINE
  8
LVL0000
 10
      -14.750000
 20
      -81.000000
 30
        0.000000
 11
      -11.250000
 21
      -81.000000
 31
        0.000000
  0
LINE
  8
LVL0000
 10
      -14.750000
 20
      -81.000000
 30
        0.000000
 11
      -14.698045
 21
      -81.393854
 31
        0.000000
  0
LINE
  8
LVL0000
 10
      -11.250000
 20
      -81.000000
 30
        0.000000
 11
      -11.301955
 21
      -81.393854
 31
        0.000000
  0
LINE
  8
LVL0000
 10
       14.750000
 20
      -81.000000
 30
        0.000000
 11
       11.250000
 21
      -81.000000
 31
        0.000000
  0
LINE
  8
LVL0000
 10
       14.750000
 20
      -81.000000
 30
        0.000000
 11
       14.698045
 21
      -81.393854
 31
        0.000000
  0
LINE
  8
LVL0000
 10
       11.250000
 20
      -81.000000
 30
        0.000000
 11
       11.301955
 21
      -81.393854
 31
        0.000000
  0
LINE
  8
LVL0000
 10
       14.900000
 20
      -81.000000
 30
        0.000000
 11
       14.900000
 21
      -80.200000
 31
        0.000000
  0
LINE
  8
LVL0000
 10
      -14.900000
 20
      -81.000000
 30
        0.000000
 11
      -14.900000
 21
      -80.200000
 31
        0.000000
  0
LINE
  8
LVL0000
 10
      -14.900000
 20
      -81.000000
 30
        0.000000
 11
       14.900000
 21
      -81.000000
 31
        0.000000
  0
ARC
  8
LVL0000
 10
        0.000000
 20
      -82.679351
 30
        0.000000
 40
       40.000000
 50
      111.253806
 51
      111.536173
  0
LINE
  8
LVL0000
 10
      -14.500000
 20
      -45.400000
 30
        0.000000
 11
       14.500000
 21
      -45.400000
 31
        0.000000
  0
ARC
  8
LVL0000
 10
        0.000000
 20
      -82.679351
 30
        0.000000
 40
       40.000000
 50
       68.463822
 51
       68.746189
  0
ARC
  8
LVL0000
 10
      -14.500000
 20
      -45.937005
 30
        0.000000
 40
        0.500000
 50
      111.536173
 51
      179.999995
  0
ARC
  8
LVL0000
 10
       14.500000
 20
      -45.937005
 30
        0.000000
 40
        0.500000
 50
        0.000000
 51
       68.463822
  0
CIRCLE
  8
LVL0000
 10
      -10.000000
 20
      -52.700000
 30
        0.000000
 40
        1.000000
  0
CIRCLE
  8
LVL0000
 10
       10.000000
 20
      -52.700000
 30
        0.000000
 40
        1.000000
  0
ARC
  8
LVL0000
 10
      -14.500000
 20
      -49.278373
 30
        0.000000
 40
        0.500000
 50
      114.739613
 51
      179.999995
  0
ARC
  8
LVL0000
 10
       14.500000
 20
      -49.278373
 30
        0.000000
 40
        0.500000
 50
        0.000000
 51
       65.260382
  0
ARC
  8
LVL0000
 10
        0.000000
 20
      -80.746303
 30
        0.000000
 40
       35.147952
 50
       65.260382
 51
      114.739613
  0
CIRCLE
  8
LVL0000
 10
       10.000000
 20
      -52.700000
 30
        0.000000
 40
        1.500000
  0
CIRCLE
  8
LVL0000
 10
      -10.000000
 20
      -52.700000
 30
        0.000000
 40
        1.500000
  0
CIRCLE
  8
LVL0000
 10
        0.000000
 20
      -52.700000
 30
        0.000000
 40
        1.100000
  0
LINE
  8
LVL0000
 10
      -15.000000
 20
      -45.937005
 30
        0.000000
 11
      -15.000000
 21
      -79.200000
 31
        0.000000
  0
LINE
  8
LVL0000
 10
       15.000000
 20
      -45.937005
 30
        0.000000
 11
       15.000000
 21
      -79.200000
 31
        0.000000
  0
LINE
  8
LVL0000
 10
       15.000000
 20
      -79.950000
 30
        0.000000
 11
       15.000000
 21
      -79.200000
 31
        0.000000
  0
LINE
  8
LVL0000
 10
       14.750000
 20
      -80.200000
 30
        0.000000
 11
      -14.750000
 21
      -80.200000
 31
        0.000000
  0
ARC
  8
LVL0000
 10
       14.750000
 20
      -79.950000
 30
        0.000000
 40
        0.250000
 50
      270.000000
 51
      360.000000
  0
LINE
  8
LVL0000
 10
      -15.000000
 20
      -79.950000
 30
        0.000000
 11
      -15.000000
 21
      -79.200000
 31
        0.000000
  0
ARC
  8
LVL0000
 10
      -14.750000
 20
      -79.950000
 30
        0.000000
 40
        0.250000
 50
      179.999995
 51
      270.000000
  0
LINE
  8
LVL0000
 10
        0.758871
 20
      -42.000000
 30
        0.000000
 11
        0.758871
 21
      -45.000000
 31
        0.000000
  0
LINE
  8
LVL0000
 10
        1.515663
 20
      -42.000000
 30
        0.000000
 11
        1.515663
 21
      -45.000000
 31
        0.000000
  0
LINE
  8
LVL0000
 10
        2.268300
 20
      -42.000000
 30
        0.000000
 11
        2.268300
 21
      -45.000000
 31
        0.000000
  0
LINE
  8
LVL0000
 10
        3.014720
 20
      -42.000000
 30
        0.000000
 11
        3.014720
 21
      -45.000000
 31
        0.000000
  0
LINE
  8
LVL0000
 10
        3.752876
 20
      -42.000000
 30
        0.000000
 11
        3.752876
 21
      -45.000000
 31
        0.000000
  0
LINE
  8
LVL0000
 10
        4.480746
 20
      -42.000000
 30
        0.000000
 11
        4.480746
 21
      -45.000000
 31
        0.000000
  0
LINE
  8
LVL0000
 10
        5.196335
 20
      -42.000000
 30
        0.000000
 11
        5.196335
 21
      -45.000000
 31
        0.000000
  0
LINE
  8
LVL0000
 10
        5.897681
 20
      -42.000000
 30
        0.000000
 11
        5.897681
 21
      -45.000000
 31
        0.000000
  0
LINE
  8
LVL0000
 10
        6.582862
 20
      -42.000000
 30
        0.000000
 11
        6.582862
 21
      -45.000000
 31
        0.000000
  0
LINE
  8
LVL0000
 10
        7.250000
 20
      -42.000000
 30
        0.000000
 11
        7.250000
 21
      -45.000000
 31
        0.000000
  0
LINE
  8
LVL0000
 10
        7.897266
 20
      -42.000000
 30
        0.000000
 11
        7.897266
 21
      -45.000000
 31
        0.000000
  0
LINE
  8
LVL0000
 10
        8.522886
 20
      -42.000000
 30
        0.000000
 11
        8.522886
 21
      -45.000000
 31
        0.000000
  0
LINE
  8
LVL0000
 10
        9.125146
 20
      -42.000000
 30
        0.000000
 11
        9.125146
 21
      -45.000000
 31
        0.000000
  0
LINE
  8
LVL0000
 10
        9.702394
 20
      -42.000000
 30
        0.000000
 11
        9.702394
 21
      -45.000000
 31
        0.000000
  0
LINE
  8
LVL0000
 10
       10.253048
 20
      -42.000000
 30
        0.000000
 11
       10.253048
 21
      -45.000000
 31
        0.000000
  0
LINE
  8
LVL0000
 10
       10.775600
 20
      -42.000000
 30
        0.000000
 11
       10.775600
 21
      -45.000000
 31
        0.000000
  0
LINE
  8
LVL0000
 10
       11.268616
 20
      -42.000000
 30
        0.000000
 11
       11.268616
 21
      -45.000000
 31
        0.000000
  0
LINE
  8
LVL0000
 10
       11.730746
 20
      -42.000000
 30
        0.000000
 11
       11.730746
 21
      -45.000000
 31
        0.000000
  0
LINE
  8
LVL0000
 10
       12.160723
 20
      -42.000000
 30
        0.000000
 11
       12.160723
 21
      -45.000000
 31
        0.000000
  0
LINE
  8
LVL0000
 10
       12.557368
 20
      -42.000000
 30
        0.000000
 11
       12.557368
 21
      -45.000000
 31
        0.000000
  0
LINE
  8
LVL0000
 10
       12.919595
 20
      -42.000000
 30
        0.000000
 11
       12.919595
 21
      -45.000000
 31
        0.000000
  0
LINE
  8
LVL0000
 10
       13.246409
 20
      -42.000000
 30
        0.000000
 11
       13.246409
 21
      -45.000000
 31
        0.000000
  0
LINE
  8
LVL0000
 10
       13.536916
 20
      -42.000000
 30
        0.000000
 11
       13.536916
 21
      -45.000000
 31
        0.000000
  0
LINE
  8
LVL0000
 10
       13.790319
 20
      -42.000000
 30
        0.000000
 11
       13.790319
 21
      -45.000000
 31
        0.000000
  0
LINE
  8
LVL0000
 10
       14.005924
 20
      -42.000000
 30
        0.000000
 11
       14.005924
 21
      -45.000000
 31
        0.000000
  0
LINE
  8
LVL0000
 10
       14.183140
 20
      -42.000000
 30
        0.000000
 11
       14.183140
 21
      -45.000000
 31
        0.000000
  0
LINE
  8
LVL0000
 10
       14.321481
 20
      -42.000000
 30
        0.000000
 11
       14.321481
 21
      -45.000000
 31
        0.000000
  0
LINE
  8
LVL0000
 10
       14.420567
 20
      -42.000000
 30
        0.000000
 11
       14.420567
 21
      -45.000000
 31
        0.000000
  0
LINE
  8
LVL0000
 10
       14.480128
 20
      -42.000000
 30
        0.000000
 11
       14.480128
 21
      -45.000000
 31
        0.000000
  0
LINE
  8
LVL0000
 10
        0.000000
 20
      -42.000000
 30
        0.000000
 11
        0.000000
 21
      -45.000000
 31
        0.000000
  0
LINE
  8
LVL0000
 10
      -14.480128
 20
      -42.000000
 30
        0.000000
 11
      -14.480128
 21
      -45.000000
 31
        0.000000
  0
LINE
  8
LVL0000
 10
      -14.420567
 20
      -42.000000
 30
        0.000000
 11
      -14.420567
 21
      -45.000000
 31
        0.000000
  0
LINE
  8
LVL0000
 10
      -14.321481
 20
      -42.000000
 30
        0.000000
 11
      -14.321481
 21
      -45.000000
 31
        0.000000
  0
LINE
  8
LVL0000
 10
      -14.183140
 20
      -42.000000
 30
        0.000000
 11
      -14.183140
 21
      -45.000000
 31
        0.000000
  0
LINE
  8
LVL0000
 10
      -14.005924
 20
      -42.000000
 30
        0.000000
 11
      -14.005924
 21
      -45.000000
 31
        0.000000
  0
LINE
  8
LVL0000
 10
      -13.790319
 20
      -42.000000
 30
        0.000000
 11
      -13.790319
 21
      -45.000000
 31
        0.000000
  0
LINE
  8
LVL0000
 10
      -13.536916
 20
      -42.000000
 30
        0.000000
 11
      -13.536916
 21
      -45.000000
 31
        0.000000
  0
LINE
  8
LVL0000
 10
      -13.246409
 20
      -42.000000
 30
        0.000000
 11
      -13.246409
 21
      -45.000000
 31
        0.000000
  0
LINE
  8
LVL0000
 10
      -12.919595
 20
      -42.000000
 30
        0.000000
 11
      -12.919595
 21
      -45.000000
 31
        0.000000
  0
LINE
  8
LVL0000
 10
      -12.557368
 20
      -42.000000
 30
        0.000000
 11
      -12.557368
 21
      -45.000000
 31
        0.000000
  0
LINE
  8
LVL0000
 10
      -12.160723
 20
      -42.000000
 30
        0.000000
 11
      -12.160723
 21
      -45.000000
 31
        0.000000
  0
LINE
  8
LVL0000
 10
      -11.730746
 20
      -42.000000
 30
        0.000000
 11
      -11.730746
 21
      -45.000000
 31
        0.000000
  0
LINE
  8
LVL0000
 10
      -11.268616
 20
      -42.000000
 30
        0.000000
 11
      -11.268616
 21
      -45.000000
 31
        0.000000
  0
LINE
  8
LVL0000
 10
      -10.775600
 20
      -42.000000
 30
        0.000000
 11
      -10.775600
 21
      -45.000000
 31
        0.000000
  0
LINE
  8
LVL0000
 10
      -10.253048
 20
      -42.000000
 30
        0.000000
 11
      -10.253048
 21
      -45.000000
 31
        0.000000
  0
LINE
  8
LVL0000
 10
       -9.702394
 20
      -42.000000
 30
        0.000000
 11
       -9.702394
 21
      -45.000000
 31
        0.000000
  0
LINE
  8
LVL0000
 10
       -9.125146
 20
      -42.000000
 30
        0.000000
 11
       -9.125146
 21
      -45.000000
 31
        0.000000
  0
LINE
  8
LVL0000
 10
       -8.522886
 20
      -42.000000
 30
        0.000000
 11
       -8.522886
 21
      -45.000000
 31
        0.000000
  0
LINE
  8
LVL0000
 10
       -7.897266
 20
      -42.000000
 30
        0.000000
 11
       -7.897266
 21
      -45.000000
 31
        0.000000
  0
LINE
  8
LVL0000
 10
       -7.250000
 20
      -42.000000
 30
        0.000000
 11
       -7.250000
 21
      -45.000000
 31
        0.000000
  0
LINE
  8
LVL0000
 10
       -6.582862
 20
      -42.000000
 30
        0.000000
 11
       -6.582862
 21
      -45.000000
 31
        0.000000
  0
LINE
  8
LVL0000
 10
       -5.897681
 20
      -42.000000
 30
        0.000000
 11
       -5.897681
 21
      -45.000000
 31
        0.000000
  0
LINE
  8
LVL0000
 10
       -5.196335
 20
      -42.000000
 30
        0.000000
 11
       -5.196335
 21
      -45.000000
 31
        0.000000
  0
LINE
  8
LVL0000
 10
       -4.480746
 20
      -42.000000
 30
        0.000000
 11
       -4.480746
 21
      -45.000000
 31
        0.000000
  0
LINE
  8
LVL0000
 10
       -3.752876
 20
      -42.000000
 30
        0.000000
 11
       -3.752876
 21
      -45.000000
 31
        0.000000
  0
LINE
  8
LVL0000
 10
       -3.014720
 20
      -42.000000
 30
        0.000000
 11
       -3.014720
 21
      -45.000000
 31
        0.000000
  0
LINE
  8
LVL0000
 10
       -2.268300
 20
      -42.000000
 30
        0.000000
 11
       -2.268300
 21
      -45.000000
 31
        0.000000
  0
LINE
  8
LVL0000
 10
       -1.515663
 20
      -42.000000
 30
        0.000000
 11
       -1.515663
 21
      -45.000000
 31
        0.000000
  0
LINE
  8
LVL0000
 10
       -0.758871
 20
      -42.000000
 30
        0.000000
 11
       -0.758871
 21
      -45.000000
 31
        0.000000
  0
LINE
  8
LVL0000
 10
      -14.500000
 20
      -42.000000
 30
        0.000000
 11
      -14.500000
 21
      -45.000000
 31
        0.000000
  0
LINE
  8
LVL0000
 10
       14.500000
 20
      -42.000000
 30
        0.000000
 11
       14.500000
 21
      -45.000000
 31
        0.000000
  0
LINE
  8
LVL0000
 10
      -14.500000
 20
      -45.000000
 30
        0.000000
 11
       14.500000
 21
      -45.000000
 31
        0.000000
  0
LINE
  8
LVL0000
 10
      -14.500000
 20
      -42.000000
 30
        0.000000
 11
       14.500000
 21
      -42.000000
 31
        0.000000
  0
TEXT
  8
LVL0000
 62
  2
 10
       44.456698
 20
       48.890453
 30
        0.000000
 40
        4.000000
  1
IVC30C5
 50
        0.000000
 41
        0.835000
 51
        0.000000
  7
STANDARD
  0
TEXT
  8
LVL0000
 62
  2
 10
      134.739318
 20
      -30.591038
 30
        0.000000
 40
        3.500000
  1
IVS30KC7=7000(for only IVS30C1)
 50
        0.000000
 41
        0.835000
 51
        0.000000
  7
STANDARD
  0
INSERT
  8
LVL0000
 62
  2
  2
BLK0001
 10
        0.000000
 20
        0.000000
  0
LINE
  8
LVL0000
 10
      173.300053
 20
     -366.500004
 30
        0.000000
 11
      208.727713
 21
     -366.500004
 31
        0.000000
  0
LINE
  8
LVL0000
 10
      173.300053
 20
     -373.500004
 30
        0.000000
 11
      207.618908
 21
     -373.500004
 31
        0.000000
  0
LINE
  8
LVL0000
 10
      150.700073
 20
     -376.750004
 30
        0.000000
 11
      147.200073
 21
     -376.099979
 31
        0.000000
  0
LINE
  8
LVL0000
 10
      147.200073
 20
     -363.900028
 30
        0.000000
 11
      150.700073
 21
     -363.250004
 31
        0.000000
  0
LINE
  8
LVL0000
 10
      147.200073
 20
     -376.099979
 30
        0.000000
 11
      147.200073
 21
     -363.900028
 31
        0.000000
  0
LINE
  8
LVL0000
 10
      160.800053
 20
     -376.750004
 30
        0.000000
 11
      160.800053
 21
     -363.250004
 31
        0.000000
  0
LINE
  8
LVL0000
 10
      173.300053
 20
     -374.500004
 30
        0.000000
 11
      173.300053
 21
     -365.500004
 31
        0.000000
  0
LINE
  8
LVL0000
 10
      150.700073
 20
     -376.750004
 30
        0.000000
 11
      150.700073
 21
     -363.250004
 31
        0.000000
  0
LINE
  8
LVL0000
 10
      150.700073
 20
     -363.250004
 30
        0.000000
 11
      160.800053
 21
     -363.250004
 31
        0.000000
  0
LINE
  8
LVL0000
 10
      150.700073
 20
     -376.750004
 30
        0.000000
 11
      160.800053
 21
     -376.750004
 31
        0.000000
  0
LINE
  8
LVL0000
 10
      144.000000
 20
     -377.000004
 30
        0.000000
 11
      144.000000
 21
     -363.000004
 31
        0.000000
  0
LINE
  8
LVL0000
 10
      144.800049
 20
     -363.900028
 30
        0.000000
 11
      147.200073
 21
     -363.900028
 31
        0.000000
  0
LINE
  8
LVL0000
 10
      144.800049
 20
     -376.099979
 30
        0.000000
 11
      147.200073
 21
     -376.099979
 31
        0.000000
  0
LINE
  8
LVL0000
 10
      144.800049
 20
     -376.099979
 30
        0.000000
 11
      144.800049
 21
     -363.900028
 31
        0.000000
  0
LINE
  8
LVL0000
 10
      144.800049
 20
     -376.099979
 30
        0.000000
 11
      144.000000
 21
     -377.000004
 31
        0.000000
  0
LINE
  8
LVL0000
 10
      144.800049
 20
     -363.900028
 30
        0.000000
 11
      144.000000
 21
     -363.000004
 31
        0.000000
  0
LINE
  8
LVL0000
 10
      173.300053
 20
     -374.500004
 30
        0.000000
 11
      160.800053
 21
     -376.150028
 31
        0.000000
  0
LINE
  8
LVL0000
 10
      173.300053
 20
     -365.500004
 30
        0.000000
 11
      160.800053
 21
     -363.849979
 31
        0.000000
  0
LINE
  8
LVL0000
 10
      138.200073
 20
     -363.000004
 30
        0.000000
 11
      144.000000
 21
     -363.000004
 31
        0.000000
  0
LINE
  8
LVL0000
 10
      138.200073
 20
     -377.000004
 30
        0.000000
 11
      144.000000
 21
     -377.000004
 31
        0.000000
  0
LINE
  8
LVL0000
 10
      130.800049
 20
     -362.650028
 30
        0.000000
 11
      138.200073
 21
     -362.650028
 31
        0.000000
  0
LINE
  8
LVL0000
 10
      130.800049
 20
     -377.349979
 30
        0.000000
 11
      138.200073
 21
     -377.349979
 31
        0.000000
  0
LINE
  8
LVL0000
 10
      138.200073
 20
     -377.349979
 30
        0.000000
 11
      138.200073
 21
     -362.650028
 31
        0.000000
  0
LINE
  8
LVL0000
 10
      130.800049
 20
     -376.349979
 30
        0.000000
 11
      138.200073
 21
     -376.349979
 31
        0.000000
  0
LINE
  8
LVL0000
 10
      130.800049
 20
     -375.349979
 30
        0.000000
 11
      138.200073
 21
     -375.349979
 31
        0.000000
  0
LINE
  8
LVL0000
 10
      130.800049
 20
     -374.349979
 30
        0.000000
 11
      138.200073
 21
     -374.349979
 31
        0.000000
  0
LINE
  8
LVL0000
 10
      130.800049
 20
     -373.349979
 30
        0.000000
 11
      138.200073
 21
     -373.349979
 31
        0.000000
  0
LINE
  8
LVL0000
 10
      130.800049
 20
     -372.349979
 30
        0.000000
 11
      138.200073
 21
     -372.349979
 31
        0.000000
  0
LINE
  8
LVL0000
 10
      130.800049
 20
     -371.349979
 30
        0.000000
 11
      138.200073
 21
     -371.349979
 31
        0.000000
  0
LINE
  8
LVL0000
 10
      130.800049
 20
     -370.349979
 30
        0.000000
 11
      138.200073
 21
     -370.349979
 31
        0.000000
  0
LINE
  8
LVL0000
 10
      130.800049
 20
     -369.349979
 30
        0.000000
 11
      138.200073
 21
     -369.349979
 31
        0.000000
  0
LINE
  8
LVL0000
 10
      130.800049
 20
     -368.349979
 30
        0.000000
 11
      138.200073
 21
     -368.349979
 31
        0.000000
  0
LINE
  8
LVL0000
 10
      130.800049
 20
     -367.349979
 30
        0.000000
 11
      138.200073
 21
     -367.349979
 31
        0.000000
  0
LINE
  8
LVL0000
 10
      130.800049
 20
     -366.349979
 30
        0.000000
 11
      138.200073
 21
     -366.349979
 31
        0.000000
  0
LINE
  8
LVL0000
 10
      130.800049
 20
     -365.349979
 30
        0.000000
 11
      138.200073
 21
     -365.349979
 31
        0.000000
  0
LINE
  8
LVL0000
 10
      130.800049
 20
     -364.349979
 30
        0.000000
 11
      138.200073
 21
     -364.349979
 31
        0.000000
  0
LINE
  8
LVL0000
 10
      130.800049
 20
     -363.349979
 30
        0.000000
 11
      138.200073
 21
     -363.349979
 31
        0.000000
  0
LINE
  8
LVL0000
 10
      130.800049
 20
     -263.349979
 30
        0.000000
 11
      138.200073
 21
     -263.349979
 31
        0.000000
  0
LINE
  8
LVL0000
 10
      130.800049
 20
     -264.349979
 30
        0.000000
 11
      138.200073
 21
     -264.349979
 31
        0.000000
  0
LINE
  8
LVL0000
 10
      130.800049
 20
     -265.349979
 30
        0.000000
 11
      138.200073
 21
     -265.349979
 31
        0.000000
  0
LINE
  8
LVL0000
 10
      130.800049
 20
     -266.349979
 30
        0.000000
 11
      138.200073
 21
     -266.349979
 31
        0.000000
  0
LINE
  8
LVL0000
 10
      130.800049
 20
     -267.349979
 30
        0.000000
 11
      138.200073
 21
     -267.349979
 31
        0.000000
  0
LINE
  8
LVL0000
 10
      130.800049
 20
     -268.349979
 30
        0.000000
 11
      138.200073
 21
     -268.349979
 31
        0.000000
  0
LINE
  8
LVL0000
 10
      130.800049
 20
     -269.349979
 30
        0.000000
 11
      138.200073
 21
     -269.349979
 31
        0.000000
  0
LINE
  8
LVL0000
 10
      130.800049
 20
     -270.349979
 30
        0.000000
 11
      138.200073
 21
     -270.349979
 31
        0.000000
  0
LINE
  8
LVL0000
 10
      130.800049
 20
     -271.349979
 30
        0.000000
 11
      138.200073
 21
     -271.349979
 31
        0.000000
  0
LINE
  8
LVL0000
 10
      130.800049
 20
     -272.349979
 30
        0.000000
 11
      138.200073
 21
     -272.349979
 31
        0.000000
  0
LINE
  8
LVL0000
 10
      130.800049
 20
     -273.349979
 30
        0.000000
 11
      138.200073
 21
     -273.349979
 31
        0.000000
  0
LINE
  8
LVL0000
 10
      130.800049
 20
     -274.349979
 30
        0.000000
 11
      138.200073
 21
     -274.349979
 31
        0.000000
  0
LINE
  8
LVL0000
 10
      130.800049
 20
     -275.349979
 30
        0.000000
 11
      138.200073
 21
     -275.349979
 31
        0.000000
  0
LINE
  8
LVL0000
 10
      130.800049
 20
     -276.349979
 30
        0.000000
 11
      138.200073
 21
     -276.349979
 31
        0.000000
  0
LINE
  8
LVL0000
 10
      130.800049
 20
     -277.349979
 30
        0.000000
 11
      130.800049
 21
     -262.650028
 31
        0.000000
  0
LINE
  8
LVL0000
 10
      138.200073
 20
     -277.349979
 30
        0.000000
 11
      138.200073
 21
     -262.650028
 31
        0.000000
  0
LINE
  8
LVL0000
 10
      130.800049
 20
     -277.349979
 30
        0.000000
 11
      138.200073
 21
     -277.349979
 31
        0.000000
  0
LINE
  8
LVL0000
 10
      130.800049
 20
     -262.650028
 30
        0.000000
 11
      138.200073
 21
     -262.650028
 31
        0.000000
  0
LINE
  8
LVL0000
 10
      138.200073
 20
     -277.000004
 30
        0.000000
 11
      144.000000
 21
     -277.000004
 31
        0.000000
  0
LINE
  8
LVL0000
 10
      138.200073
 20
     -263.000004
 30
        0.000000
 11
      144.000000
 21
     -263.000004
 31
        0.000000
  0
LINE
  8
LVL0000
 10
      173.300053
 20
     -265.500004
 30
        0.000000
 11
      160.800053
 21
     -263.849979
 31
        0.000000
  0
LINE
  8
LVL0000
 10
      173.300053
 20
     -274.500004
 30
        0.000000
 11
      160.800053
 21
     -276.150028
 31
        0.000000
  0
LINE
  8
LVL0000
 10
      144.800049
 20
     -263.900028
 30
        0.000000
 11
      144.000000
 21
     -263.000004
 31
        0.000000
  0
LINE
  8
LVL0000
 10
      144.800049
 20
     -276.099979
 30
        0.000000
 11
      144.000000
 21
     -277.000004
 31
        0.000000
  0
LINE
  8
LVL0000
 10
      144.800049
 20
     -276.099979
 30
        0.000000
 11
      144.800049
 21
     -263.900028
 31
        0.000000
  0
LINE
  8
LVL0000
 10
      144.800049
 20
     -276.099979
 30
        0.000000
 11
      147.200073
 21
     -276.099979
 31
        0.000000
  0
LINE
  8
LVL0000
 10
      144.800049
 20
     -263.900028
 30
        0.000000
 11
      147.200073
 21
     -263.900028
 31
        0.000000
  0
LINE
  8
LVL0000
 10
      144.000000
 20
     -277.000004
 30
        0.000000
 11
      144.000000
 21
     -263.000004
 31
        0.000000
  0
LINE
  8
LVL0000
 10
      150.700073
 20
     -276.750004
 30
        0.000000
 11
      160.800053
 21
     -276.750004
 31
        0.000000
  0
LINE
  8
LVL0000
 10
      150.700073
 20
     -263.250004
 30
        0.000000
 11
      160.800053
 21
     -263.250004
 31
        0.000000
  0
LINE
  8
LVL0000
 10
      150.700073
 20
     -276.750004
 30
        0.000000
 11
      150.700073
 21
     -263.250004
 31
        0.000000
  0
LINE
  8
LVL0000
 10
      173.300053
 20
     -274.500004
 30
        0.000000
 11
      173.300053
 21
     -265.500004
 31
        0.000000
  0
LINE
  8
LVL0000
 10
      160.800053
 20
     -276.750004
 30
        0.000000
 11
      160.800053
 21
     -263.250004
 31
        0.000000
  0
LINE
  8
LVL0000
 10
      147.200073
 20
     -276.099979
 30
        0.000000
 11
      147.200073
 21
     -263.900028
 31
        0.000000
  0
LINE
  8
LVL0000
 10
      147.200073
 20
     -263.900028
 30
        0.000000
 11
      150.700073
 21
     -263.250004
 31
        0.000000
  0
LINE
  8
LVL0000
 10
      150.700073
 20
     -276.750004
 30
        0.000000
 11
      147.200073
 21
     -276.099979
 31
        0.000000
  0
LINE
  8
LVL0000
 10
      173.300053
 20
     -273.500004
 30
        0.000000
 11
      207.618908
 21
     -273.500004
 31
        0.000000
  0
LINE
  8
LVL0000
 10
      173.300053
 20
     -266.500004
 30
        0.000000
 11
      208.727713
 21
     -266.500004
 31
        0.000000
  0
INSERT
  8
LVL0000
 62
  2
  2
BLK0002
 10
        0.000000
 20
        0.000000
  0
INSERT
  8
LVL0000
 62
  2
  2
BLK0003
 10
        0.000000
 20
        0.000000
  0
LINE
  8
LVL0000
 10
      173.300053
 20
     -166.500004
 30
        0.000000
 11
      208.727713
 21
     -166.500004
 31
        0.000000
  0
LINE
  8
LVL0000
 10
      173.300053
 20
     -173.500004
 30
        0.000000
 11
      207.618908
 21
     -173.500004
 31
        0.000000
  0
LINE
  8
LVL0000
 10
      150.700073
 20
     -176.750004
 30
        0.000000
 11
      147.200073
 21
     -176.099979
 31
        0.000000
  0
LINE
  8
LVL0000
 10
      147.200073
 20
     -163.900028
 30
        0.000000
 11
      150.700073
 21
     -163.250004
 31
        0.000000
  0
LINE
  8
LVL0000
 10
      147.200073
 20
     -176.099979
 30
        0.000000
 11
      147.200073
 21
     -163.900028
 31
        0.000000
  0
LINE
  8
LVL0000
 10
      160.800053
 20
     -176.750004
 30
        0.000000
 11
      160.800053
 21
     -163.250004
 31
        0.000000
  0
LINE
  8
LVL0000
 10
      173.300053
 20
     -174.500004
 30
        0.000000
 11
      173.300053
 21
     -165.500004
 31
        0.000000
  0
LINE
  8
LVL0000
 10
      150.700073
 20
     -176.750004
 30
        0.000000
 11
      150.700073
 21
     -163.250004
 31
        0.000000
  0
LINE
  8
LVL0000
 10
      150.700073
 20
     -163.250004
 30
        0.000000
 11
      160.800053
 21
     -163.250004
 31
        0.000000
  0
LINE
  8
LVL0000
 10
      150.700073
 20
     -176.750004
 30
        0.000000
 11
      160.800053
 21
     -176.750004
 31
        0.000000
  0
LINE
  8
LVL0000
 10
      144.000000
 20
     -177.000004
 30
        0.000000
 11
      144.000000
 21
     -163.000004
 31
        0.000000
  0
LINE
  8
LVL0000
 10
      144.800049
 20
     -163.900028
 30
        0.000000
 11
      147.200073
 21
     -163.900028
 31
        0.000000
  0
LINE
  8
LVL0000
 10
      144.800049
 20
     -176.099979
 30
        0.000000
 11
      147.200073
 21
     -176.099979
 31
        0.000000
  0
LINE
  8
LVL0000
 10
      144.800049
 20
     -176.099979
 30
        0.000000
 11
      144.800049
 21
     -163.900028
 31
        0.000000
  0
LINE
  8
LVL0000
 10
      144.800049
 20
     -176.099979
 30
        0.000000
 11
      144.000000
 21
     -177.000004
 31
        0.000000
  0
LINE
  8
LVL0000
 10
      144.800049
 20
     -163.900028
 30
        0.000000
 11
      144.000000
 21
     -163.000004
 31
        0.000000
  0
LINE
  8
LVL0000
 10
      173.300053
 20
     -174.500004
 30
        0.000000
 11
      160.800053
 21
     -176.150028
 31
        0.000000
  0
LINE
  8
LVL0000
 10
      173.300053
 20
     -165.500004
 30
        0.000000
 11
      160.800053
 21
     -163.849979
 31
        0.000000
  0
LINE
  8
LVL0000
 10
      138.200073
 20
     -163.000004
 30
        0.000000
 11
      144.000000
 21
     -163.000004
 31
        0.000000
  0
LINE
  8
LVL0000
 10
      138.200073
 20
     -177.000004
 30
        0.000000
 11
      144.000000
 21
     -177.000004
 31
        0.000000
  0
LINE
  8
LVL0000
 10
      130.800049
 20
     -163.000000
 30
        0.000000
 11
      130.000000
 21
     -163.000000
 31
        0.000000
  0
LINE
  8
LVL0000
 10
      130.800049
 20
     -177.000000
 30
        0.000000
 11
      130.000000
 21
     -177.000000
 31
        0.000000
  0
LINE
  8
LVL0000
 10
      130.800049
 20
     -162.650028
 30
        0.000000
 11
      138.200073
 21
     -162.650028
 31
        0.000000
  0
LINE
  8
LVL0000
 10
      130.800049
 20
     -177.349979
 30
        0.000000
 11
      138.200073
 21
     -177.349979
 31
        0.000000
  0
LINE
  8
LVL0000
 10
      138.200073
 20
     -177.349979
 30
        0.000000
 11
      138.200073
 21
     -162.650028
 31
        0.000000
  0
LINE
  8
LVL0000
 10
      130.800049
 20
     -176.349979
 30
        0.000000
 11
      138.200073
 21
     -176.349979
 31
        0.000000
  0
LINE
  8
LVL0000
 10
      130.800049
 20
     -175.349979
 30
        0.000000
 11
      138.200073
 21
     -175.349979
 31
        0.000000
  0
LINE
  8
LVL0000
 10
      130.800049
 20
     -174.349979
 30
        0.000000
 11
      138.200073
 21
     -174.349979
 31
        0.000000
  0
LINE
  8
LVL0000
 10
      130.800049
 20
     -173.349979
 30
        0.000000
 11
      138.200073
 21
     -173.349979
 31
        0.000000
  0
LINE
  8
LVL0000
 10
      130.800049
 20
     -172.349979
 30
        0.000000
 11
      138.200073
 21
     -172.349979
 31
        0.000000
  0
LINE
  8
LVL0000
 10
      130.800049
 20
     -171.349979
 30
        0.000000
 11
      138.200073
 21
     -171.349979
 31
        0.000000
  0
LINE
  8
LVL0000
 10
      130.800049
 20
     -170.349979
 30
        0.000000
 11
      138.200073
 21
     -170.349979
 31
        0.000000
  0
LINE
  8
LVL0000
 10
      130.800049
 20
     -169.349979
 30
        0.000000
 11
      138.200073
 21
     -169.349979
 31
        0.000000
  0
LINE
  8
LVL0000
 10
      130.800049
 20
     -168.349979
 30
        0.000000
 11
      138.200073
 21
     -168.349979
 31
        0.000000
  0
LINE
  8
LVL0000
 10
      130.800049
 20
     -167.349979
 30
        0.000000
 11
      138.200073
 21
     -167.349979
 31
        0.000000
  0
LINE
  8
LVL0000
 10
      130.800049
 20
     -166.349979
 30
        0.000000
 11
      138.200073
 21
     -166.349979
 31
        0.000000
  0
LINE
  8
LVL0000
 10
      130.800049
 20
     -165.349979
 30
        0.000000
 11
      138.200073
 21
     -165.349979
 31
        0.000000
  0
LINE
  8
LVL0000
 10
      130.800049
 20
     -164.349979
 30
        0.000000
 11
      138.200073
 21
     -164.349979
 31
        0.000000
  0
LINE
  8
LVL0000
 10
      130.800049
 20
     -163.349979
 30
        0.000000
 11
      138.200073
 21
     -163.349979
 31
        0.000000
  0
ARC
  8
LVL0001
 10
      100.500000
 20
     -270.000000
 30
        0.000000
 40
       11.600000
 50
       79.999998
 51
       99.999997
  0
ARC
  8
LVL0001
 10
      100.500000
 20
     -270.000000
 30
        0.000000
 40
        8.400000
 50
       79.999998
 51
       99.999997
  0
ARC
  8
LVL0001
 10
      102.236482
 20
     -260.151922
 30
        0.000000
 40
        1.600000
 50
      260.000003
 51
      439.999998
  0
ARC
  8
LVL0001
 10
       98.763518
 20
     -260.151922
 30
        0.000000
 40
        1.600000
 50
       99.999997
 51
      280.000002
  0
CIRCLE
  8
LVL0001
 10
      100.500000
 20
     -260.000000
 30
        0.000000
 40
        2.750000
  0
LINE
  8
LVL0001
 10
      100.950000
 20
     -258.285999
 30
        0.000000
 11
      100.050000
 21
     -258.285999
 31
        0.000000
  0
LINE
  8
LVL0001
 10
      100.950000
 20
     -261.586000
 30
        0.000000
 11
      100.050000
 21
     -261.586000
 31
        0.000000
  0
LINE
  8
LVL0001
 10
       98.850000
 20
     -260.386000
 30
        0.000000
 11
       98.850000
 21
     -259.486002
 31
        0.000000
  0
LINE
  8
LVL0001
 10
      102.150000
 20
     -260.386000
 30
        0.000000
 11
      102.150000
 21
     -259.486002
 31
        0.000000
  0
LINE
  8
LVL0001
 10
      100.950000
 20
     -261.586000
 30
        0.000000
 11
      100.950000
 21
     -260.835999
 31
        0.000000
  0
LINE
  8
LVL0001
 10
      100.050000
 20
     -261.586000
 30
        0.000000
 11
      100.050000
 21
     -260.835999
 31
        0.000000
  0
LINE
  8
LVL0001
 10
      102.150000
 20
     -259.486002
 30
        0.000000
 11
      101.400000
 21
     -259.486002
 31
        0.000000
  0
LINE
  8
LVL0001
 10
      102.150000
 20
     -260.386000
 30
        0.000000
 11
      101.400000
 21
     -260.386000
 31
        0.000000
  0
LINE
  8
LVL0001
 10
       99.600000
 20
     -259.486002
 30
        0.000000
 11
       98.850000
 21
     -259.486002
 31
        0.000000
  0
LINE
  8
LVL0001
 10
       99.600000
 20
     -260.386000
 30
        0.000000
 11
       98.850000
 21
     -260.386000
 31
        0.000000
  0
LINE
  8
LVL0001
 10
      100.050000
 20
     -259.036003
 30
        0.000000
 11
      100.050000
 21
     -258.285999
 31
        0.000000
  0
LINE
  8
LVL0001
 10
      100.950000
 20
     -259.036003
 30
        0.000000
 11
      100.950000
 21
     -258.285999
 31
        0.000000
  0
ARC
  8
LVL0001
 10
       99.600000
 20
     -259.036003
 30
        0.000000
 40
        0.449999
 50
      270.000000
 51
      360.000000
  0
ARC
  8
LVL0001
 10
      101.400000
 20
     -259.036003
 30
        0.000000
 40
        0.450000
 50
      180.000010
 51
      270.000000
  0
ARC
  8
LVL0001
 10
      101.400000
 20
     -260.835999
 30
        0.000000
 40
        0.449999
 50
       90.000000
 51
      180.000010
  0
ARC
  8
LVL0001
 10
       99.600000
 20
     -260.835999
 30
        0.000000
 40
        0.450000
 50
        0.000000
 51
       90.000000
  0
ARC
  8
LVL0001
 10
      102.236482
 20
     -279.848078
 30
        0.000000
 40
        1.600000
 50
      280.000002
 51
      459.999997
  0
ARC
  8
LVL0001
 10
       98.763518
 20
     -279.848078
 30
        0.000000
 40
        1.600000
 50
       79.999998
 51
      260.000003
  0
ARC
  8
LVL0001
 10
      100.500000
 20
     -270.000000
 30
        0.000000
 40
        8.400000
 50
      260.000003
 51
      280.000002
  0
ARC
  8
LVL0001
 10
      100.500000
 20
     -270.000000
 30
        0.000000
 40
       11.600000
 50
      260.000003
 51
      280.000002
  0
CIRCLE
  8
LVL0001
 10
      100.500000
 20
     -280.000000
 30
        0.000000
 40
        2.750000
  0
LINE
  8
LVL0001
 10
      100.950000
 20
     -278.285999
 30
        0.000000
 11
      100.050000
 21
     -278.285999
 31
        0.000000
  0
LINE
  8
LVL0001
 10
      100.950000
 20
     -281.586000
 30
        0.000000
 11
      100.050000
 21
     -281.586000
 31
        0.000000
  0
LINE
  8
LVL0001
 10
       98.850000
 20
     -280.386000
 30
        0.000000
 11
       98.850000
 21
     -279.486002
 31
        0.000000
  0
LINE
  8
LVL0001
 10
      102.150000
 20
     -280.386000
 30
        0.000000
 11
      102.150000
 21
     -279.486002
 31
        0.000000
  0
LINE
  8
LVL0001
 10
      100.950000
 20
     -281.586000
 30
        0.000000
 11
      100.950000
 21
     -280.835999
 31
        0.000000
  0
LINE
  8
LVL0001
 10
      100.050000
 20
     -281.586000
 30
        0.000000
 11
      100.050000
 21
     -280.835999
 31
        0.000000
  0
LINE
  8
LVL0001
 10
      102.150000
 20
     -279.486002
 30
        0.000000
 11
      101.400000
 21
     -279.486002
 31
        0.000000
  0
LINE
  8
LVL0001
 10
      102.150000
 20
     -280.386000
 30
        0.000000
 11
      101.400000
 21
     -280.386000
 31
        0.000000
  0
LINE
  8
LVL0001
 10
       99.600000
 20
     -279.486002
 30
        0.000000
 11
       98.850000
 21
     -279.486002
 31
        0.000000
  0
LINE
  8
LVL0001
 10
       99.600000
 20
     -280.386000
 30
        0.000000
 11
       98.850000
 21
     -280.386000
 31
        0.000000
  0
LINE
  8
LVL0001
 10
      100.050000
 20
     -279.036003
 30
        0.000000
 11
      100.050000
 21
     -278.285999
 31
        0.000000
  0
LINE
  8
LVL0001
 10
      100.950000
 20
     -279.036003
 30
        0.000000
 11
      100.950000
 21
     -278.285999
 31
        0.000000
  0
ARC
  8
LVL0001
 10
       99.600000
 20
     -279.036003
 30
        0.000000
 40
        0.449999
 50
      270.000000
 51
      360.000000
  0
ARC
  8
LVL0001
 10
      101.400000
 20
     -279.036003
 30
        0.000000
 40
        0.450000
 50
      180.000010
 51
      270.000000
  0
ARC
  8
LVL0001
 10
      101.400000
 20
     -280.835999
 30
        0.000000
 40
        0.449999
 50
       90.000000
 51
      180.000010
  0
ARC
  8
LVL0001
 10
       99.600000
 20
     -280.835999
 30
        0.000000
 40
        0.450000
 50
        0.000000
 51
       90.000000
  0
CIRCLE
  8
LVL0001
 10
      100.500000
 20
     -160.000000
 30
        0.000000
 40
        2.750000
  0
LINE
  8
LVL0001
 10
      100.950000
 20
     -158.285999
 30
        0.000000
 11
      100.050000
 21
     -158.285999
 31
        0.000000
  0
LINE
  8
LVL0001
 10
      100.950000
 20
     -161.586000
 30
        0.000000
 11
      100.050000
 21
     -161.586000
 31
        0.000000
  0
LINE
  8
LVL0001
 10
       98.850000
 20
     -160.386000
 30
        0.000000
 11
       98.850000
 21
     -159.486002
 31
        0.000000
  0
LINE
  8
LVL0001
 10
      102.150000
 20
     -160.386000
 30
        0.000000
 11
      102.150000
 21
     -159.486002
 31
        0.000000
  0
LINE
  8
LVL0001
 10
      100.950000
 20
     -161.586000
 30
        0.000000
 11
      100.950000
 21
     -160.835999
 31
        0.000000
  0
LINE
  8
LVL0001
 10
      100.050000
 20
     -161.586000
 30
        0.000000
 11
      100.050000
 21
     -160.835999
 31
        0.000000
  0
LINE
  8
LVL0001
 10
      102.150000
 20
     -159.486002
 30
        0.000000
 11
      101.400000
 21
     -159.486002
 31
        0.000000
  0
LINE
  8
LVL0001
 10
      102.150000
 20
     -160.386000
 30
        0.000000
 11
      101.400000
 21
     -160.386000
 31
        0.000000
  0
LINE
  8
LVL0001
 10
       99.600000
 20
     -159.486002
 30
        0.000000
 11
       98.850000
 21
     -159.486002
 31
        0.000000
  0
LINE
  8
LVL0001
 10
       99.600000
 20
     -160.386000
 30
        0.000000
 11
       98.850000
 21
     -160.386000
 31
        0.000000
  0
LINE
  8
LVL0001
 10
      100.050000
 20
     -159.036003
 30
        0.000000
 11
      100.050000
 21
     -158.285999
 31
        0.000000
  0
LINE
  8
LVL0001
 10
      100.950000
 20
     -159.036003
 30
        0.000000
 11
      100.950000
 21
     -158.285999
 31
        0.000000
  0
ARC
  8
LVL0001
 10
       99.600000
 20
     -159.036003
 30
        0.000000
 40
        0.449999
 50
      270.000000
 51
      360.000000
  0
ARC
  8
LVL0001
 10
      101.400000
 20
     -159.036003
 30
        0.000000
 40
        0.450000
 50
      180.000010
 51
      270.000000
  0
ARC
  8
LVL0001
 10
      101.400000
 20
     -160.835999
 30
        0.000000
 40
        0.449999
 50
       90.000000
 51
      180.000010
  0
ARC
  8
LVL0001
 10
       99.600000
 20
     -160.835999
 30
        0.000000
 40
        0.450000
 50
        0.000000
 51
       90.000000
  0
ARC
  8
LVL0001
 10
      100.500000
 20
     -170.000000
 30
        0.000000
 40
       11.600000
 50
       79.999998
 51
       99.999997
  0
ARC
  8
LVL0001
 10
      100.500000
 20
     -170.000000
 30
        0.000000
 40
        8.400000
 50
       79.999998
 51
       99.999997
  0
ARC
  8
LVL0001
 10
      102.236482
 20
     -160.151922
 30
        0.000000
 40
        1.600000
 50
      260.000003
 51
      439.999998
  0
ARC
  8
LVL0001
 10
       98.763518
 20
     -160.151922
 30
        0.000000
 40
        1.600000
 50
       99.999997
 51
      280.000002
  0
ARC
  8
LVL0001
 10
      100.500000
 20
     -170.000000
 30
        0.000000
 40
        8.400000
 50
      260.000003
 51
      280.000002
  0
ARC
  8
LVL0001
 10
      100.500000
 20
     -170.000000
 30
        0.000000
 40
       11.600000
 50
      260.000003
 51
      280.000002
  0
CIRCLE
  8
LVL0001
 10
      100.500000
 20
     -180.000000
 30
        0.000000
 40
        2.750000
  0
LINE
  8
LVL0001
 10
      100.950000
 20
     -178.285999
 30
        0.000000
 11
      100.050000
 21
     -178.285999
 31
        0.000000
  0
LINE
  8
LVL0001
 10
      100.950000
 20
     -181.586000
 30
        0.000000
 11
      100.050000
 21
     -181.586000
 31
        0.000000
  0
LINE
  8
LVL0001
 10
       98.850000
 20
     -180.386000
 30
        0.000000
 11
       98.850000
 21
     -179.486002
 31
        0.000000
  0
LINE
  8
LVL0001
 10
      102.150000
 20
     -180.386000
 30
        0.000000
 11
      102.150000
 21
     -179.486002
 31
        0.000000
  0
LINE
  8
LVL0001
 10
      100.950000
 20
     -181.586000
 30
        0.000000
 11
      100.950000
 21
     -180.835999
 31
        0.000000
  0
LINE
  8
LVL0001
 10
      100.050000
 20
     -181.586000
 30
        0.000000
 11
      100.050000
 21
     -180.835999
 31
        0.000000
  0
LINE
  8
LVL0001
 10
      102.150000
 20
     -179.486002
 30
        0.000000
 11
      101.400000
 21
     -179.486002
 31
        0.000000
  0
LINE
  8
LVL0001
 10
      102.150000
 20
     -180.386000
 30
        0.000000
 11
      101.400000
 21
     -180.386000
 31
        0.000000
  0
LINE
  8
LVL0001
 10
       99.600000
 20
     -179.486002
 30
        0.000000
 11
       98.850000
 21
     -179.486002
 31
        0.000000
  0
LINE
  8
LVL0001
 10
       99.600000
 20
     -180.386000
 30
        0.000000
 11
       98.850000
 21
     -180.386000
 31
        0.000000
  0
LINE
  8
LVL0001
 10
      100.050000
 20
     -179.036003
 30
        0.000000
 11
      100.050000
 21
     -178.285999
 31
        0.000000
  0
LINE
  8
LVL0001
 10
      100.950000
 20
     -179.036003
 30
        0.000000
 11
      100.950000
 21
     -178.285999
 31
        0.000000
  0
ARC
  8
LVL0001
 10
       99.600000
 20
     -179.036003
 30
        0.000000
 40
        0.449999
 50
      270.000000
 51
      360.000000
  0
ARC
  8
LVL0001
 10
      101.400000
 20
     -179.036003
 30
        0.000000
 40
        0.450000
 50
      180.000010
 51
      270.000000
  0
ARC
  8
LVL0001
 10
      101.400000
 20
     -180.835999
 30
        0.000000
 40
        0.449999
 50
       90.000000
 51
      180.000010
  0
ARC
  8
LVL0001
 10
       99.600000
 20
     -180.835999
 30
        0.000000
 40
        0.450000
 50
        0.000000
 51
       90.000000
  0
ARC
  8
LVL0001
 10
      102.236482
 20
     -179.848078
 30
        0.000000
 40
        1.600000
 50
      280.000002
 51
      459.999997
  0
ARC
  8
LVL0001
 10
       98.763518
 20
     -179.848078
 30
        0.000000
 40
        1.600000
 50
       79.999998
 51
      260.000003
  0
LINE
  8
LVL0001
 10
       97.000000
 20
     -416.000000
 30
        0.000000
 11
      121.000000
 21
     -416.000000
 31
        0.000000
  0
ARC
  8
LVL0001
 10
       97.000000
 20
     -414.000000
 30
        0.000000
 40
        2.000000
 50
      179.999995
 51
      270.000000
  0
LINE
  8
LVL0001
 10
       95.000000
 20
     -385.000000
 30
        0.000000
 11
      123.000000
 21
     -385.000000
 31
        0.000000
  0
LINE
  8
LVL0001
 10
       95.000000
 20
     -414.000000
 30
        0.000000
 11
       95.000000
 21
     -385.000000
 31
        0.000000
  0
ARC
  8
LVL0001
 10
      121.000000
 20
     -414.000000
 30
        0.000000
 40
        2.000000
 50
      270.000000
 51
      360.000000
  0
LINE
  8
LVL0001
 10
      123.000000
 20
     -414.000000
 30
        0.000000
 11
      123.000000
 21
     -385.000000
 31
        0.000000
  0
CIRCLE
  8
LVL0001
 10
      109.000000
 20
     -402.000030
 30
        0.000000
 40
        3.175000
  0
CIRCLE
  8
LVL0001
 10
      109.000000
 20
     -402.000030
 30
        0.000000
 40
        2.500000
  0
ARC
  8
LVL0001
 10
      100.339746
 20
     -397.000030
 30
        0.000000
 40
        1.600000
 50
      330.000001
 51
      509.999996
  0
ARC
  8
LVL0001
 10
      100.339746
 20
     -407.000030
 30
        0.000000
 40
        1.600000
 50
      210.000004
 51
      389.999999
  0
ARC
  8
LVL0001
 10
      109.000000
 20
     -402.000030
 30
        0.000000
 40
       11.600000
 50
      149.999996
 51
      210.000004
  0
ARC
  8
LVL0001
 10
      109.000000
 20
     -402.000030
 30
        0.000000
 40
        8.400000
 50
      149.999996
 51
      210.000004
  0
ARC
  8
LVL0001
 10
      109.000000
 20
     -402.000030
 30
        0.000000
 40
       11.600000
 50
      330.000001
 51
      389.999999
  0
ARC
  8
LVL0001
 10
      117.660254
 20
     -407.000030
 30
        0.000000
 40
        1.600000
 50
      149.999996
 51
      330.000001
  0
ARC
  8
LVL0001
 10
      109.000000
 20
     -402.000030
 30
        0.000000
 40
        8.400000
 50
      330.000001
 51
      389.999999
  0
ARC
  8
LVL0001
 10
      117.660254
 20
     -397.000030
 30
        0.000000
 40
        1.600000
 50
       29.999999
 51
      210.000004
  0
LINE
  8
LVL0001
  6
DOT
 10
       95.000000
 20
     -387.000000
 30
        0.000000
 11
      123.000000
 21
     -387.000000
 31
        0.000000
  0
LINE
  8
LVL0001
 10
       23.000000
 20
     -416.000000
 30
        0.000000
 11
       25.000000
 21
     -416.000000
 31
        0.000000
  0
LINE
  8
LVL0001
 10
      -14.000000
 20
     -387.000000
 30
        0.000000
 11
      -14.000000
 21
     -385.000000
 31
        0.000000
  0
LINE
  8
LVL0001
 10
       22.000000
 20
     -387.000000
 30
        0.000000
 11
      -14.000000
 21
     -387.000000
 31
        0.000000
  0
ARC
  8
LVL0001
 10
       22.000000
 20
     -388.000000
 30
        0.000000
 40
        1.000000
 50
        0.000000
 51
       90.000000
  0
LINE
  8
LVL0001
 10
       23.000000
 20
     -416.000000
 30
        0.000000
 11
       23.000000
 21
     -388.000000
 31
        0.000000
  0
LINE
  8
LVL0001
 10
       25.000000
 20
     -416.000000
 30
        0.000000
 11
       25.000000
 21
     -388.000000
 31
        0.000000
  0
ARC
  8
LVL0001
 10
       22.000000
 20
     -388.000000
 30
        0.000000
 40
        3.000000
 50
        0.000000
 51
       90.000000
  0
LINE
  8
LVL0001
 10
       22.000000
 20
     -385.000000
 30
        0.000000
 11
      -14.000000
 21
     -385.000000
 31
        0.000000
  0
LINE
  8
LVL0001
 10
        2.000000
 20
     -355.000000
 30
        0.000000
 11
        2.000000
 21
     -351.000000
 31
        0.000000
  0
LINE
  8
LVL0001
 10
        2.000000
 20
     -355.000000
 30
        0.000000
 11
       -2.000000
 21
     -355.000000
 31
        0.000000
  0
LINE
  8
LVL0001
 10
       -0.800000
 20
     -355.271711
 30
        0.000000
 11
       -0.800000
 21
     -355.000000
 31
        0.000000
  0
LINE
  8
LVL0001
 10
       -2.000000
 20
     -355.000000
 30
        0.000000
 11
       -2.000000
 21
     -351.000000
 31
        0.000000
  0
LINE
  8
LVL0001
 10
        2.000000
 20
     -351.000000
 30
        0.000000
 11
       -2.000000
 21
     -351.000000
 31
        0.000000
  0
ARC
  8
LVL0000
 10
        0.000000
 20
     -385.000000
 30
        0.000000
 40
       32.000000
 50
       64.320647
 51
       86.416676
  0
ARC
  8
LVL0000
 10
        0.000000
 20
     -385.000000
 30
        0.000000
 40
       32.000000
 50
       93.583319
 51
      115.679223
  0
TEXT
  8
LVL0000
 62
  2
 10
       59.553688
 20
     -342.668818
 30
        0.000000
 40
        4.000000
  1
IVS20L16
 50
        0.000000
 41
        0.835000
 51
        0.000000
  7
STANDARD
  0
CIRCLE
  8
LVL0000
 10
        0.000000
 20
     -370.000000
 30
        0.000000
 40
       14.500000
  0
ARC
  8
LVL0000
 10
      -12.999970
 20
     -357.962974
 30
        0.000000
 40
        2.000000
 50
      115.679223
 51
      179.999995
  0
LINE
  8
LVL0000
 10
      -14.999970
 20
     -383.000000
 30
        0.000000
 11
      -14.999970
 21
     -357.962974
 31
        0.000000
  0
ARC
  8
LVL0000
 10
       13.000030
 20
     -357.963003
 30
        0.000000
 40
        2.000000
 50
        0.000000
 51
       64.320647
  0
LINE
  8
LVL0000
 10
       15.000030
 20
     -383.000000
 30
        0.000000
 11
       15.000030
 21
     -357.963003
 31
        0.000000
  0
ARC
  8
LVL0000
 10
       13.000030
 20
     -383.000000
 30
        0.000000
 40
        2.000000
 50
      270.000000
 51
      360.000000
  0
LINE
  8
LVL0000
 10
      -12.999970
 20
     -385.000000
 30
        0.000000
 11
       13.000030
 21
     -385.000000
 31
        0.000000
  0
ARC
  8
LVL0000
 10
      -12.999970
 20
     -383.000000
 30
        0.000000
 40
        2.000000
 50
      179.999995
 51
      270.000000
  0
LINE
  8
LVL0000
 10
       -0.300000
 20
     -355.000029
 30
        0.000000
 11
        0.300000
 21
     -355.000029
 31
        0.000000
  0
LINE
  8
LVL0001
 10
       75.400000
 20
     -355.000000
 30
        0.000000
 11
       79.400000
 21
     -355.000000
 31
        0.000000
  0
LINE
  8
LVL0001
 10
       75.400000
 20
     -355.000000
 30
        0.000000
 11
       75.400000
 21
     -351.000000
 31
        0.000000
  0
LINE
  8
LVL0001
 10
       79.400000
 20
     -355.000000
 30
        0.000000
 11
       79.400000
 21
     -351.000000
 31
        0.000000
  0
LINE
  8
LVL0001
 10
       61.500000
 20
     -384.000000
 30
        0.000000
 11
       61.500000
 21
     -356.000000
 31
        0.000000
  0
LINE
  8
LVL0001
 10
       75.600000
 20
     -384.500000
 30
        0.000000
 11
       75.600000
 21
     -355.500000
 31
        0.000000
  0
LINE
  8
LVL0001
 10
       90.000000
 20
     -384.750000
 30
        0.000000
 11
       90.000000
 21
     -355.250000
 31
        0.000000
  0
LINE
  8
LVL0001
 10
       61.500000
 20
     -384.000000
 30
        0.000000
 11
       75.600000
 21
     -384.000000
 31
        0.000000
  0
LINE
  8
LVL0001
 10
       61.500000
 20
     -356.000000
 30
        0.000000
 11
       75.600000
 21
     -356.000000
 31
        0.000000
  0
LINE
  8
LVL0001
 10
       75.600000
 20
     -384.500000
 30
        0.000000
 11
       81.300000
 21
     -384.500000
 31
        0.000000
  0
LINE
  8
LVL0001
 10
       75.600000
 20
     -355.500000
 30
        0.000000
 11
       81.300000
 21
     -355.500000
 31
        0.000000
  0
LINE
  8
LVL0001
 10
       81.300000
 20
     -355.250000
 30
        0.000000
 11
       90.000000
 21
     -355.250000
 31
        0.000000
  0
LINE
  8
LVL0001
 10
       81.300000
 20
     -384.750000
 30
        0.000000
 11
       90.000000
 21
     -384.750000
 31
        0.000000
  0
CIRCLE
  8
LVL0001
 10
       82.800000
 20
     -370.000000
 30
        0.000000
 40
        2.000000
  0
LINE
  8
LVL0001
 10
       76.600000
 20
     -355.500000
 30
        0.000000
 11
       76.600000
 21
     -355.000000
 31
        0.000000
  0
LINE
  8
LVL0001
 10
       78.200000
 20
     -355.500000
 30
        0.000000
 11
       78.200000
 21
     -355.000000
 31
        0.000000
  0
LINE
  8
LVL0001
 10
       75.400000
 20
     -351.000000
 30
        0.000000
 11
       79.400000
 21
     -351.000000
 31
        0.000000
  0
LINE
  8
LVL0001
 10
       81.300000
 20
     -384.750000
 30
        0.000000
 11
       81.300000
 21
     -371.322876
 31
        0.000000
  0
LINE
  8
LVL0001
 10
       81.300000
 20
     -368.677124
 30
        0.000000
 11
       81.300000
 21
     -355.250000
 31
        0.000000
  0
CIRCLE
  8
LVL0001
 10
        0.000000
 20
     -370.000000
 30
        0.000000
 40
       14.750000
  0
CIRCLE
  8
LVL0001
 10
        0.000000
 20
     -370.000000
 30
        0.000000
 40
       14.000000
  0
CIRCLE
  8
LVL0001
 10
        0.000000
 20
     -370.000000
 30
        0.000000
 40
       14.500000
  0
CIRCLE
  8
LVL0001
 10
        0.000000
 20
     -370.000000
 30
        0.000000
 40
        5.385837
  0
LINE
  8
LVL0001
 10
       19.000000
 20
     -372.000000
 30
        0.000000
 11
       19.000000
 21
     -368.000000
 31
        0.000000
  0
LINE
  8
LVL0001
 10
       15.000000
 20
     -368.000000
 30
        0.000000
 11
       19.000000
 21
     -368.000000
 31
        0.000000
  0
LINE
  8
LVL0001
 10
       14.728289
 20
     -369.200000
 30
        0.000000
 11
       15.000000
 21
     -369.200000
 31
        0.000000
  0
LINE
  8
LVL0001
 10
       15.000000
 20
     -372.000000
 30
        0.000000
 11
       15.000000
 21
     -368.000000
 31
        0.000000
  0
LINE
  8
LVL0001
 10
       15.000000
 20
     -372.000000
 30
        0.000000
 11
       19.000000
 21
     -372.000000
 31
        0.000000
  0
LINE
  8
LVL0001
 10
       14.728289
 20
     -370.800000
 30
        0.000000
 11
       15.000000
 21
     -370.800000
 31
        0.000000
  0
LINE
  8
LVL0001
 10
        0.800000
 20
     -355.271711
 30
        0.000000
 11
        0.800000
 21
     -355.000000
 31
        0.000000
  0
LINE
  8
LVL0001
  6
DOT
 10
      123.000000
 20
     -293.000000
 30
        0.000000
 11
       95.000000
 21
     -293.000000
 31
        0.000000
  0
LINE
  8
LVL0001
 10
       17.000030
 20
     -268.000000
 30
        0.000000
 11
       17.000030
 21
     -256.000000
 31
        0.000000
  0
LINE
  8
LVL0001
 10
       17.000030
 20
     -292.000000
 30
        0.000000
 11
       17.000030
 21
     -272.000000
 31
        0.000000
  0
LINE
  8
LVL0001
 10
       15.000030
 20
     -268.000000
 30
        0.000000
 11
       15.000030
 21
     -256.000000
 31
        0.000000
  0
LINE
  8
LVL0001
 10
       15.000030
 20
     -256.000000
 30
        0.000000
 11
       17.000030
 21
     -256.000000
 31
        0.000000
  0
LINE
  8
LVL0001
 10
       15.000030
 20
     -292.000000
 30
        0.000000
 11
       15.000030
 21
     -272.000000
 31
        0.000000
  0
ARC
  8
LVL0001
 10
       14.000030
 20
     -292.000000
 30
        0.000000
 40
        3.000000
 50
      270.000000
 51
      360.000000
  0
LINE
  8
LVL0001
 10
      -13.999970
 20
     -295.000000
 30
        0.000000
 11
       14.000030
 21
     -295.000000
 31
        0.000000
  0
LINE
  8
LVL0001
 10
      -13.999970
 20
     -293.000000
 30
        0.000000
 11
       14.000030
 21
     -293.000000
 31
        0.000000
  0
ARC
  8
LVL0001
 10
       14.000030
 20
     -292.000000
 30
        0.000000
 40
        1.000000
 50
      270.000000
 51
      360.000000
  0
LINE
  8
LVL0001
 10
      -13.999970
 20
     -293.000000
 30
        0.000000
 11
      -13.999970
 21
     -295.000000
 31
        0.000000
  0
TEXT
  8
LVL0000
 62
  2
 10
       59.553688
 20
     -242.668818
 30
        0.000000
 40
        4.000000
  1
IVS20L16
 50
        0.000000
 41
        0.835000
 51
        0.000000
  7
STANDARD
  0
ARC
  8
LVL0000
 10
        0.000000
 20
     -285.000000
 30
        0.000000
 40
       32.000000
 50
       93.583319
 51
      115.679223
  0
ARC
  8
LVL0000
 10
        0.000000
 20
     -285.000000
 30
        0.000000
 40
       32.000000
 50
       64.320647
 51
       86.416676
  0
LINE
  8
LVL0001
 10
        2.000000
 20
     -251.000000
 30
        0.000000
 11
       -2.000000
 21
     -251.000000
 31
        0.000000
  0
LINE
  8
LVL0001
 10
       -2.000000
 20
     -255.000000
 30
        0.000000
 11
       -2.000000
 21
     -251.000000
 31
        0.000000
  0
LINE
  8
LVL0001
 10
       -0.800000
 20
     -255.271711
 30
        0.000000
 11
       -0.800000
 21
     -255.000000
 31
        0.000000
  0
LINE
  8
LVL0001
 10
        2.000000
 20
     -255.000000
 30
        0.000000
 11
       -2.000000
 21
     -255.000000
 31
        0.000000
  0
LINE
  8
LVL0001
 10
        2.000000
 20
     -255.000000
 30
        0.000000
 11
        2.000000
 21
     -251.000000
 31
        0.000000
  0
LINE
  8
LVL0001
 10
        0.800000
 20
     -255.271711
 30
        0.000000
 11
        0.800000
 21
     -255.000000
 31
        0.000000
  0
LINE
  8
LVL0001
 10
       14.728289
 20
     -270.800000
 30
        0.000000
 11
       15.000000
 21
     -270.800000
 31
        0.000000
  0
LINE
  8
LVL0001
 10
       15.000000
 20
     -272.000000
 30
        0.000000
 11
       19.000000
 21
     -272.000000
 31
        0.000000
  0
LINE
  8
LVL0001
 10
       15.000000
 20
     -272.000000
 30
        0.000000
 11
       15.000000
 21
     -268.000000
 31
        0.000000
  0
LINE
  8
LVL0001
 10
       14.728289
 20
     -269.200000
 30
        0.000000
 11
       15.000000
 21
     -269.200000
 31
        0.000000
  0
LINE
  8
LVL0001
 10
       15.000000
 20
     -268.000000
 30
        0.000000
 11
       19.000000
 21
     -268.000000
 31
        0.000000
  0
LINE
  8
LVL0001
 10
       19.000000
 20
     -272.000000
 30
        0.000000
 11
       19.000000
 21
     -268.000000
 31
        0.000000
  0
CIRCLE
  8
LVL0001
 10
        0.000000
 20
     -270.000000
 30
        0.000000
 40
        5.385837
  0
CIRCLE
  8
LVL0001
 10
        0.000000
 20
     -270.000000
 30
        0.000000
 40
       14.500000
  0
CIRCLE
  8
LVL0001
 10
        0.000000
 20
     -270.000000
 30
        0.000000
 40
       14.000000
  0
CIRCLE
  8
LVL0001
 10
        0.000000
 20
     -270.000000
 30
        0.000000
 40
       14.750000
  0
LINE
  8
LVL0001
 10
       81.300000
 20
     -268.677124
 30
        0.000000
 11
       81.300000
 21
     -255.250000
 31
        0.000000
  0
LINE
  8
LVL0001
 10
       81.300000
 20
     -284.750000
 30
        0.000000
 11
       81.300000
 21
     -271.322876
 31
        0.000000
  0
LINE
  8
LVL0001
 10
       75.400000
 20
     -251.000000
 30
        0.000000
 11
       79.400000
 21
     -251.000000
 31
        0.000000
  0
LINE
  8
LVL0001
 10
       78.200000
 20
     -255.500000
 30
        0.000000
 11
       78.200000
 21
     -255.000000
 31
        0.000000
  0
LINE
  8
LVL0001
 10
       76.600000
 20
     -255.500000
 30
        0.000000
 11
       76.600000
 21
     -255.000000
 31
        0.000000
  0
CIRCLE
  8
LVL0001
 10
       82.800000
 20
     -270.000000
 30
        0.000000
 40
        2.000000
  0
LINE
  8
LVL0001
 10
       81.300000
 20
     -284.750000
 30
        0.000000
 11
       90.000000
 21
     -284.750000
 31
        0.000000
  0
LINE
  8
LVL0001
 10
       81.300000
 20
     -255.250000
 30
        0.000000
 11
       90.000000
 21
     -255.250000
 31
        0.000000
  0
LINE
  8
LVL0001
 10
       75.600000
 20
     -255.500000
 30
        0.000000
 11
       81.300000
 21
     -255.500000
 31
        0.000000
  0
LINE
  8
LVL0001
 10
       75.600000
 20
     -284.500000
 30
        0.000000
 11
       81.300000
 21
     -284.500000
 31
        0.000000
  0
LINE
  8
LVL0001
 10
       61.500000
 20
     -256.000000
 30
        0.000000
 11
       75.600000
 21
     -256.000000
 31
        0.000000
  0
LINE
  8
LVL0001
 10
       61.500000
 20
     -284.000000
 30
        0.000000
 11
       75.600000
 21
     -284.000000
 31
        0.000000
  0
LINE
  8
LVL0001
 10
       90.000000
 20
     -284.750000
 30
        0.000000
 11
       90.000000
 21
     -255.250000
 31
        0.000000
  0
LINE
  8
LVL0001
 10
       75.600000
 20
     -284.500000
 30
        0.000000
 11
       75.600000
 21
     -255.500000
 31
        0.000000
  0
LINE
  8
LVL0001
 10
       61.500000
 20
     -284.000000
 30
        0.000000
 11
       61.500000
 21
     -256.000000
 31
        0.000000
  0
LINE
  8
LVL0001
 10
       79.400000
 20
     -255.000000
 30
        0.000000
 11
       79.400000
 21
     -251.000000
 31
        0.000000
  0
LINE
  8
LVL0001
 10
       75.400000
 20
     -255.000000
 30
        0.000000
 11
       75.400000
 21
     -251.000000
 31
        0.000000
  0
LINE
  8
LVL0001
 10
       75.400000
 20
     -255.000000
 30
        0.000000
 11
       79.400000
 21
     -255.000000
 31
        0.000000
  0
ARC
  8
LVL0001
 10
      117.500000
 20
     -270.000000
 30
        0.000000
 40
        8.400000
 50
      260.000003
 51
      280.000002
  0
ARC
  8
LVL0001
 10
      117.500000
 20
     -270.000000
 30
        0.000000
 40
       11.600000
 50
      260.000003
 51
      280.000002
  0
ARC
  8
LVL0001
 10
      117.500000
 20
     -270.000000
 30
        0.000000
 40
       11.600000
 50
       79.999998
 51
       99.999997
  0
ARC
  8
LVL0001
 10
      117.500000
 20
     -270.000000
 30
        0.000000
 40
        8.400000
 50
       79.999998
 51
       99.999997
  0
ARC
  8
LVL0001
 10
      115.763518
 20
     -279.848078
 30
        0.000000
 40
        1.600000
 50
       79.999998
 51
      260.000003
  0
ARC
  8
LVL0001
 10
      119.236482
 20
     -279.848078
 30
        0.000000
 40
        1.600000
 50
      280.000002
 51
      459.999997
  0
ARC
  8
LVL0001
 10
      115.763518
 20
     -260.151922
 30
        0.000000
 40
        1.600000
 50
       99.999997
 51
      280.000002
  0
ARC
  8
LVL0001
 10
      119.236482
 20
     -260.151922
 30
        0.000000
 40
        1.600000
 50
      260.000003
 51
      439.999998
  0
LINE
  8
LVL0001
 10
      121.000000
 20
     -256.000000
 30
        0.000000
 11
       97.000000
 21
     -256.000000
 31
        0.000000
  0
LINE
  8
LVL0001
 10
      123.000000
 20
     -258.000000
 30
        0.000000
 11
      123.000000
 21
     -295.000000
 31
        0.000000
  0
ARC
  8
LVL0001
 10
      121.000000
 20
     -258.000000
 30
        0.000000
 40
        2.000000
 50
        0.000000
 51
       90.000000
  0
LINE
  8
LVL0001
 10
      123.000000
 20
     -295.000000
 30
        0.000000
 11
       95.000000
 21
     -295.000000
 31
        0.000000
  0
LINE
  8
LVL0001
 10
       95.000000
 20
     -258.000000
 30
        0.000000
 11
       95.000000
 21
     -295.000000
 31
        0.000000
  0
ARC
  8
LVL0001
 10
       97.000000
 20
     -258.000000
 30
        0.000000
 40
        2.000000
 50
       90.000000
 51
      179.999995
  0
LINE
  8
LVL0000
 10
       -0.300000
 20
     -255.000029
 30
        0.000000
 11
        0.300000
 21
     -255.000029
 31
        0.000000
  0
ARC
  8
LVL0000
 10
      -12.999970
 20
     -283.000000
 30
        0.000000
 40
        2.000000
 50
      179.999995
 51
      270.000000
  0
LINE
  8
LVL0000
 10
      -12.999970
 20
     -285.000000
 30
        0.000000
 11
       13.000030
 21
     -285.000000
 31
        0.000000
  0
ARC
  8
LVL0000
 10
       13.000030
 20
     -283.000000
 30
        0.000000
 40
        2.000000
 50
      270.000000
 51
      360.000000
  0
LINE
  8
LVL0000
 10
       15.000030
 20
     -283.000000
 30
        0.000000
 11
       15.000030
 21
     -257.963003
 31
        0.000000
  0
ARC
  8
LVL0000
 10
       13.000030
 20
     -257.963003
 30
        0.000000
 40
        2.000000
 50
        0.000000
 51
       64.320647
  0
LINE
  8
LVL0000
 10
      -14.999970
 20
     -283.000000
 30
        0.000000
 11
      -14.999970
 21
     -257.962974
 31
        0.000000
  0
ARC
  8
LVL0000
 10
      -12.999970
 20
     -257.962974
 30
        0.000000
 40
        2.000000
 50
      115.679223
 51
      179.999995
  0
CIRCLE
  8
LVL0000
 10
        0.000000
 20
     -270.000000
 30
        0.000000
 40
       14.500000
  0
TEXT
  8
LVL0000
 62
  2
 10
       59.553688
 20
     -142.668818
 30
        0.000000
 40
        4.000000
  1
IVS20L16
 50
        0.000000
 41
        0.835000
 51
        0.000000
  7
STANDARD
  0
ARC
  8
LVL0000
 10
        0.000000
 20
     -185.000000
 30
        0.000000
 40
       32.000000
 50
       93.583319
 51
      115.679223
  0
ARC
  8
LVL0000
 10
        0.000000
 20
     -185.000000
 30
        0.000000
 40
       32.000000
 50
       64.320647
 51
       86.416676
  0
LINE
  8
LVL0001
 10
       17.000030
 20
     -168.000000
 30
        0.000000
 11
       17.000030
 21
     -156.000000
 31
        0.000000
  0
LINE
  8
LVL0001
 10
       17.000030
 20
     -192.000000
 30
        0.000000
 11
       17.000030
 21
     -172.000000
 31
        0.000000
  0
LINE
  8
LVL0001
 10
        2.000000
 20
     -151.000000
 30
        0.000000
 11
       -2.000000
 21
     -151.000000
 31
        0.000000
  0
LINE
  8
LVL0001
 10
       -2.000000
 20
     -155.000000
 30
        0.000000
 11
       -2.000000
 21
     -151.000000
 31
        0.000000
  0
LINE
  8
LVL0001
 10
       -0.800000
 20
     -155.271711
 30
        0.000000
 11
       -0.800000
 21
     -155.000000
 31
        0.000000
  0
LINE
  8
LVL0001
 10
        2.000000
 20
     -155.000000
 30
        0.000000
 11
       -2.000000
 21
     -155.000000
 31
        0.000000
  0
LINE
  8
LVL0001
 10
        2.000000
 20
     -155.000000
 30
        0.000000
 11
        2.000000
 21
     -151.000000
 31
        0.000000
  0
LINE
  8
LVL0001
 10
        0.800000
 20
     -155.271711
 30
        0.000000
 11
        0.800000
 21
     -155.000000
 31
        0.000000
  0
LINE
  8
LVL0001
 10
       14.728289
 20
     -170.800000
 30
        0.000000
 11
       15.000000
 21
     -170.800000
 31
        0.000000
  0
LINE
  8
LVL0001
 10
       15.000000
 20
     -172.000000
 30
        0.000000
 11
       19.000000
 21
     -172.000000
 31
        0.000000
  0
LINE
  8
LVL0001
 10
       15.000000
 20
     -172.000000
 30
        0.000000
 11
       15.000000
 21
     -168.000000
 31
        0.000000
  0
LINE
  8
LVL0001
 10
       14.728289
 20
     -169.200000
 30
        0.000000
 11
       15.000000
 21
     -169.200000
 31
        0.000000
  0
LINE
  8
LVL0001
 10
       15.000000
 20
     -168.000000
 30
        0.000000
 11
       19.000000
 21
     -168.000000
 31
        0.000000
  0
LINE
  8
LVL0001
 10
       19.000000
 20
     -172.000000
 30
        0.000000
 11
       19.000000
 21
     -168.000000
 31
        0.000000
  0
CIRCLE
  8
LVL0001
 10
        0.000000
 20
     -170.000000
 30
        0.000000
 40
        5.385837
  0
CIRCLE
  8
LVL0001
 10
        0.000000
 20
     -170.000000
 30
        0.000000
 40
       14.500000
  0
CIRCLE
  8
LVL0001
 10
        0.000000
 20
     -170.000000
 30
        0.000000
 40
       14.000000
  0
CIRCLE
  8
LVL0001
 10
        0.000000
 20
     -170.000000
 30
        0.000000
 40
       14.750000
  0
LINE
  8
LVL0001
 10
       81.300000
 20
     -168.677124
 30
        0.000000
 11
       81.300000
 21
     -155.250000
 31
        0.000000
  0
LINE
  8
LVL0001
 10
       81.300000
 20
     -184.750000
 30
        0.000000
 11
       81.300000
 21
     -171.322876
 31
        0.000000
  0
LINE
  8
LVL0001
 10
       75.400000
 20
     -151.000000
 30
        0.000000
 11
       79.400000
 21
     -151.000000
 31
        0.000000
  0
LINE
  8
LVL0001
 10
       78.200000
 20
     -155.500000
 30
        0.000000
 11
       78.200000
 21
     -155.000000
 31
        0.000000
  0
LINE
  8
LVL0001
 10
       76.600000
 20
     -155.500000
 30
        0.000000
 11
       76.600000
 21
     -155.000000
 31
        0.000000
  0
CIRCLE
  8
LVL0001
 10
       82.800000
 20
     -170.000000
 30
        0.000000
 40
        2.000000
  0
LINE
  8
LVL0001
 10
       81.300000
 20
     -184.750000
 30
        0.000000
 11
       90.000000
 21
     -184.750000
 31
        0.000000
  0
LINE
  8
LVL0001
 10
       81.300000
 20
     -155.250000
 30
        0.000000
 11
       90.000000
 21
     -155.250000
 31
        0.000000
  0
LINE
  8
LVL0001
 10
       75.600000
 20
     -155.500000
 30
        0.000000
 11
       81.300000
 21
     -155.500000
 31
        0.000000
  0
LINE
  8
LVL0001
 10
       75.600000
 20
     -184.500000
 30
        0.000000
 11
       81.300000
 21
     -184.500000
 31
        0.000000
  0
LINE
  8
LVL0001
 10
       61.500000
 20
     -156.000000
 30
        0.000000
 11
       75.600000
 21
     -156.000000
 31
        0.000000
  0
LINE
  8
LVL0001
 10
       61.500000
 20
     -184.000000
 30
        0.000000
 11
       75.600000
 21
     -184.000000
 31
        0.000000
  0
LINE
  8
LVL0001
 10
       90.000000
 20
     -184.750000
 30
        0.000000
 11
       90.000000
 21
     -155.250000
 31
        0.000000
  0
LINE
  8
LVL0001
 10
       75.600000
 20
     -184.500000
 30
        0.000000
 11
       75.600000
 21
     -155.500000
 31
        0.000000
  0
LINE
  8
LVL0001
 10
       61.500000
 20
     -184.000000
 30
        0.000000
 11
       61.500000
 21
     -156.000000
 31
        0.000000
  0
LINE
  8
LVL0001
 10
       79.400000
 20
     -155.000000
 30
        0.000000
 11
       79.400000
 21
     -151.000000
 31
        0.000000
  0
LINE
  8
LVL0001
 10
       75.400000
 20
     -155.000000
 30
        0.000000
 11
       75.400000
 21
     -151.000000
 31
        0.000000
  0
LINE
  8
LVL0001
 10
       75.400000
 20
     -155.000000
 30
        0.000000
 11
       79.400000
 21
     -155.000000
 31
        0.000000
  0
LINE
  8
LVL0001
 10
      123.000000
 20
     -193.000000
 30
        0.000000
 11
       95.000000
 21
     -193.000000
 31
        0.000000
  0
LINE
  8
LVL0001
 10
       46.000030
 20
     -193.000000
 30
        0.000000
 11
       46.000030
 21
     -195.000000
 31
        0.000000
  0
LINE
  8
LVL0001
 10
       17.000030
 20
     -156.000000
 30
        0.000000
 11
       15.000030
 21
     -156.000000
 31
        0.000000
  0
ARC
  8
LVL0001
 10
       18.000030
 20
     -192.000000
 30
        0.000000
 40
        1.000000
 50
      179.999995
 51
      270.000000
  0
LINE
  8
LVL0001
 10
       46.000030
 20
     -193.000000
 30
        0.000000
 11
       18.000030
 21
     -193.000000
 31
        0.000000
  0
LINE
  8
LVL0001
 10
       46.000030
 20
     -195.000000
 30
        0.000000
 11
       18.000030
 21
     -195.000000
 31
        0.000000
  0
ARC
  8
LVL0001
 10
       18.000030
 20
     -192.000000
 30
        0.000000
 40
        3.000000
 50
      179.999995
 51
      270.000000
  0
LINE
  8
LVL0001
 10
       15.000030
 20
     -192.000000
 30
        0.000000
 11
       15.000030
 21
     -156.000000
 31
        0.000000
  0
ARC
  8
LVL0001
 10
      117.500000
 20
     -170.000000
 30
        0.000000
 40
        8.400000
 50
      260.000003
 51
      280.000002
  0
ARC
  8
LVL0001
 10
      117.500000
 20
     -170.000000
 30
        0.000000
 40
       11.600000
 50
      260.000003
 51
      280.000002
  0
ARC
  8
LVL0001
 10
      117.500000
 20
     -170.000000
 30
        0.000000
 40
       11.600000
 50
       79.999998
 51
       99.999997
  0
ARC
  8
LVL0001
 10
      117.500000
 20
     -170.000000
 30
        0.000000
 40
        8.400000
 50
       79.999998
 51
       99.999997
  0
ARC
  8
LVL0001
 10
      115.763518
 20
     -179.848078
 30
        0.000000
 40
        1.600000
 50
       79.999998
 51
      260.000003
  0
ARC
  8
LVL0001
 10
      119.236482
 20
     -179.848078
 30
        0.000000
 40
        1.600000
 50
      280.000002
 51
      459.999997
  0
ARC
  8
LVL0001
 10
      115.763518
 20
     -160.151922
 30
        0.000000
 40
        1.600000
 50
       99.999997
 51
      280.000002
  0
ARC
  8
LVL0001
 10
      119.236482
 20
     -160.151922
 30
        0.000000
 40
        1.600000
 50
      260.000003
 51
      439.999998
  0
LINE
  8
LVL0001
 10
      121.000000
 20
     -156.000000
 30
        0.000000
 11
       97.000000
 21
     -156.000000
 31
        0.000000
  0
LINE
  8
LVL0001
 10
      123.000000
 20
     -158.000000
 30
        0.000000
 11
      123.000000
 21
     -195.000000
 31
        0.000000
  0
ARC
  8
LVL0001
 10
      121.000000
 20
     -158.000000
 30
        0.000000
 40
        2.000000
 50
        0.000000
 51
       90.000000
  0
LINE
  8
LVL0001
 10
      123.000000
 20
     -195.000000
 30
        0.000000
 11
       95.000000
 21
     -195.000000
 31
        0.000000
  0
LINE
  8
LVL0001
 10
       95.000000
 20
     -158.000000
 30
        0.000000
 11
       95.000000
 21
     -195.000000
 31
        0.000000
  0
ARC
  8
LVL0001
 10
       97.000000
 20
     -158.000000
 30
        0.000000
 40
        2.000000
 50
       90.000000
 51
      179.999995
  0
LINE
  8
LVL0000
 10
       -0.300000
 20
     -155.000029
 30
        0.000000
 11
        0.300000
 21
     -155.000029
 31
        0.000000
  0
ARC
  8
LVL0000
 10
      -12.999970
 20
     -183.000000
 30
        0.000000
 40
        2.000000
 50
      179.999995
 51
      270.000000
  0
LINE
  8
LVL0000
 10
      -12.999970
 20
     -185.000000
 30
        0.000000
 11
       13.000030
 21
     -185.000000
 31
        0.000000
  0
ARC
  8
LVL0000
 10
       13.000030
 20
     -183.000000
 30
        0.000000
 40
        2.000000
 50
      270.000000
 51
      360.000000
  0
LINE
  8
LVL0000
 10
       15.000030
 20
     -183.000000
 30
        0.000000
 11
       15.000030
 21
     -157.963003
 31
        0.000000
  0
ARC
  8
LVL0000
 10
       13.000030
 20
     -157.963003
 30
        0.000000
 40
        2.000000
 50
        0.000000
 51
       64.320647
  0
LINE
  8
LVL0000
 10
      -14.999970
 20
     -183.000000
 30
        0.000000
 11
      -14.999970
 21
     -157.962974
 31
        0.000000
  0
ARC
  8
LVL0000
 10
      -12.999970
 20
     -157.962974
 30
        0.000000
 40
        2.000000
 50
      115.679223
 51
      179.999995
  0
CIRCLE
  8
LVL0000
 10
        0.000000
 20
     -170.000000
 30
        0.000000
 40
       14.500000
  0
LINE
  8
LVL0001
  6
DOT
 10
      379.000000
 20
      -17.000000
 30
        0.000000
 11
      351.000000
 21
      -17.000000
 31
        0.000000
  0
LINE
  8
LVL0001
  6
DOT
 10
      412.000000
 20
        4.499970
 30
        0.000000
 11
      412.000000
 21
       32.499970
 31
        0.000000
  0
DIMENSION
  8
LVL0000
 62
  4
  2
BLK0004
 10
      396.532349
 20
      -46.000000
 11
      395.832336
 21
      -33.523056
 13
      410.000000
 23
      -46.000000
 14
      413.000000
 24
      -15.000000
 50
       90.0
 70
  0
  0
DIMENSION
  8
LVL0000
 62
  4
  2
BLK0005
 10
      449.000000
 20
       -6.516749
 11
      427.251801
 21
       -5.816749
 13
      449.000000
 23
      -15.000000
 14
      410.000000
 24
      -18.000000
 50
        0.0
 70
  0
  0
LINE
  8
LVL0001
 10
      413.000000
 20
      -15.000000
 30
        0.000000
 11
      449.000000
 21
      -15.000000
 31
        0.000000
  0
ARC
  8
LVL0001
 10
      413.000000
 20
      -18.000000
 30
        0.000000
 40
        3.000000
 50
       90.000000
 51
      179.999995
  0
LINE
  8
LVL0001
 10
      410.000000
 20
      -46.000000
 30
        0.000000
 11
      410.000000
 21
      -18.000000
 31
        0.000000
  0
ARC
  8
LVL0001
 10
      356.339746
 20
      -27.000030
 30
        0.000000
 40
        1.600000
 50
      330.000001
 51
      509.999996
  0
ARC
  8
LVL0001
 10
      365.000000
 20
      -32.000030
 30
        0.000000
 40
        8.400000
 50
      149.999996
 51
      210.000004
  0
ARC
  8
LVL0001
 10
      356.339746
 20
      -37.000030
 30
        0.000000
 40
        1.600000
 50
      210.000004
 51
      389.999999
  0
ARC
  8
LVL0001
 10
      365.000000
 20
      -32.000030
 30
        0.000000
 40
       11.600000
 50
      149.999996
 51
      210.000004
  0
ARC
  8
LVL0001
 10
      365.000000
 20
      -32.000030
 30
        0.000000
 40
        8.400000
 50
      330.000001
 51
      389.999999
  0
ARC
  8
LVL0001
 10
      365.000000
 20
      -32.000030
 30
        0.000000
 40
       11.600000
 50
      330.000001
 51
      389.999999
  0
ARC
  8
LVL0001
 10
      373.660254
 20
      -37.000030
 30
        0.000000
 40
        1.600000
 50
      149.999996
 51
      330.000001
  0
ARC
  8
LVL0001
 10
      373.660254
 20
      -27.000030
 30
        0.000000
 40
        1.600000
 50
       29.999999
 51
      210.000004
  0
CIRCLE
  8
LVL0001
 10
      365.000000
 20
      -32.000030
 30
        0.000000
 40
        2.500000
  0
CIRCLE
  8
LVL0001
 10
      365.000000
 20
      -32.000030
 30
        0.000000
 40
        3.175000
  0
LINE
  8
LVL0001
 10
      412.000000
 20
      -46.000000
 30
        0.000000
 11
      412.000000
 21
      -18.000000
 31
        0.000000
  0
ARC
  8
LVL0001
 10
      413.000000
 20
      -18.000000
 30
        0.000000
 40
        1.000000
 50
       90.000000
 51
      179.999995
  0
LINE
  8
LVL0001
 10
      413.000000
 20
      -17.000000
 30
        0.000000
 11
      449.000000
 21
      -17.000000
 31
        0.000000
  0
LINE
  8
LVL0001
 10
      449.000000
 20
      -17.000000
 30
        0.000000
 11
      449.000000
 21
      -15.000000
 31
        0.000000
  0
LINE
  8
LVL0001
 10
      412.000000
 20
      -46.000000
 30
        0.000000
 11
      410.000000
 21
      -46.000000
 31
        0.000000
  0
LINE
  8
LVL0001
 10
      351.000000
 20
      -44.000000
 30
        0.000000
 11
      351.000000
 21
      -15.000000
 31
        0.000000
  0
ARC
  8
LVL0001
 10
      353.000000
 20
      -44.000000
 30
        0.000000
 40
        2.000000
 50
      179.999995
 51
      270.000000
  0
LINE
  8
LVL0001
 10
      379.000000
 20
      -44.000000
 30
        0.000000
 11
      379.000000
 21
      -15.000000
 31
        0.000000
  0
LINE
  8
LVL0001
 10
      379.000000
 20
      -15.000000
 30
        0.000000
 11
      351.000000
 21
      -15.000000
 31
        0.000000
  0
ARC
  8
LVL0001
 10
      377.000000
 20
      -44.000000
 30
        0.000000
 40
        2.000000
 50
      270.000000
 51
      360.000000
  0
LINE
  8
LVL0001
 10
      377.000000
 20
      -46.000000
 30
        0.000000
 11
      353.000000
 21
      -46.000000
 31
        0.000000
  0
ARC
  8
LVL0001
 10
      444.848078
 20
        8.263489
 30
        0.000000
 40
        1.600000
 50
      169.999995
 51
      350.000000
  0
ARC
  8
LVL0001
 10
      444.848078
 20
       11.736452
 30
        0.000000
 40
        1.600000
 50
       10.000000
 51
      190.000005
  0
ARC
  8
LVL0001
 10
      425.151922
 20
        8.263489
 30
        0.000000
 40
        1.600000
 50
      190.000005
 51
      370.000000
  0
ARC
  8
LVL0001
 10
      425.151922
 20
       11.736452
 30
        0.000000
 40
        1.600000
 50
      350.000000
 51
      529.999995
  0
ARC
  8
LVL0001
 10
      435.000000
 20
        9.999970
 30
        0.000000
 40
        8.400000
 50
      350.000000
 51
      370.000000
  0
ARC
  8
LVL0001
 10
      435.000000
 20
        9.999970
 30
        0.000000
 40
       11.600000
 50
      350.000000
 51
      370.000000
  0
ARC
  8
LVL0001
 10
      435.000000
 20
        9.999970
 30
        0.000000
 40
       11.600000
 50
      169.999995
 51
      190.000005
  0
ARC
  8
LVL0001
 10
      435.000000
 20
        9.999970
 30
        0.000000
 40
        8.400000
 50
      169.999995
 51
      190.000005
  0
ARC
  8
LVL0001
 10
      435.000000
 20
       26.999970
 30
        0.000000
 40
        8.400000
 50
      169.999995
 51
      190.000005
  0
ARC
  8
LVL0001
 10
      435.000000
 20
       26.999970
 30
        0.000000
 40
       11.600000
 50
      169.999995
 51
      190.000005
  0
ARC
  8
LVL0001
 10
      435.000000
 20
       26.999970
 30
        0.000000
 40
       11.600000
 50
      350.000000
 51
      370.000000
  0
ARC
  8
LVL0001
 10
      435.000000
 20
       26.999970
 30
        0.000000
 40
        8.400000
 50
      350.000000
 51
      370.000000
  0
ARC
  8
LVL0001
 10
      425.151922
 20
       25.263489
 30
        0.000000
 40
        1.600000
 50
      190.000005
 51
      370.000000
  0
ARC
  8
LVL0001
 10
      425.151922
 20
       28.736452
 30
        0.000000
 40
        1.600000
 50
      350.000000
 51
      529.999995
  0
ARC
  8
LVL0001
 10
      444.848078
 20
       25.263489
 30
        0.000000
 40
        1.600000
 50
      169.999995
 51
      350.000000
  0
ARC
  8
LVL0001
 10
      444.848078
 20
       28.736452
 30
        0.000000
 40
        1.600000
 50
       10.000000
 51
      190.000005
  0
ARC
  8
LVL0001
 10
      447.000000
 20
       30.499970
 30
        0.000000
 40
        2.000000
 50
        0.000000
 51
       90.000000
  0
LINE
  8
LVL0001
 10
      447.000000
 20
       32.499970
 30
        0.000000
 11
      410.000000
 21
       32.499970
 31
        0.000000
  0
LINE
  8
LVL0001
 10
      410.000000
 20
        4.499970
 30
        0.000000
 11
      410.000000
 21
       32.499970
 31
        0.000000
  0
DIMENSION
  8
LVL0000
 62
  4
  2
BLK0006
 10
      397.781799
 20
        4.499970
 11
      397.081787
 21
       15.944556
 13
      410.000000
 23
        4.499970
 14
      410.000000
 24
       32.499969
 50
       90.0
 70
  0
  0
ARC
  8
LVL0001
 10
      447.000000
 20
        6.499970
 30
        0.000000
 40
        2.000000
 50
      270.000000
 51
      360.000000
  0
LINE
  8
LVL0001
 10
      447.000000
 20
        4.499970
 30
        0.000000
 11
      410.000000
 21
        4.499970
 31
        0.000000
  0
LINE
  8
LVL0001
 10
      449.000000
 20
        6.499970
 30
        0.000000
 11
      449.000000
 21
       30.499970
 31
        0.000000
  0
TEXT
  8
LVL0000
 62
  2
 10
      354.291022
 20
       15.944556
 30
        0.000000
 40
        4.000000
  1
ANGLE
 50
        0.000000
 41
        0.835000
 51
        0.000000
  7
STANDARD
  0
CIRCLE
  8
LVL0000
 10
        0.000000
 20
        0.000000
 30
        0.000000
 40
       14.500000
  0
TEXT
  8
LVL0000
 62
  2
 10
      140.482436
 20
       25.535287
 30
        0.000000
 40
        4.000000
  1
IVS30KC7
 50
        0.000000
 41
        0.835000
 51
        0.000000
  7
STANDARD
  0
TEXT
  8
LVL0000
 62
  2
 10
      140.482436
 20
       31.535287
 30
        0.000000
 40
        4.000000
  1
IVS30KC5
 50
        0.000000
 41
        0.835000
 51
        0.000000
  7
STANDARD
  0
TEXT
  8
LVL0000
 62
  2
 10
      140.482436
 20
       37.535287
 30
        0.000000
 40
        4.000000
  1
IVS30KC3
 50
        0.000000
 41
        0.835000
 51
        0.000000
  7
STANDARD
  0
TEXT
  8
LVL0000
 62
  2
 10
       44.823198
 20
       61.453523
 30
        0.000000
 40
        4.000000
  1
IVS30C1
 50
        0.000000
 41
        0.835000
 51
        0.000000
  7
STANDARD
  0
TEXT
  8
LVL0000
 62
  2
 10
      134.739318
 20
      -25.591038
 30
        0.000000
 40
        3.500000
  1
IVS30KC5=5000
 50
        0.000000
 41
        0.835000
 51
        0.000000
  7
STANDARD
  0
DIMENSION
  8
LVL0000
 62
  4
  2
BLK0007
 10
      123.300049
 20
      -20.327654
 11
      134.739319
 21
      -19.627655
 13
      123.300049
 23
       -4.500004
 14
      190.931091
 24
       -4.500004
 50
        0.0
 70
  0
  0
LINE
  8
LVL0000
 10
      221.431099
 20
        7.349972
 30
        0.000000
 11
      221.431099
 21
       -7.349979
 31
        0.000000
  0
LINE
  8
LVL0000
 10
      222.431099
 20
        7.349972
 30
        0.000000
 11
      222.431099
 21
       -7.349979
 31
        0.000000
  0
LINE
  8
LVL0000
 10
      223.431099
 20
        7.349972
 30
        0.000000
 11
      223.431099
 21
       -7.349979
 31
        0.000000
  0
LINE
  8
LVL0000
 10
      224.431099
 20
        7.349972
 30
        0.000000
 11
      224.431099
 21
       -7.349979
 31
        0.000000
  0
LINE
  8
LVL0000
 10
      225.431099
 20
        7.349972
 30
        0.000000
 11
      225.431099
 21
       -7.349979
 31
        0.000000
  0
LINE
  8
LVL0000
 10
      226.431099
 20
        7.349972
 30
        0.000000
 11
      226.431099
 21
       -7.349979
 31
        0.000000
  0
LINE
  8
LVL0000
 10
      227.431099
 20
        7.349972
 30
        0.000000
 11
      227.431099
 21
       -7.349979
 31
        0.000000
  0
LINE
  8
LVL0000
 10
      228.431099
 20
        6.650021
 30
        0.000000
 11
      221.031075
 21
        6.650021
 31
        0.000000
  0
LINE
  8
LVL0000
 10
      228.431099
 20
        5.650021
 30
        0.000000
 11
      221.031075
 21
        5.650021
 31
        0.000000
  0
LINE
  8
LVL0000
 10
      228.431099
 20
        4.650021
 30
        0.000000
 11
      221.031075
 21
        4.650021
 31
        0.000000
  0
LINE
  8
LVL0000
 10
      228.431099
 20
        3.650021
 30
        0.000000
 11
      221.031075
 21
        3.650021
 31
        0.000000
  0
LINE
  8
LVL0000
 10
      228.431099
 20
        2.650021
 30
        0.000000
 11
      221.031075
 21
        2.650021
 31
        0.000000
  0
LINE
  8
LVL0000
 10
      228.431099
 20
        1.650021
 30
        0.000000
 11
      221.031075
 21
        1.650021
 31
        0.000000
  0
LINE
  8
LVL0000
 10
      228.431099
 20
        0.650021
 30
        0.000000
 11
      221.031075
 21
        0.650021
 31
        0.000000
  0
LINE
  8
LVL0000
 10
      228.431099
 20
       -0.349979
 30
        0.000000
 11
      221.031075
 21
       -0.349979
 31
        0.000000
  0
LINE
  8
LVL0000
 10
      228.431099
 20
       -1.349979
 30
        0.000000
 11
      221.031075
 21
       -1.349979
 31
        0.000000
  0
LINE
  8
LVL0000
 10
      228.431099
 20
       -2.349979
 30
        0.000000
 11
      221.031075
 21
       -2.349979
 31
        0.000000
  0
LINE
  8
LVL0000
 10
      228.431099
 20
       -3.349979
 30
        0.000000
 11
      221.031075
 21
       -3.349979
 31
        0.000000
  0
LINE
  8
LVL0000
 10
      228.431099
 20
       -4.349979
 30
        0.000000
 11
      221.031075
 21
       -4.349979
 31
        0.000000
  0
LINE
  8
LVL0000
 10
      228.431099
 20
       -5.349979
 30
        0.000000
 11
      221.031075
 21
       -5.349979
 31
        0.000000
  0
LINE
  8
LVL0000
 10
      228.431099
 20
       -6.349979
 30
        0.000000
 11
      221.031075
 21
       -6.349979
 31
        0.000000
  0
LINE
  8
LVL0000
 10
       80.800049
 20
        6.650021
 30
        0.000000
 11
       88.200073
 21
        6.650021
 31
        0.000000
  0
LINE
  8
LVL0000
 10
       80.800049
 20
        5.650021
 30
        0.000000
 11
       88.200073
 21
        5.650021
 31
        0.000000
  0
LINE
  8
LVL0000
 10
       80.800049
 20
        4.650021
 30
        0.000000
 11
       88.200073
 21
        4.650021
 31
        0.000000
  0
LINE
  8
LVL0000
 10
       80.800049
 20
        3.650021
 30
        0.000000
 11
       88.200073
 21
        3.650021
 31
        0.000000
  0
LINE
  8
LVL0000
 10
       80.800049
 20
        2.650021
 30
        0.000000
 11
       88.200073
 21
        2.650021
 31
        0.000000
  0
LINE
  8
LVL0000
 10
       80.800049
 20
        1.650021
 30
        0.000000
 11
       88.200073
 21
        1.650021
 31
        0.000000
  0
LINE
  8
LVL0000
 10
       80.800049
 20
        0.650021
 30
        0.000000
 11
       88.200073
 21
        0.650021
 31
        0.000000
  0
LINE
  8
LVL0000
 10
       80.800049
 20
       -0.349979
 30
        0.000000
 11
       88.200073
 21
       -0.349979
 31
        0.000000
  0
LINE
  8
LVL0000
 10
       80.800049
 20
       -1.349979
 30
        0.000000
 11
       88.200073
 21
       -1.349979
 31
        0.000000
  0
LINE
  8
LVL0000
 10
       80.800049
 20
       -2.349979
 30
        0.000000
 11
       88.200073
 21
       -2.349979
 31
        0.000000
  0
LINE
  8
LVL0000
 10
       80.800049
 20
       -3.349979
 30
        0.000000
 11
       88.200073
 21
       -3.349979
 31
        0.000000
  0
LINE
  8
LVL0000
 10
       80.800049
 20
       -4.349979
 30
        0.000000
 11
       88.200073
 21
       -4.349979
 31
        0.000000
  0
LINE
  8
LVL0000
 10
       80.800049
 20
       -5.349979
 30
        0.000000
 11
       88.200073
 21
       -5.349979
 31
        0.000000
  0
LINE
  8
LVL0000
 10
       80.800049
 20
       -6.349979
 30
        0.000000
 11
       88.200073
 21
       -6.349979
 31
        0.000000
  0
LINE
  8
LVL0000
 10
       88.200073
 20
       -7.349979
 30
        0.000000
 11
       88.200073
 21
        7.349972
 31
        0.000000
  0
LINE
  8
LVL0000
 10
       80.800049
 20
       -7.349979
 30
        0.000000
 11
       88.200073
 21
       -7.349979
 31
        0.000000
  0
LINE
  8
LVL0000
 10
       80.800049
 20
        7.349972
 30
        0.000000
 11
       88.200073
 21
        7.349972
 31
        0.000000
  0
LINE
  8
LVL0000
 10
       88.200073
 20
       -7.000004
 30
        0.000000
 11
       94.000000
 21
       -7.000004
 31
        0.000000
  0
LINE
  8
LVL0000
 10
       88.200073
 20
        6.999996
 30
        0.000000
 11
       94.000000
 21
        6.999996
 31
        0.000000
  0
LINE
  8
LVL0000
 10
      123.300053
 20
        4.499996
 30
        0.000000
 11
      110.800053
 21
        6.150021
 31
        0.000000
  0
LINE
  8
LVL0000
 10
      123.300053
 20
       -4.500004
 30
        0.000000
 11
      110.800053
 21
       -6.150028
 31
        0.000000
  0
LINE
  8
LVL0000
 10
       94.800049
 20
        6.099972
 30
        0.000000
 11
       94.000000
 21
        6.999996
 31
        0.000000
  0
LINE
  8
LVL0000
 10
       94.800049
 20
       -6.099979
 30
        0.000000
 11
       94.000000
 21
       -7.000004
 31
        0.000000
  0
LINE
  8
LVL0000
 10
       94.800049
 20
       -6.099979
 30
        0.000000
 11
       94.800049
 21
        6.099972
 31
        0.000000
  0
LINE
  8
LVL0000
 10
       94.800049
 20
       -6.099979
 30
        0.000000
 11
       97.200073
 21
       -6.099979
 31
        0.000000
  0
LINE
  8
LVL0000
 10
       94.800049
 20
        6.099972
 30
        0.000000
 11
       97.200073
 21
        6.099972
 31
        0.000000
  0
LINE
  8
LVL0000
 10
       94.000000
 20
       -7.000004
 30
        0.000000
 11
       94.000000
 21
        6.999996
 31
        0.000000
  0
LINE
  8
LVL0000
 10
      190.931095
 20
        4.299996
 30
        0.000000
 11
      190.931095
 21
       -4.300004
 31
        0.000000
  0
LINE
  8
LVL0000
 10
      100.700073
 20
       -6.750004
 30
        0.000000
 11
      110.800053
 21
       -6.750004
 31
        0.000000
  0
LINE
  8
LVL0000
 10
      100.700073
 20
        6.749996
 30
        0.000000
 11
      110.800053
 21
        6.749996
 31
        0.000000
  0
LINE
  8
LVL0000
 10
      100.700073
 20
       -6.750004
 30
        0.000000
 11
      100.700073
 21
        6.749996
 31
        0.000000
  0
LINE
  8
LVL0000
 10
      123.300053
 20
       -4.500004
 30
        0.000000
 11
      123.300053
 21
        4.499996
 31
        0.000000
  0
LINE
  8
LVL0000
 10
      110.800053
 20
       -6.750004
 30
        0.000000
 11
      110.800053
 21
        6.749996
 31
        0.000000
  0
LINE
  8
LVL0000
 10
       97.200073
 20
       -6.099979
 30
        0.000000
 11
       97.200073
 21
        6.099972
 31
        0.000000
  0
LINE
  8
LVL0000
 10
       97.200073
 20
        6.099972
 30
        0.000000
 11
      100.700073
 21
        6.749996
 31
        0.000000
  0
LINE
  8
LVL0000
 10
      100.700073
 20
       -6.750004
 30
        0.000000
 11
       97.200073
 21
       -6.099979
 31
        0.000000
  0
LINE
  8
LVL0000
 10
      213.531075
 20
        6.749996
 30
        0.000000
 11
      217.031075
 21
        6.099972
 31
        0.000000
  0
LINE
  8
LVL0000
 10
      217.031075
 20
       -6.099979
 30
        0.000000
 11
      213.531075
 21
       -6.750004
 31
        0.000000
  0
LINE
  8
LVL0000
 10
      217.031075
 20
        6.099972
 30
        0.000000
 11
      217.031075
 21
       -6.099979
 31
        0.000000
  0
LINE
  8
LVL0000
 10
      203.431095
 20
        6.749996
 30
        0.000000
 11
      203.431095
 21
       -6.750004
 31
        0.000000
  0
LINE
  8
LVL0000
 10
      213.531075
 20
        6.749996
 30
        0.000000
 11
      213.531075
 21
       -6.750004
 31
        0.000000
  0
LINE
  8
LVL0000
 10
      213.531075
 20
       -6.750004
 30
        0.000000
 11
      203.431095
 21
       -6.750004
 31
        0.000000
  0
LINE
  8
LVL0000
 10
      213.531075
 20
        6.749996
 30
        0.000000
 11
      203.431095
 21
        6.749996
 31
        0.000000
  0
LINE
  8
LVL0000
 10
      233.431148
 20
       -5.000004
 30
        0.000000
 11
      233.431148
 21
        4.999996
 31
        0.000000
  0
LINE
  8
LVL0000
 10
      233.431148
 20
       -7.000004
 30
        0.000000
 11
      233.431148
 21
        6.999996
 31
        0.000000
  0
LINE
  8
LVL0000
 10
      190.931095
 20
       -3.500004
 30
        0.000000
 11
      175.503435
 21
       -3.500004
 31
        0.000000
  0
LINE
  8
LVL0000
 10
      190.931095
 20
        3.499996
 30
        0.000000
 11
      176.612240
 21
        3.499996
 31
        0.000000
  0
LINE
  8
LVL0000
 10
      233.431099
 20
        6.999996
 30
        0.000000
 11
      233.431099
 21
       -7.000004
 31
        0.000000
  0
LINE
  8
LVL0000
 10
      233.431099
 20
        6.999996
 30
        0.000000
 11
      228.431099
 21
        6.999996
 31
        0.000000
  0
LINE
  8
LVL0000
 10
      233.431099
 20
       -7.000004
 30
        0.000000
 11
      228.431099
 21
       -7.000004
 31
        0.000000
  0
LINE
  8
LVL0000
 10
      228.431099
 20
       -7.349979
 30
        0.000000
 11
      221.031075
 21
       -7.349979
 31
        0.000000
  0
LINE
  8
LVL0000
 10
      228.431099
 20
        7.349972
 30
        0.000000
 11
      221.031075
 21
        7.349972
 31
        0.000000
  0
LINE
  8
LVL0000
 10
      221.031075
 20
        7.349972
 30
        0.000000
 11
      221.031075
 21
       -7.349979
 31
        0.000000
  0
LINE
  8
LVL0000
 10
      228.431099
 20
        7.349972
 30
        0.000000
 11
      228.431099
 21
       -7.349979
 31
        0.000000
  0
LINE
  8
LVL0000
 10
      221.031075
 20
       -7.000004
 30
        0.000000
 11
      220.231148
 21
       -7.000004
 31
        0.000000
  0
LINE
  8
LVL0000
 10
      221.031075
 20
        6.999996
 30
        0.000000
 11
      220.231148
 21
        6.999996
 31
        0.000000
  0
LINE
  8
LVL0000
 10
      220.231148
 20
        6.999996
 30
        0.000000
 11
      220.231148
 21
       -7.000004
 31
        0.000000
  0
LINE
  8
LVL0000
 10
      219.431099
 20
       -6.099979
 30
        0.000000
 11
      217.031075
 21
       -6.099979
 31
        0.000000
  0
LINE
  8
LVL0000
 10
      219.431099
 20
        6.099972
 30
        0.000000
 11
      217.031075
 21
        6.099972
 31
        0.000000
  0
LINE
  8
LVL0000
 10
      219.431099
 20
        6.099972
 30
        0.000000
 11
      219.431099
 21
       -6.099979
 31
        0.000000
  0
LINE
  8
LVL0000
 10
      219.431099
 20
        6.099972
 30
        0.000000
 11
      220.231148
 21
        6.999996
 31
        0.000000
  0
LINE
  8
LVL0000
 10
      219.431099
 20
       -6.099979
 30
        0.000000
 11
      220.231148
 21
       -7.000004
 31
        0.000000
  0
LINE
  8
LVL0000
 10
      190.931095
 20
        4.499996
 30
        0.000000
 11
      203.431095
 21
        6.150021
 31
        0.000000
  0
LINE
  8
LVL0000
 10
      190.931095
 20
       -4.500004
 30
        0.000000
 11
      203.431095
 21
       -6.150028
 31
        0.000000
  0
LINE
  8
LVL0000
 10
      123.300053
 20
       -3.500004
 30
        0.000000
 11
      157.618908
 21
       -3.500004
 31
        0.000000
  0
LINE
  8
LVL0000
 10
      123.300053
 20
        3.499996
 30
        0.000000
 11
      158.727713
 21
        3.499996
 31
        0.000000
  0
LINE
  8
LVL0000
 10
      160.727713
 20
        3.499996
 30
        0.000000
 11
      190.931095
 21
        3.499996
 31
        0.000000
  0
LINE
  8
LVL0000
 10
      159.618908
 20
       -3.500004
 30
        0.000000
 11
      190.931095
 21
       -3.500004
 31
        0.000000
  0
INSERT
  8
LVL0000
 62
  2
  2
BLK0008
 10
        0.000000
 20
        0.000000
  0
INSERT
  8
LVL0000
 62
  2
  2
BLK0009
 10
        0.000000
 20
        0.000000
  0
ARC
  8
LVL0000
 10
      -13.000000
 20
      -77.600000
 30
        0.000000
 40
        4.500000
 50
      253.612319
 51
      286.387691
  0
ARC
  8
LVL0000
 10
      -14.100328
 20
      -81.341561
 30
        0.000000
 40
        0.600000
 50
      185.000003
 51
      253.612319
  0
ARC
  8
LVL0000
 10
      -11.899672
 20
      -81.341561
 30
        0.000000
 40
        0.600000
 50
      286.387691
 51
      355.000006
  0
ARC
  8
LVL0000
 10
       13.000000
 20
      -77.600000
 30
        0.000000
 40
        4.500000
 50
      253.612314
 51
      286.387686
  0
ARC
  8
LVL0000
 10
       14.100328
 20
      -81.341561
 30
        0.000000
 40
        0.600000
 50
      286.387686
 51
      355.000002
  0
ARC
  8
LVL0000
 10
       11.899672
 20
      -81.341561
 30
        0.000000
 40
        0.600000
 50
      184.999999
 51
      253.612314
  0
LINE
  8
LVL0000
 10
       -0.400000
 20
       45.686700
 30
        0.000000
 11
        0.400000
 21
       45.686700
 31
        0.000000
  0
LINE
  8
LVL0000
 10
      -12.999970
 20
      -15.000000
 30
        0.000000
 11
       13.000030
 21
      -15.000000
 31
        0.000000
  0
LINE
  8
LVL0000
 10
       -0.300000
 20
       14.999971
 30
        0.000000
 11
        0.300000
 21
       14.999971
 31
        0.000000
  0
LINE
  8
LVL0000
 10
        0.300000
 20
       16.998594
 30
        0.000000
 11
        0.300000
 21
       14.999971
 31
        0.000000
  0
LINE
  8
LVL0000
 10
       -0.300000
 20
       16.998594
 30
        0.000000
 11
       -0.300000
 21
       14.999971
 31
        0.000000
  0
CIRCLE
  8
LVL0000
 10
       -4.500000
 20
       -7.794229
 30
        0.000000
 40
        1.000000
  0
CIRCLE
  8
LVL0000
 10
       -4.500000
 20
        7.794229
 30
        0.000000
 40
        1.000000
  0
CIRCLE
  8
LVL0000
 10
        9.000000
 20
        0.000000
 30
        0.000000
 40
        1.000000
  0
CIRCLE
  8
LVL0000
 10
        0.000000
 20
        0.000000
 30
        0.000000
 40
       11.000000
  0
CIRCLE
  8
LVL0000
 10
        0.000000
 20
        0.000000
 30
        0.000000
 40
        6.500000
  0
CIRCLE
  8
LVL0000
 10
        0.000000
 20
        0.000000
 30
        0.000000
 40
       12.750000
  0
ARC
  8
LVL0000
 10
      -12.999970
 20
      -13.000000
 30
        0.000000
 40
        2.000000
 50
      179.999995
 51
      270.000000
  0
ARC
  8
LVL0000
 10
       13.000030
 20
      -13.000000
 30
        0.000000
 40
        2.000000
 50
      270.000000
 51
      360.000000
  0
LINE
  8
LVL0000
 10
       15.000030
 20
      -13.000000
 30
        0.000000
 11
       15.000030
 21
       12.036997
 31
        0.000000
  0
ARC
  8
LVL0000
 10
       13.000030
 20
       12.036997
 30
        0.000000
 40
        2.000000
 50
        0.000000
 51
       64.320647
  0
ARC
  8
LVL0000
 10
        0.000000
 20
      -15.000000
 30
        0.000000
 40
       32.000000
 50
       64.320647
 51
      115.679223
  0
LINE
  8
LVL0000
 10
      -14.999970
 20
      -13.000000
 30
        0.000000
 11
      -14.999970
 21
       12.037026
 31
        0.000000
  0
ARC
  8
LVL0000
 10
      -12.999970
 20
       12.037026
 30
        0.000000
 40
        2.000000
 50
      115.679223
 51
      179.999995
  0
LINE
  8
LVL0000
 10
      -12.100000
 20
      -82.000000
 30
        0.000000
 11
       12.300000
 21
      -82.000000
 31
        0.000000
  0
LINE
  8
LVL0000
 10
        7.000000
 20
      -82.000000
 30
        0.000000
 11
       -7.000000
 21
      -82.000000
 31
        0.000000
  0
LINE
  8
LVL0000
 10
        7.000000
 20
      -82.800049
 30
        0.000000
 11
       -7.000000
 21
      -82.800049
 31
        0.000000
  0
LINE
  8
LVL0000
 10
       -7.000000
 20
      -82.800049
 30
        0.000000
 11
       -7.000000
 21
      -82.000000
 31
        0.000000
  0
LINE
  8
LVL0000
 10
        7.000000
 20
      -82.800049
 30
        0.000000
 11
        7.000000
 21
      -82.000000
 31
        0.000000
  0
LINE
  8
LVL0000
 10
        6.000003
 20
      -83.600049
 30
        0.000000
 11
        6.500004
 21
      -82.800049
 31
        0.000000
  0
LINE
  8
LVL0000
 10
       -6.000003
 20
      -83.600049
 30
        0.000000
 11
       -6.500004
 21
      -82.800049
 31
        0.000000
  0
LINE
  8
LVL0000
 10
        6.500003
 20
      -83.600049
 30
        0.000000
 11
       -6.500004
 21
      -83.600049
 31
        0.000000
  0
LINE
  8
LVL0000
 10
       -6.000004
 20
      -88.300049
 30
        0.000000
 11
       -6.000003
 21
      -83.600049
 31
        0.000000
  0
LINE
  8
LVL0000
 10
        5.999996
 20
      -88.300049
 30
        0.000000
 11
        6.000003
 21
      -83.600049
 31
        0.000000
  0
LINE
  8
LVL0000
 10
       -6.500004
 20
      -88.300049
 30
        0.000000
 11
       -6.500004
 21
      -82.800049
 31
        0.000000
  0
LINE
  8
LVL0000
 10
        6.499996
 20
      -88.300049
 30
        0.000000
 11
       -6.500004
 21
      -88.300049
 31
        0.000000
  0
LINE
  8
LVL0000
 10
        6.499996
 20
      -88.300049
 30
        0.000000
 11
        6.500004
 21
      -82.800049
 31
        0.000000
  0
TEXT
  8
LVL0000
 62
  2
 10
       44.456698
 20
       54.890453
 30
        0.000000
 40
        4.000000
  1
IVS30C3
 50
        0.000000
 41
        0.835000
 51
        0.000000
  7
STANDARD
  0
DIMENSION
  8
LVL0000
 62
  4
  2
BLK0010
 10
       80.000000
 20
      -24.108101
 11
       55.948318
 21
      -23.408102
 13
       80.000000
 23
      -12.100000
 14
       40.000000
 24
      -14.200000
 50
        0.0
 70
  0
  0
DIMENSION
  8
LVL0000
 62
  4
  2
BLK0011
 10
      -14.999970
 20
      -23.924801
 11
       -3.793574
 21
      -23.224802
 13
      -14.999970
 23
      -13.000000
 14
       15.000030
 24
      -13.000000
 50
        0.0
 70
  0
  0
DIMENSION
  8
LVL0000
 62
  4
  2
BLK0012
 10
       24.080566
 20
      -15.000000
 11
       23.380568
 21
       -2.208346
 13
       13.000030
 23
      -15.000000
 14
        0.000000
 24
       17.000000
 50
       90.0
 70
  0
  0
ENDSEC
  0
EOF
