  0
SECTION
  2
HEADER
  9
$ACADVER
  1
AC1006
  9
$INSBASE
 10
0.0
 20
0.0
 30
0.0
  9
$EXTMIN
 10
     -178.103043
 20
     -178.103043
  9
$EXTMAX
 10
      201.403641
 20
       58.103046
  9
$LIMMIN
 10
     -178.103043
 20
     -178.103043
  9
$LIMMAX
 10
      201.403641
 20
       58.103046
  9
$VIEWCTR
 10
       11.650299
 20
       11.650299
  9
$ORTHOMODE
 70
     0
  9
$ANGBASE
 50
0.0
  9
$ANGDIR
 70
     0
  9
$SPLINETYPE
 70
     6
  9
$SPLINESEGS
 70
     8
9
$DIMASZ
 40
        3.500000
9
$DIMEXE
 40
        0.700000
9
$DIMEXO
 40
        1.000000
9
$DIMTXT
 40
        3.500000
9
$DIMGAP
 40
        0.700000
9
$DIMTAD
 70
1
9
$DIMTIH
 70
0
9
$DIMTOH
 70
0
  0
ENDSEC
  0
SECTION
  2
TABLES
  0
TABLE
  2
LTYPE
 70
     5
  0
LTYPE
  2
CONTINUOUS
 70
    64
  3
SOLID LINE
 72
    65
 73
     0
 40
0.0
  0
LTYPE
  2
DASHED
 70
    64
  3
-- -- -- -- -- --
 72
    65
 73
     2
 40
  0.75  
 49
  0.50  
 49
 -0.25  
  0
LTYPE
  2
DOT
 70
    64
  3
....................
 72
    65
 73
     2
 40
  0.25  
 49
  0.02  
 49
 -0.23  
  0
LTYPE
  2
CENTER
 70
    64
  3
-- . -- . -- . -- .
 72
    65
 73
    4
 40
  2.00  
 49
  1.25  
 49
 -0.25  
 49
  0.25  
 49
 -0.25  
  0
LTYPE
  2
PHANTOM
 70
    64
  3
-- .. -- .. -- ..
 72
    65
 73
    6
 40
  2.50  
 49
  1.25  
 49
 -0.25  
 49
  0.25  
 49
 -0.25  
 49
  0.25  
 49
 -0.25  
  0
ENDTAB
  0
TABLE
  2
LAYER
 70
     2
  0
LAYER
  2
LVL0000
 70
    64
 62
     4
  6
CONTINUOUS
  0
LAYER
  2
LVL0001
 70
    64
 62
     2
  6
CONTINUOUS
  0
ENDTAB
  0
TABLE
  2
STYLE
 70
     2
  0
STYLE
  2
STANDARD
 70
    64
 40
0.0
 41
1.0
 50
0.0
 71
     0
 42
5.0
  3
ROMANS
  4
BIGFONT
  0
STYLE
  2
BIGFONT
 70
    64
 40
0.0
 41
1.0
 50
0.0
 71
     0
 42
5.0
  3
ROMANS
  4
BIGFONT
  0
ENDTAB
  0
TABLE
  2
VIEW
 70
     0
  0
ENDTAB
  0
TABLE
  2
UCS
 70
     0
  0
ENDTAB
  0
TABLE
  2
DWGMGR
 70
     0
  0
ENDTAB
  0
ENDSEC
  0
SECTION
  2
BLOCKS
  0
BLOCK
  8
0
  2
BLK0001
 70
    64
 10
        0.000000
 20
        0.000000
  0
TEXT
  8
LVL0000
 10
       -2.917582
 20
     -133.430542
 30
        0.000000
 40
        3.500000
  1
８９
 50
        0.000000
 41
        0.835000
 51
        0.000000
  7
BIGFONT
  0
LINE
  8
LVL0000
 10
      -44.500050
 20
      -96.300003
 30
        0.000000
 11
      -44.500050
 21
     -134.830536
 31
        0.000000
  0
LINE
  8
LVL0000
 10
       44.500050
 20
      -96.300003
 30
        0.000000
 11
       44.500050
 21
     -134.830536
 31
        0.000000
  0
LINE
  8
LVL0000
 10
      -41.000050
 20
     -133.214233
 30
        0.000000
 11
      -44.500050
 21
     -134.130539
 31
        0.000000
  0
LINE
  8
LVL0000
 10
      -44.500050
 20
     -134.130539
 30
        0.000000
 11
      -41.000050
 21
     -135.046844
 31
        0.000000
  0
LINE
  8
LVL0000
 10
       41.000050
 20
     -135.046844
 30
        0.000000
 11
       44.500050
 21
     -134.130539
 31
        0.000000
  0
LINE
  8
LVL0000
 10
       44.500050
 20
     -134.130539
 30
        0.000000
 11
       41.000050
 21
     -133.214233
 31
        0.000000
  0
LINE
  8
LVL0000
 10
      -44.500050
 20
     -134.130539
 30
        0.000000
 11
       44.500050
 21
     -134.130539
 31
        0.000000
  0
ENDBLK
  0
BLOCK
  8
0
  2
BLK0002
 70
    64
 10
        0.000000
 20
        0.000000
  0
TEXT
  8
LVL0000
 10
       -2.917582
 20
     -125.148682
 30
        0.000000
 40
        3.500000
  1
７９
 50
        0.000000
 41
        0.835000
 51
        0.000000
  7
BIGFONT
  0
LINE
  8
LVL0000
 10
       39.500050
 20
      -86.300003
 30
        0.000000
 11
       39.500050
 21
     -126.548683
 31
        0.000000
  0
LINE
  8
LVL0000
 10
      -39.500050
 20
      -86.300003
 30
        0.000000
 11
      -39.500050
 21
     -126.548683
 31
        0.000000
  0
LINE
  8
LVL0000
 10
       36.000050
 20
     -126.764984
 30
        0.000000
 11
       39.500050
 21
     -125.848686
 31
        0.000000
  0
LINE
  8
LVL0000
 10
       39.500050
 20
     -125.848686
 30
        0.000000
 11
       36.000050
 21
     -124.932388
 31
        0.000000
  0
LINE
  8
LVL0000
 10
      -36.000050
 20
     -124.932388
 30
        0.000000
 11
      -39.500050
 21
     -125.848686
 31
        0.000000
  0
LINE
  8
LVL0000
 10
      -39.500050
 20
     -125.848686
 30
        0.000000
 11
      -36.000050
 21
     -126.764984
 31
        0.000000
  0
LINE
  8
LVL0000
 10
       39.500050
 20
     -125.848686
 30
        0.000000
 11
      -39.500050
 21
     -125.848686
 31
        0.000000
  0
ENDBLK
  0
BLOCK
  8
0
  2
BLK0003
 70
    64
 10
        0.000000
 20
        0.000000
  0
TEXT
  8
LVL0000
 10
       -2.917582
 20
     -115.936417
 30
        0.000000
 40
        3.500000
  1
７０
 50
        0.000000
 41
        0.835000
 51
        0.000000
  7
BIGFONT
  0
LINE
  8
LVL0000
 10
      -35.000000
 20
     -101.000000
 30
        0.000000
 11
      -35.000000
 21
     -117.336418
 31
        0.000000
  0
LINE
  8
LVL0000
 10
       35.000000
 20
     -101.000000
 30
        0.000000
 11
       35.000000
 21
     -117.336418
 31
        0.000000
  0
LINE
  8
LVL0000
 10
      -31.500000
 20
     -115.720123
 30
        0.000000
 11
      -35.000000
 21
     -116.636421
 31
        0.000000
  0
LINE
  8
LVL0000
 10
      -35.000000
 20
     -116.636421
 30
        0.000000
 11
      -31.500000
 21
     -117.552719
 31
        0.000000
  0
LINE
  8
LVL0000
 10
       31.500000
 20
     -117.552719
 30
        0.000000
 11
       35.000000
 21
     -116.636421
 31
        0.000000
  0
LINE
  8
LVL0000
 10
       35.000000
 20
     -116.636421
 30
        0.000000
 11
       31.500000
 21
     -115.720123
 31
        0.000000
  0
LINE
  8
LVL0000
 10
      -35.000000
 20
     -116.636421
 30
        0.000000
 11
       35.000000
 21
     -116.636421
 31
        0.000000
  0
ENDBLK
  0
BLOCK
  8
0
  2
BLK0004
 70
    64
 10
        0.000000
 20
        0.000000
  0
TEXT
  8
LVL0000
 10
       54.407883
 20
      -56.317715
 30
        0.000000
 40
        3.500000
  1
１００
 50
       90.000000
 41
        0.835000
 51
        0.000000
  7
BIGFONT
  0
LINE
  8
LVL0000
 10
       36.000000
 20
     -100.000000
 30
        0.000000
 11
       55.807884
 21
     -100.000000
 31
        0.000000
  0
LINE
  8
LVL0000
 10
       36.000000
 20
        0.000000
 30
        0.000000
 11
       55.807884
 21
        0.000000
 31
        0.000000
  0
LINE
  8
LVL0000
 10
       54.191586
 20
      -96.500000
 30
        0.000000
 11
       55.107883
 21
     -100.000000
 31
        0.000000
  0
LINE
  8
LVL0000
 10
       55.107883
 20
     -100.000000
 30
        0.000000
 11
       56.024181
 21
      -96.500000
 31
        0.000000
  0
LINE
  8
LVL0000
 10
       56.024181
 20
       -3.500000
 30
        0.000000
 11
       55.107883
 21
        0.000000
 31
        0.000000
  0
LINE
  8
LVL0000
 10
       55.107883
 20
        0.000000
 30
        0.000000
 11
       54.191586
 21
       -3.500000
 31
        0.000000
  0
LINE
  8
LVL0000
 10
       55.107883
 20
     -100.000000
 30
        0.000000
 11
       55.107883
 21
        0.000000
 31
        0.000000
  0
ENDBLK
  0
BLOCK
  8
0
  2
BLK0005
 70
    64
 10
        0.000000
 20
        0.000000
  0
TEXT
  8
LVL0000
 10
      172.560501
 20
     -136.144135
 30
        0.000000
 40
        3.500000
  1
１１．６
 50
        0.000000
 41
        0.835000
 51
        0.000000
  7
BIGFONT
  0
LINE
  8
LVL0000
 10
      189.803650
 20
     -125.905998
 30
        0.000000
 11
      189.803650
 21
     -137.544128
 31
        0.000000
  0
LINE
  8
LVL0000
 10
      201.403641
 20
     -128.755997
 30
        0.000000
 11
      201.403641
 21
     -137.544128
 31
        0.000000
  0
LINE
  8
LVL0000
 10
      192.803650
 20
     -136.058731
 30
        0.000000
 11
      189.803650
 21
     -136.844131
 31
        0.000000
  0
LINE
  8
LVL0000
 10
      189.803650
 20
     -136.844131
 30
        0.000000
 11
      192.803650
 21
     -137.629532
 31
        0.000000
  0
LINE
  8
LVL0000
 10
      198.403641
 20
     -137.629532
 30
        0.000000
 11
      201.403641
 21
     -136.844131
 31
        0.000000
  0
LINE
  8
LVL0000
 10
      201.403641
 20
     -136.844131
 30
        0.000000
 11
      198.403641
 21
     -136.058731
 31
        0.000000
  0
LINE
  8
LVL0000
 10
      172.560501
 20
     -136.844131
 30
        0.000000
 11
      201.403641
 21
     -136.844131
 31
        0.000000
  0
ENDBLK
  0
BLOCK
  8
0
  2
BLK0006
 70
    64
 10
        0.000000
 20
        0.000000
  0
TEXT
  8
LVL0000
 10
      213.815781
 20
     -120.877647
 30
        0.000000
 40
        3.500000
  1
５．７
 50
       90.000000
 41
        0.835000
 51
        0.000000
  7
BIGFONT
  0
LINE
  8
LVL0000
 10
      190.803650
 20
     -122.055992
 30
        0.000000
 11
      215.215775
 21
     -122.055992
 31
        0.000000
  0
LINE
  8
LVL0000
 10
      202.403641
 20
     -127.755997
 30
        0.000000
 11
      215.215775
 21
     -127.755997
 31
        0.000000
  0
LINE
  8
LVL0000
 10
      213.730377
 20
     -119.055992
 30
        0.000000
 11
      214.515778
 21
     -122.055992
 31
        0.000000
  0
LINE
  8
LVL0000
 10
      214.515778
 20
     -122.055992
 30
        0.000000
 11
      215.301178
 21
     -119.055992
 31
        0.000000
  0
LINE
  8
LVL0000
 10
      215.301178
 20
     -130.755997
 30
        0.000000
 11
      214.515778
 21
     -127.755997
 31
        0.000000
  0
LINE
  8
LVL0000
 10
      214.515778
 20
     -127.755997
 30
        0.000000
 11
      213.730377
 21
     -130.755997
 31
        0.000000
  0
LINE
  8
LVL0000
 10
      214.515778
 20
     -110.377647
 30
        0.000000
 11
      214.515778
 21
     -133.255997
 31
        0.000000
  0
ENDBLK
  0
BLOCK
  8
0
  2
BLK0007
 70
    64
 10
        0.000000
 20
        0.000000
  0
TEXT
  8
LVL0000
 10
      216.127747
 20
      -52.799999
 30
        0.000000
 40
        3.500000
  1
９１
 50
       90.000000
 41
        0.835000
 51
        0.000000
  7
BIGFONT
  0
LINE
  8
LVL0000
 10
      201.903641
 20
       -4.800000
 30
        0.000000
 11
      217.527740
 21
       -4.800000
 31
        0.000000
  0
LINE
  8
LVL0000
 10
      201.903641
 20
      -95.800003
 30
        0.000000
 11
      217.527740
 21
      -95.800003
 31
        0.000000
  0
LINE
  8
LVL0000
 10
      217.613144
 20
       -7.800000
 30
        0.000000
 11
      216.827744
 21
       -4.800000
 31
        0.000000
  0
LINE
  8
LVL0000
 10
      216.827744
 20
       -4.800000
 30
        0.000000
 11
      216.042343
 21
       -7.800000
 31
        0.000000
  0
LINE
  8
LVL0000
 10
      216.042343
 20
      -92.800003
 30
        0.000000
 11
      216.827744
 21
      -95.800003
 31
        0.000000
  0
LINE
  8
LVL0000
 10
      216.827744
 20
      -95.800003
 30
        0.000000
 11
      217.613144
 21
      -92.800003
 31
        0.000000
  0
LINE
  8
LVL0000
 10
      216.827744
 20
       -4.800000
 30
        0.000000
 11
      216.827744
 21
      -95.800003
 31
        0.000000
  0
ENDBLK
  0
BLOCK
  8
0
  2
BLK0008
 70
    64
 10
        0.000000
 20
        0.000000
  0
TEXT
  8
LVL0000
 10
      187.403641
 20
     -104.313301
 30
        0.000000
 40
        3.500000
  1
２３
 50
        0.000000
 41
        0.835000
 51
        0.000000
  7
BIGFONT
  0
LINE
  8
LVL0000
 10
      178.403641
 20
      -96.300003
 30
        0.000000
 11
      178.403641
 21
     -105.713303
 31
        0.000000
  0
LINE
  8
LVL0000
 10
      201.403641
 20
      -96.300003
 30
        0.000000
 11
      201.403641
 21
     -105.713303
 31
        0.000000
  0
LINE
  8
LVL0000
 10
      181.403641
 20
     -104.227905
 30
        0.000000
 11
      178.403641
 21
     -105.013306
 31
        0.000000
  0
LINE
  8
LVL0000
 10
      178.403641
 20
     -105.013306
 30
        0.000000
 11
      181.403641
 21
     -105.798706
 31
        0.000000
  0
LINE
  8
LVL0000
 10
      198.403641
 20
     -105.798706
 30
        0.000000
 11
      201.403641
 21
     -105.013306
 31
        0.000000
  0
LINE
  8
LVL0000
 10
      201.403641
 20
     -105.013306
 30
        0.000000
 11
      198.403641
 21
     -104.227905
 31
        0.000000
  0
LINE
  8
LVL0000
 10
      178.403641
 20
     -105.013306
 30
        0.000000
 11
      201.403641
 21
     -105.013306
 31
        0.000000
  0
ENDBLK
  0
BLOCK
  8
0
  2
BLK0009
 70
    64
 10
        0.000000
 20
        0.000000
  0
TEXT
  8
LVL0000
 10
      208.825653
 20
      -52.062912
 30
        0.000000
 40
        3.500000
  1
７０
 50
       90.000000
 41
        0.835000
 51
        0.000000
  7
BIGFONT
  0
LINE
  8
LVL0000
 10
      197.403641
 20
      -85.300003
 30
        0.000000
 11
      210.225647
 21
      -85.300003
 31
        0.000000
  0
LINE
  8
LVL0000
 10
      197.403641
 20
      -15.300000
 30
        0.000000
 11
      210.225647
 21
      -15.300000
 31
        0.000000
  0
LINE
  8
LVL0000
 10
      208.609344
 20
      -81.800003
 30
        0.000000
 11
      209.525650
 21
      -85.300003
 31
        0.000000
  0
LINE
  8
LVL0000
 10
      209.525650
 20
      -85.300003
 30
        0.000000
 11
      210.441956
 21
      -81.800003
 31
        0.000000
  0
LINE
  8
LVL0000
 10
      210.441956
 20
      -18.799999
 30
        0.000000
 11
      209.525650
 21
      -15.300000
 31
        0.000000
  0
LINE
  8
LVL0000
 10
      209.525650
 20
      -15.300000
 30
        0.000000
 11
      208.609344
 21
      -18.800001
 31
        0.000000
  0
LINE
  8
LVL0000
 10
      209.525650
 20
      -85.300003
 30
        0.000000
 11
      209.525650
 21
      -15.300000
 31
        0.000000
  0
ENDBLK
  0
BLOCK
  8
0
  2
BLK0010
 70
    64
 10
        0.000000
 20
        0.000000
  0
TEXT
  8
LVL0000
 10
       84.084541
 20
     -116.101501
 30
        0.000000
 40
        3.500000
  1
２５
 50
        0.000000
 41
        0.835000
 51
        0.000000
  7
BIGFONT
  0
LINE
  8
LVL0000
 10
       74.610451
 20
     -100.699997
 30
        0.000000
 11
       74.610451
 21
     -117.501503
 31
        0.000000
  0
LINE
  8
LVL0000
 10
       99.610451
 20
     -100.000000
 30
        0.000000
 11
       99.610451
 21
     -117.501503
 31
        0.000000
  0
LINE
  8
LVL0000
 10
       78.110451
 20
     -115.885208
 30
        0.000000
 11
       74.610451
 21
     -116.801506
 31
        0.000000
  0
LINE
  8
LVL0000
 10
       74.610451
 20
     -116.801506
 30
        0.000000
 11
       78.110451
 21
     -117.717804
 31
        0.000000
  0
LINE
  8
LVL0000
 10
       96.110451
 20
     -117.717804
 30
        0.000000
 11
       99.610451
 21
     -116.801506
 31
        0.000000
  0
LINE
  8
LVL0000
 10
       99.610451
 20
     -116.801506
 30
        0.000000
 11
       96.110451
 21
     -115.885208
 31
        0.000000
  0
LINE
  8
LVL0000
 10
       74.610451
 20
     -116.801506
 30
        0.000000
 11
       99.610451
 21
     -116.801506
 31
        0.000000
  0
ENDBLK
  0
ENDSEC
  0
SECTION
  2
ENTITIES
  0
DIMENSION
  8
LVL0000
  2
BLK0001
 10
      -44.500050
 20
     -134.130539
 11
       -2.917582
 21
     -133.430542
 13
      -44.500050
 23
      -95.300003
 14
       44.500050
 24
      -95.300003
 50
        0.0
 70
  0
  0
DIMENSION
  8
LVL0000
  2
BLK0002
 10
       39.500050
 20
     -125.848686
 11
       -2.917582
 21
     -125.148682
 13
       39.500050
 23
      -85.300003
 14
      -39.500050
 24
      -85.300003
 50
        0.0
 70
  0
  0
DIMENSION
  8
LVL0000
  2
BLK0003
 10
      -35.000000
 20
     -116.636421
 11
       -2.917582
 21
     -115.936417
 13
      -35.000000
 23
     -100.000000
 14
       35.000000
 24
     -100.000000
 50
        0.0
 70
  0
  0
DIMENSION
  8
LVL0000
  2
BLK0004
 10
       55.107883
 20
     -100.000000
 11
       54.407883
 21
      -56.317715
 13
       35.000000
 23
     -100.000000
 14
       35.000000
 24
        0.000000
 50
       90.0
 70
  0
  0
ARC
  8
LVL0001
 10
      -32.900049
 20
     -174.003048
 30
        0.000000
 40
        1.600000
 50
       90.000000
 51
      179.999995
  0
LINE
  8
LVL0001
 10
      -34.500049
 20
     -176.503048
 30
        0.000000
 11
      -34.500049
 21
     -174.003048
 31
        0.000000
  0
ARC
  8
LVL0001
 10
      -34.500049
 20
     -176.503048
 30
        0.000000
 40
        1.600000
 50
      270.000000
 51
      360.000000
  0
LINE
  8
LVL0001
 10
      -32.900049
 20
     -174.003048
 30
        0.000000
 11
      -32.900049
 21
     -176.503048
 31
        0.000000
  0
LINE
  8
LVL0001
 10
      -32.900049
 20
     -174.003048
 30
        0.000000
 11
      -21.500049
 21
     -174.003048
 31
        0.000000
  0
LINE
  8
LVL0001
 10
      -21.500049
 20
     -172.403048
 30
        0.000000
 11
      -21.500049
 21
     -174.003048
 31
        0.000000
  0
LINE
  8
LVL0001
 10
      -44.500049
 20
     -176.503048
 30
        0.000000
 11
      -34.500049
 21
     -176.503048
 31
        0.000000
  0
LINE
  8
LVL0001
 10
      -44.500049
 20
     -176.503048
 30
        0.000000
 11
      -44.500049
 21
     -178.103048
 31
        0.000000
  0
LINE
  8
LVL0001
 10
      -44.500049
 20
     -178.103048
 30
        0.000000
 11
      -34.500049
 21
     -178.103048
 31
        0.000000
  0
LINE
  8
LVL0001
 10
       44.500049
 20
     -178.103048
 30
        0.000000
 11
       34.500049
 21
     -178.103048
 31
        0.000000
  0
LINE
  8
LVL0001
 10
       44.500049
 20
     -176.503048
 30
        0.000000
 11
       44.500049
 21
     -178.103048
 31
        0.000000
  0
LINE
  8
LVL0001
 10
       44.500049
 20
     -176.503048
 30
        0.000000
 11
       34.500049
 21
     -176.503048
 31
        0.000000
  0
LINE
  8
LVL0001
 10
       21.500049
 20
     -172.403048
 30
        0.000000
 11
       21.500049
 21
     -174.003048
 31
        0.000000
  0
LINE
  8
LVL0001
 10
       32.900049
 20
     -174.003048
 30
        0.000000
 11
       21.500049
 21
     -174.003048
 31
        0.000000
  0
LINE
  8
LVL0001
 10
       32.900049
 20
     -174.003048
 30
        0.000000
 11
       32.900049
 21
     -176.503048
 31
        0.000000
  0
ARC
  8
LVL0001
 10
       34.500049
 20
     -176.503048
 30
        0.000000
 40
        1.600000
 50
      179.999995
 51
      270.000000
  0
LINE
  8
LVL0001
 10
       34.500049
 20
     -176.503048
 30
        0.000000
 11
       34.500049
 21
     -174.003048
 31
        0.000000
  0
ARC
  8
LVL0001
 10
       32.900049
 20
     -174.003048
 30
        0.000000
 40
        1.600000
 50
        0.000000
 51
       90.000000
  0
CIRCLE
  8
LVL0000
 62
  3
 10
      -23.520004
 20
     -158.053048
 30
        0.000000
 40
        1.600000
  0
CIRCLE
  8
LVL0000
 62
  3
 10
       23.520004
 20
     -158.053048
 30
        0.000000
 40
        1.600000
  0
ARC
  8
LVL0000
 62
  3
 10
      -17.850000
 20
     -155.753048
 30
        0.000000
 40
        3.400000
 50
       90.000000
 51
      190.000010
  0
LINE
  8
LVL0000
 62
  3
 10
      -21.198346
 20
     -156.343452
 30
        0.000000
 11
      -20.387242
 21
     -160.943452
 31
        0.000000
  0
ARC
  8
LVL0000
 62
  3
 10
      -17.038896
 20
     -160.353048
 30
        0.000000
 40
        3.400000
 50
      190.000010
 51
      270.000000
  0
LINE
  8
LVL0000
 62
  3
 10
        0.000000
 20
     -152.353048
 30
        0.000000
 11
      -17.850000
 21
     -152.353048
 31
        0.000000
  0
LINE
  8
LVL0000
 62
  3
 10
        0.000000
 20
     -163.753048
 30
        0.000000
 11
      -17.038896
 21
     -163.753048
 31
        0.000000
  0
LINE
  8
LVL0000
 62
  3
 10
        0.000000
 20
     -152.353048
 30
        0.000000
 11
       17.850000
 21
     -152.353048
 31
        0.000000
  0
ARC
  8
LVL0000
 62
  3
 10
       17.850000
 20
     -155.753048
 30
        0.000000
 40
        3.400000
 50
      350.000000
 51
      450.000000
  0
LINE
  8
LVL0000
 62
  3
 10
       21.198346
 20
     -156.343452
 30
        0.000000
 11
       20.387242
 21
     -160.943452
 31
        0.000000
  0
LINE
  8
LVL0000
 62
  3
 10
        0.000000
 20
     -163.753048
 30
        0.000000
 11
       17.038896
 21
     -163.753048
 31
        0.000000
  0
ARC
  8
LVL0000
 62
  3
 10
       17.038896
 20
     -160.353048
 30
        0.000000
 40
        3.400000
 50
      270.000000
 51
      350.000000
  0
LINE
  8
LVL0000
 62
  3
 10
        0.000000
 20
     -172.403048
 30
        0.000000
 11
      -33.000000
 21
     -172.403048
 31
        0.000000
  0
LINE
  8
LVL0000
 62
  3
 10
      -34.000000
 20
     -172.403048
 30
        0.000000
 11
      -35.000000
 21
     -172.403048
 31
        0.000000
  0
ARC
  8
LVL0000
 62
  3
 10
      -33.000000
 20
     -171.403048
 30
        0.000000
 40
        1.000000
 50
      179.999990
 51
      270.000000
  0
ARC
  8
LVL0000
 62
  3
 10
       33.000000
 20
     -171.403048
 30
        0.000000
 40
        1.000000
 50
      270.000000
 51
      360.000000
  0
LINE
  8
LVL0000
 62
  3
 10
       34.000000
 20
     -172.403048
 30
        0.000000
 11
       35.000000
 21
     -172.403048
 31
        0.000000
  0
LINE
  8
LVL0000
 62
  3
 10
        0.000000
 20
     -172.403048
 30
        0.000000
 11
       33.000000
 21
     -172.403048
 31
        0.000000
  0
LINE
  8
LVL0000
 62
  3
 10
        0.000000
 20
     -148.403048
 30
        0.000000
 11
      -34.000000
 21
     -148.403048
 31
        0.000000
  0
LINE
  8
LVL0000
 62
  3
 10
        0.000000
 20
     -147.403048
 30
        0.000000
 11
      -34.000000
 21
     -147.403048
 31
        0.000000
  0
LINE
  8
LVL0000
 62
  3
 10
      -34.000000
 20
     -172.403048
 30
        0.000000
 11
      -34.000000
 21
     -148.403048
 31
        0.000000
  0
LINE
  8
LVL0000
 62
  3
 10
      -35.000000
 20
     -172.403048
 30
        0.000000
 11
      -35.000000
 21
     -148.403048
 31
        0.000000
  0
LINE
  8
LVL0000
 62
  3
 10
      -34.000000
 20
     -172.403048
 30
        0.000000
 11
      -34.000000
 21
     -148.403048
 31
        0.000000
  0
ARC
  8
LVL0000
 62
  3
 10
      -34.000000
 20
     -148.403048
 30
        0.000000
 40
        1.000000
 50
       90.000000
 51
      179.999990
  0
ARC
  8
LVL0000
 62
  3
 10
       34.000000
 20
     -148.403048
 30
        0.000000
 40
        1.000000
 50
        0.000000
 51
       90.000000
  0
LINE
  8
LVL0000
 62
  3
 10
       34.000000
 20
     -172.403048
 30
        0.000000
 11
       34.000000
 21
     -148.403048
 31
        0.000000
  0
LINE
  8
LVL0000
 62
  3
 10
       35.000000
 20
     -172.403048
 30
        0.000000
 11
       35.000000
 21
     -148.403048
 31
        0.000000
  0
LINE
  8
LVL0000
 62
  3
 10
       34.000000
 20
     -172.403048
 30
        0.000000
 11
       34.000000
 21
     -148.403048
 31
        0.000000
  0
LINE
  8
LVL0000
 62
  3
 10
        0.000000
 20
     -147.403048
 30
        0.000000
 11
       34.000000
 21
     -147.403048
 31
        0.000000
  0
LINE
  8
LVL0000
 62
  3
 10
        0.000000
 20
     -148.403048
 30
        0.000000
 11
       34.000000
 21
     -148.403048
 31
        0.000000
  0
CIRCLE
  8
LVL0000
 62
  3
 10
      -23.520004
 20
     -158.053048
 30
        0.000000
 40
        1.299988
  0
LINE
  8
LVL0000
 62
  3
 10
      -21.020004
 20
     -156.609689
 30
        0.000000
 11
      -21.019973
 21
     -159.496438
 31
        0.000000
  0
LINE
  8
LVL0000
 62
  3
 10
      -21.019973
 20
     -159.496438
 30
        0.000000
 11
      -23.520004
 21
     -160.939797
 31
        0.000000
  0
LINE
  8
LVL0000
 62
  3
 10
      -23.520004
 20
     -160.939797
 30
        0.000000
 11
      -26.019973
 21
     -159.496438
 31
        0.000000
  0
LINE
  8
LVL0000
 62
  3
 10
      -26.019973
 20
     -159.496438
 30
        0.000000
 11
      -26.019973
 21
     -156.609689
 31
        0.000000
  0
LINE
  8
LVL0000
 62
  3
 10
      -26.019973
 20
     -156.609689
 30
        0.000000
 11
      -23.519973
 21
     -155.166299
 31
        0.000000
  0
LINE
  8
LVL0000
 62
  3
 10
      -23.519973
 20
     -155.166299
 30
        0.000000
 11
      -21.020004
 21
     -156.609689
 31
        0.000000
  0
ARC
  8
LVL0000
 62
  3
 10
       16.805713
 20
     -160.363046
 30
        0.000000
 40
        1.599990
 50
      270.000000
 51
      350.000123
  0
LINE
  8
LVL0000
 62
  3
 10
       19.245044
 20
     -155.743050
 30
        0.000000
 11
       18.381396
 21
     -160.640878
 31
        0.000000
  0
ARC
  8
LVL0000
 62
  3
 10
       17.645007
 20
     -155.743050
 30
        0.000000
 40
        1.599976
 50
      359.999997
 51
      450.000000
  0
LINE
  8
LVL0000
 62
  3
 10
      -17.645007
 20
     -154.143075
 30
        0.000000
 11
       17.645007
 21
     -154.143075
 31
        0.000000
  0
ARC
  8
LVL0000
 62
  3
 10
      -17.645007
 20
     -155.743050
 30
        0.000000
 40
        1.599976
 50
       90.000000
 51
      179.999989
  0
LINE
  8
LVL0000
 62
  3
 10
      -19.245044
 20
     -155.743050
 30
        0.000000
 11
      -18.381396
 21
     -160.640878
 31
        0.000000
  0
ARC
  8
LVL0000
 62
  3
 10
      -16.805713
 20
     -160.363046
 30
        0.000000
 40
        1.599976
 50
      189.999952
 51
      270.000000
  0
LINE
  8
LVL0000
 62
  3
 10
      -16.805713
 20
     -161.963082
 30
        0.000000
 11
       16.805713
 21
     -161.963082
 31
        0.000000
  0
CIRCLE
  8
LVL0000
 62
  3
 10
        6.860016
 20
     -159.473031
 30
        0.000000
 40
        0.500000
  0
CIRCLE
  8
LVL0000
 62
  3
 10
        4.119995
 20
     -159.473031
 30
        0.000000
 40
        0.500000
  0
CIRCLE
  8
LVL0000
 62
  3
 10
        1.369995
 20
     -159.473031
 30
        0.000000
 40
        0.500000
  0
CIRCLE
  8
LVL0000
 62
  3
 10
       -1.369995
 20
     -159.473031
 30
        0.000000
 40
        0.500000
  0
CIRCLE
  8
LVL0000
 62
  3
 10
       -4.109985
 20
     -159.473031
 30
        0.000000
 40
        0.500000
  0
CIRCLE
  8
LVL0000
 62
  3
 10
       -6.859985
 20
     -159.473031
 30
        0.000000
 40
        0.500000
  0
CIRCLE
  8
LVL0000
 62
  3
 10
        8.230011
 20
     -156.633065
 30
        0.000000
 40
        0.500000
  0
CIRCLE
  8
LVL0000
 62
  3
 10
        5.489990
 20
     -156.633065
 30
        0.000000
 40
        0.500000
  0
CIRCLE
  8
LVL0000
 62
  3
 10
        2.739990
 20
     -156.633065
 30
        0.000000
 40
        0.500000
  0
CIRCLE
  8
LVL0000
 62
  3
 10
        0.000000
 20
     -156.633065
 30
        0.000000
 40
        0.500000
  0
CIRCLE
  8
LVL0000
 62
  3
 10
       -2.739990
 20
     -156.633065
 30
        0.000000
 40
        0.500000
  0
CIRCLE
  8
LVL0000
 62
  3
 10
       -5.479980
 20
     -156.633065
 30
        0.000000
 40
        0.500000
  0
CIRCLE
  8
LVL0000
 62
  3
 10
       -8.229980
 20
     -156.633065
 30
        0.000000
 40
        0.500000
  0
CIRCLE
  8
LVL0000
 62
  3
 10
       -9.599976
 20
     -159.473031
 30
        0.000000
 40
        0.500000
  0
CIRCLE
  8
LVL0000
 62
  3
 10
      -10.969971
 20
     -156.633065
 30
        0.000000
 40
        0.500000
  0
CIRCLE
  8
LVL0000
 62
  3
 10
       16.460052
 20
     -156.633065
 30
        0.000000
 40
        0.500000
  0
CIRCLE
  8
LVL0000
 62
  3
 10
       15.090057
 20
     -159.473031
 30
        0.000000
 40
        0.500000
  0
CIRCLE
  8
LVL0000
 62
  3
 10
      -16.459961
 20
     -156.633065
 30
        0.000000
 40
        0.500000
  0
CIRCLE
  8
LVL0000
 62
  3
 10
      -15.089966
 20
     -159.473031
 30
        0.000000
 40
        0.500000
  0
CIRCLE
  8
LVL0000
 62
  3
 10
      -12.349976
 20
     -159.473031
 30
        0.000000
 40
        0.500000
  0
CIRCLE
  8
LVL0000
 62
  3
 10
      -13.719971
 20
     -156.633065
 30
        0.000000
 40
        0.500000
  0
CIRCLE
  8
LVL0000
 62
  3
 10
       12.350037
 20
     -159.473031
 30
        0.000000
 40
        0.500000
  0
CIRCLE
  8
LVL0000
 62
  3
 10
       13.720032
 20
     -156.633065
 30
        0.000000
 40
        0.500000
  0
CIRCLE
  8
LVL0000
 62
  3
 10
       10.980011
 20
     -156.633065
 30
        0.000000
 40
        0.500000
  0
CIRCLE
  8
LVL0000
 62
  3
 10
        9.610016
 20
     -159.473031
 30
        0.000000
 40
        0.500000
  0
CIRCLE
  8
LVL0000
 62
  3
 10
       23.520004
 20
     -158.053048
 30
        0.000000
 40
        1.299988
  0
LINE
  8
LVL0000
 62
  3
 10
       21.020004
 20
     -159.496438
 30
        0.000000
 11
       21.020004
 21
     -156.609689
 31
        0.000000
  0
LINE
  8
LVL0000
 62
  3
 10
       23.520004
 20
     -160.939797
 30
        0.000000
 11
       21.020004
 21
     -159.496438
 31
        0.000000
  0
LINE
  8
LVL0000
 62
  3
 10
       26.020004
 20
     -159.496438
 30
        0.000000
 11
       23.520004
 21
     -160.939797
 31
        0.000000
  0
LINE
  8
LVL0000
 62
  3
 10
       26.020004
 20
     -156.609689
 30
        0.000000
 11
       26.020004
 21
     -159.496438
 31
        0.000000
  0
LINE
  8
LVL0000
 62
  3
 10
       23.520004
 20
     -155.166299
 30
        0.000000
 11
       26.020004
 21
     -156.609689
 31
        0.000000
  0
LINE
  8
LVL0000
 62
  3
 10
       21.020004
 20
     -156.609689
 30
        0.000000
 11
       23.520004
 21
     -155.166299
 31
        0.000000
  0
ARC
  8
LVL0001
 10
       32.900049
 20
       54.003048
 30
        0.000000
 40
        1.600000
 50
      270.000000
 51
      360.000000
  0
LINE
  8
LVL0001
 10
       34.500049
 20
       56.503048
 30
        0.000000
 11
       34.500049
 21
       54.003048
 31
        0.000000
  0
ARC
  8
LVL0001
 10
       34.500049
 20
       56.503048
 30
        0.000000
 40
        1.600000
 50
       90.000000
 51
      179.999995
  0
LINE
  8
LVL0001
 10
       32.900049
 20
       54.003048
 30
        0.000000
 11
       32.900049
 21
       56.503048
 31
        0.000000
  0
LINE
  8
LVL0001
 10
       32.900049
 20
       54.003048
 30
        0.000000
 11
       21.500049
 21
       54.003048
 31
        0.000000
  0
LINE
  8
LVL0001
 10
       21.500049
 20
       52.403048
 30
        0.000000
 11
       21.500049
 21
       54.003048
 31
        0.000000
  0
LINE
  8
LVL0001
 10
       44.500049
 20
       56.503048
 30
        0.000000
 11
       34.500049
 21
       56.503048
 31
        0.000000
  0
LINE
  8
LVL0001
 10
       44.500049
 20
       56.503048
 30
        0.000000
 11
       44.500049
 21
       58.103048
 31
        0.000000
  0
LINE
  8
LVL0001
 10
       44.500049
 20
       58.103048
 30
        0.000000
 11
       34.500049
 21
       58.103048
 31
        0.000000
  0
LINE
  8
LVL0001
 10
      -44.500049
 20
       58.103048
 30
        0.000000
 11
      -34.500049
 21
       58.103048
 31
        0.000000
  0
LINE
  8
LVL0001
 10
      -44.500049
 20
       56.503048
 30
        0.000000
 11
      -44.500049
 21
       58.103048
 31
        0.000000
  0
LINE
  8
LVL0001
 10
      -44.500049
 20
       56.503048
 30
        0.000000
 11
      -34.500049
 21
       56.503048
 31
        0.000000
  0
LINE
  8
LVL0001
 10
      -21.500049
 20
       52.403048
 30
        0.000000
 11
      -21.500049
 21
       54.003048
 31
        0.000000
  0
LINE
  8
LVL0001
 10
      -32.900049
 20
       54.003048
 30
        0.000000
 11
      -21.500049
 21
       54.003048
 31
        0.000000
  0
LINE
  8
LVL0001
 10
      -32.900049
 20
       54.003048
 30
        0.000000
 11
      -32.900049
 21
       56.503048
 31
        0.000000
  0
ARC
  8
LVL0001
 10
      -34.500049
 20
       56.503048
 30
        0.000000
 40
        1.600000
 50
        0.000000
 51
       90.000000
  0
LINE
  8
LVL0001
 10
      -34.500049
 20
       56.503048
 30
        0.000000
 11
      -34.500049
 21
       54.003048
 31
        0.000000
  0
ARC
  8
LVL0001
 10
      -32.900049
 20
       54.003048
 30
        0.000000
 40
        1.600000
 50
      179.999995
 51
      270.000000
  0
LINE
  8
LVL0001
 10
      -44.000049
 20
      -95.800000
 30
        0.000000
 11
      -35.000000
 21
      -95.800000
 31
        0.000000
  0
LINE
  8
LVL0001
 10
      -44.000049
 20
      -95.800000
 30
        0.000000
 11
      -44.500049
 21
      -95.300000
 31
        0.000000
  0
LINE
  8
LVL0001
 10
      -44.500049
 20
      -95.300000
 30
        0.000000
 11
      -44.500049
 21
      -87.550000
 31
        0.000000
  0
LINE
  8
LVL0001
 10
      -44.500049
 20
      -87.550000
 30
        0.000000
 11
      -39.500049
 21
      -87.550000
 31
        0.000000
  0
ARC
  8
LVL0001
 10
      -39.500049
 20
      -85.300000
 30
        0.000000
 40
        2.250000
 50
      270.000000
 51
      450.000000
  0
LINE
  8
LVL0001
 10
      -44.500049
 20
      -83.050000
 30
        0.000000
 11
      -39.500049
 21
      -83.050000
 31
        0.000000
  0
LINE
  8
LVL0001
 10
      -44.500049
 20
      -83.050000
 30
        0.000000
 11
      -44.500049
 21
      -17.550000
 31
        0.000000
  0
LINE
  8
LVL0001
 10
      -44.500049
 20
      -17.550000
 30
        0.000000
 11
      -39.500049
 21
      -17.550000
 31
        0.000000
  0
ARC
  8
LVL0001
 10
      -39.500049
 20
      -15.300000
 30
        0.000000
 40
        2.250000
 50
      270.000000
 51
      450.000000
  0
LINE
  8
LVL0001
 10
      -44.500049
 20
      -13.050000
 30
        0.000000
 11
      -39.500049
 21
      -13.050000
 31
        0.000000
  0
LINE
  8
LVL0001
 10
      -44.500049
 20
      -13.050000
 30
        0.000000
 11
      -44.500049
 21
       -5.300000
 31
        0.000000
  0
LINE
  8
LVL0001
 10
      -44.500049
 20
       -5.300000
 30
        0.000000
 11
      -44.000049
 21
       -4.800000
 31
        0.000000
  0
LINE
  8
LVL0001
 10
      -44.000049
 20
       -4.800000
 30
        0.000000
 11
      -35.000000
 21
       -4.800000
 31
        0.000000
  0
LINE
  8
LVL0001
 10
       44.000049
 20
      -95.800000
 30
        0.000000
 11
       35.000000
 21
      -95.800000
 31
        0.000000
  0
LINE
  8
LVL0001
 10
       44.000049
 20
       -4.800000
 30
        0.000000
 11
       35.000000
 21
       -4.800000
 31
        0.000000
  0
LINE
  8
LVL0001
 10
       44.500049
 20
      -13.050000
 30
        0.000000
 11
       39.500049
 21
      -13.050000
 31
        0.000000
  0
ARC
  8
LVL0001
 10
       39.500049
 20
      -15.300000
 30
        0.000000
 40
        2.250000
 50
       90.000000
 51
      270.000000
  0
LINE
  8
LVL0001
 10
       44.500049
 20
      -17.550000
 30
        0.000000
 11
       39.500049
 21
      -17.550000
 31
        0.000000
  0
LINE
  8
LVL0001
 10
       44.500049
 20
      -83.050000
 30
        0.000000
 11
       44.500049
 21
      -17.550000
 31
        0.000000
  0
LINE
  8
LVL0001
 10
       44.500049
 20
      -83.050000
 30
        0.000000
 11
       39.500049
 21
      -83.050000
 31
        0.000000
  0
ARC
  8
LVL0001
 10
       39.500049
 20
      -85.300000
 30
        0.000000
 40
        2.250000
 50
       90.000000
 51
      270.000000
  0
LINE
  8
LVL0001
 10
       44.500049
 20
      -87.550000
 30
        0.000000
 11
       39.500049
 21
      -87.550000
 31
        0.000000
  0
LINE
  8
LVL0001
 10
       44.500049
 20
       -5.300000
 30
        0.000000
 11
       44.000049
 21
       -4.800000
 31
        0.000000
  0
LINE
  8
LVL0001
 10
       44.500049
 20
      -13.050000
 30
        0.000000
 11
       44.500049
 21
       -5.300000
 31
        0.000000
  0
LINE
  8
LVL0001
 10
       44.500049
 20
      -95.300000
 30
        0.000000
 11
       44.500049
 21
      -87.550000
 31
        0.000000
  0
LINE
  8
LVL0001
 10
       44.000049
 20
      -95.800000
 30
        0.000000
 11
       44.500049
 21
      -95.300000
 31
        0.000000
  0
LINE
  8
LVL0001
 10
      105.310451
 20
      -95.800000
 30
        0.000000
 11
       99.610451
 21
      -95.800000
 31
        0.000000
  0
LINE
  8
LVL0001
 10
      105.310451
 20
       -4.800000
 30
        0.000000
 11
       99.610451
 21
       -4.800000
 31
        0.000000
  0
LINE
  8
LVL0001
 10
      105.310451
 20
      -83.050000
 30
        0.000000
 11
      103.710451
 21
      -83.050000
 31
        0.000000
  0
LINE
  8
LVL0001
 10
      105.310451
 20
      -87.550000
 30
        0.000000
 11
      103.710451
 21
      -87.550000
 31
        0.000000
  0
LINE
  8
LVL0001
 10
      105.310451
 20
      -13.050000
 30
        0.000000
 11
      103.710451
 21
      -13.050000
 31
        0.000000
  0
LINE
  8
LVL0001
 10
      105.310451
 20
      -17.550000
 30
        0.000000
 11
      103.710451
 21
      -17.550000
 31
        0.000000
  0
LINE
  8
LVL0001
 10
      105.310451
 20
      -95.800000
 30
        0.000000
 11
      105.310451
 21
       -4.800000
 31
        0.000000
  0
LINE
  8
LVL0001
 10
      103.710451
 20
      -95.800000
 30
        0.000000
 11
      103.710451
 21
       -4.800000
 31
        0.000000
  0
TEXT
  8
LVL0000
 62
  2
 10
      179.384681
 20
        8.366809
 30
        0.000000
 40
        4.000000
  1
ＡＮＧＬＥ
 50
        0.000000
 41
        0.835000
 51
        0.000000
  7
BIGFONT
  0
DIMENSION
  8
LVL0000
  2
BLK0005
 10
      172.560501
 20
     -136.844131
 11
      172.560501
 21
     -136.144135
 13
      189.803650
 23
     -124.905998
 14
      201.403641
 24
     -127.755997
 50
        0.0
 70
  0
  0
DIMENSION
  8
LVL0000
  2
BLK0006
 10
      214.515778
 20
     -110.377647
 11
      213.815781
 21
     -120.877647
 13
      189.803650
 23
     -122.055992
 14
      201.403641
 24
     -127.755997
 50
       90.0
 70
  0
  0
LINE
  8
LVL0001
 10
      201.403643
 20
     -127.755994
 30
        0.000000
 11
      191.403643
 21
     -127.755994
 31
        0.000000
  0
LINE
  8
LVL0001
 10
      201.403643
 20
     -126.155994
 30
        0.000000
 11
      201.403643
 21
     -127.755994
 31
        0.000000
  0
LINE
  8
LVL0001
 10
      201.403643
 20
     -126.155994
 30
        0.000000
 11
      191.403643
 21
     -126.155994
 31
        0.000000
  0
LINE
  8
LVL0001
 10
      200.903643
 20
      -95.800000
 30
        0.000000
 11
      178.903643
 21
      -95.800000
 31
        0.000000
  0
LINE
  8
LVL0001
 10
      200.903643
 20
      -95.800000
 30
        0.000000
 11
      201.403643
 21
      -95.300000
 31
        0.000000
  0
LINE
  8
LVL0001
 10
      201.403643
 20
      -95.300000
 30
        0.000000
 11
      201.403643
 21
      -87.550000
 31
        0.000000
  0
DIMENSION
  8
LVL0000
  2
BLK0007
 10
      216.827744
 20
       -4.800000
 11
      216.127747
 21
      -52.799999
 13
      200.903641
 23
       -4.800000
 14
      200.903641
 24
      -95.800003
 50
       90.0
 70
  0
  0
LINE
  8
LVL0001
 10
      178.403643
 20
      -95.300000
 30
        0.000000
 11
      178.403643
 21
       -5.300000
 31
        0.000000
  0
LINE
  8
LVL0001
 10
      191.403643
 20
      -95.800000
 30
        0.000000
 11
      191.403643
 21
       -4.800000
 31
        0.000000
  0
LINE
  8
LVL0001
 10
      178.403643
 20
      -95.300000
 30
        0.000000
 11
      178.903643
 21
      -95.800000
 31
        0.000000
  0
DIMENSION
  8
LVL0000
  2
BLK0008
 10
      178.403641
 20
     -105.013306
 11
      187.403641
 21
     -104.313301
 13
      178.403641
 23
      -95.300003
 14
      201.403641
 24
      -95.300003
 50
        0.0
 70
  0
  0
LINE
  8
LVL0001
 10
      201.403643
 20
      -13.050000
 30
        0.000000
 11
      201.403643
 21
       -5.300000
 31
        0.000000
  0
LINE
  8
LVL0001
 10
      201.403643
 20
       -5.300000
 30
        0.000000
 11
      200.903643
 21
       -4.800000
 31
        0.000000
  0
LINE
  8
LVL0001
 10
      200.903643
 20
       -4.800000
 30
        0.000000
 11
      178.903643
 21
       -4.800000
 31
        0.000000
  0
LINE
  8
LVL0001
 10
      178.903643
 20
       -4.800000
 30
        0.000000
 11
      178.403643
 21
       -5.300000
 31
        0.000000
  0
CIRCLE
  8
LVL0001
 10
      185.403643
 20
      -90.800000
 30
        0.000000
 40
        1.600000
  0
CIRCLE
  8
LVL0001
 10
      185.403643
 20
       -9.800000
 30
        0.000000
 40
        1.600000
  0
LINE
  8
LVL0001
 10
      189.803643
 20
     -122.055994
 30
        0.000000
 11
      178.403643
 21
     -122.055994
 31
        0.000000
  0
LINE
  8
LVL0001
 10
      178.403643
 20
     -122.055994
 30
        0.000000
 11
      178.403643
 21
     -123.655994
 31
        0.000000
  0
LINE
  8
LVL0001
 10
      189.803643
 20
     -123.655994
 30
        0.000000
 11
      178.403643
 21
     -123.655994
 31
        0.000000
  0
LINE
  8
LVL0001
 10
      189.803643
 20
     -123.655994
 30
        0.000000
 11
      189.803643
 21
     -126.155994
 31
        0.000000
  0
ARC
  8
LVL0001
 10
      191.403643
 20
     -126.155994
 30
        0.000000
 40
        1.600000
 50
      179.999995
 51
      270.000000
  0
LINE
  8
LVL0001
 10
      191.403643
 20
     -126.155994
 30
        0.000000
 11
      191.403643
 21
     -123.655994
 31
        0.000000
  0
ARC
  8
LVL0001
 10
      189.803643
 20
     -123.655994
 30
        0.000000
 40
        1.600000
 50
        0.000000
 51
       90.000000
  0
LINE
  8
LVL0001
 10
      201.403643
 20
      -87.550000
 30
        0.000000
 11
      196.403643
 21
      -87.550000
 31
        0.000000
  0
ARC
  8
LVL0001
 10
      196.403643
 20
      -85.300000
 30
        0.000000
 40
        2.250000
 50
       90.000000
 51
      270.000000
  0
LINE
  8
LVL0001
 10
      201.403643
 20
      -83.050000
 30
        0.000000
 11
      196.403643
 21
      -83.050000
 31
        0.000000
  0
LINE
  8
LVL0001
 10
      201.403643
 20
      -83.050000
 30
        0.000000
 11
      201.403643
 21
      -17.550000
 31
        0.000000
  0
LINE
  8
LVL0001
 10
      201.403643
 20
      -17.550000
 30
        0.000000
 11
      196.403643
 21
      -17.550000
 31
        0.000000
  0
ARC
  8
LVL0001
 10
      196.403643
 20
      -15.300000
 30
        0.000000
 40
        2.250000
 50
       90.000000
 51
      270.000000
  0
LINE
  8
LVL0001
 10
      201.403643
 20
      -13.050000
 30
        0.000000
 11
      196.403643
 21
      -13.050000
 31
        0.000000
  0
DIMENSION
  8
LVL0000
  2
BLK0009
 10
      209.525650
 20
      -85.300003
 11
      208.825653
 21
      -52.062912
 13
      196.403641
 23
      -85.300003
 14
      196.403641
 24
      -15.300000
 50
       90.0
 70
  0
  0
LINE
  8
LVL0001
  6
DOT
 10
      189.803643
 20
      -95.800000
 30
        0.000000
 11
      189.803643
 21
       -4.800000
 31
        0.000000
  0
TEXT
  8
LVL0000
 62
  2
 10
       63.232298
 20
       41.301182
 30
        0.000000
 40
        4.000000
  1
ＩＶＳ３０ＥＡ１
 50
        0.000000
 41
        0.835000
 51
        0.000000
  7
BIGFONT
  0
LINE
  8
LVL0000
 62
  3
 10
       35.000000
 20
     -100.000000
 30
        0.000000
 11
       35.000000
 21
        0.000000
 31
        0.000000
  0
LINE
  8
LVL0000
 62
  3
 10
      -20.700000
 20
      -63.200000
 30
        0.000000
 11
      -35.000000
 21
      -63.200000
 31
        0.000000
  0
LINE
  8
LVL0000
 62
  3
 10
      -20.700000
 20
      -36.800000
 30
        0.000000
 11
      -35.000000
 21
      -36.800000
 31
        0.000000
  0
ARC
  8
LVL0000
 62
  3
 10
      -20.700000
 20
      -37.300000
 30
        0.000000
 40
        0.500000
 50
        0.000000
 51
       90.000000
  0
LINE
  8
LVL0000
 62
  3
 10
      -20.200000
 20
      -62.700000
 30
        0.000000
 11
      -20.200000
 21
      -37.300000
 31
        0.000000
  0
ARC
  8
LVL0000
 62
  3
 10
      -20.700000
 20
      -62.700000
 30
        0.000000
 40
        0.500000
 50
      270.000000
 51
      360.000000
  0
LINE
  8
LVL0000
 62
  3
 10
      -35.000000
 20
     -100.000000
 30
        0.000000
 11
      -35.000000
 21
        0.000000
 31
        0.000000
  0
LINE
  8
LVL0000
 62
  3
 10
       -6.050016
 20
        5.000049
 30
        0.000000
 11
      -17.950033
 21
        5.000049
 31
        0.000000
  0
LINE
  8
LVL0000
 62
  3
 10
       17.949984
 20
        5.000049
 30
        0.000000
 11
        6.049967
 21
        5.000049
 31
        0.000000
  0
LINE
  8
LVL0000
 62
  3
 10
       17.949984
 20
        5.000049
 30
        0.000000
 11
       17.949991
 21
        0.000000
 31
        0.000000
  0
LINE
  8
LVL0000
 62
  3
 10
        6.049967
 20
        5.000049
 30
        0.000000
 11
        6.049967
 21
        0.000000
 31
        0.000000
  0
LINE
  8
LVL0000
 62
  3
 10
       -6.050016
 20
        5.000049
 30
        0.000000
 11
       -6.050009
 21
        0.000000
 31
        0.000000
  0
LINE
  8
LVL0000
 62
  3
 10
      -17.950033
 20
        5.000049
 30
        0.000000
 11
      -17.950033
 21
        0.000000
 31
        0.000000
  0
LINE
  8
LVL0000
 62
  3
 10
       26.020004
 20
     -104.600016
 30
        0.000000
 11
       21.020004
 21
     -104.600008
 31
        0.000000
  0
LINE
  8
LVL0000
 62
  3
 10
       19.244983
 20
     -104.500002
 30
        0.000000
 11
      -19.244983
 21
     -104.500002
 31
        0.000000
  0
LINE
  8
LVL0000
 62
  3
 10
      -21.020004
 20
     -104.600008
 30
        0.000000
 11
      -26.020004
 21
     -104.600008
 31
        0.000000
  0
LINE
  8
LVL0000
 62
  3
 10
       19.244983
 20
     -104.500002
 30
        0.000000
 11
       19.244983
 21
     -100.000000
 31
        0.000000
  0
LINE
  8
LVL0000
 62
  3
 10
      -19.244983
 20
     -104.500002
 30
        0.000000
 11
      -19.244983
 21
     -100.000000
 31
        0.000000
  0
LINE
  8
LVL0000
 62
  3
 10
       26.020004
 20
     -104.600016
 30
        0.000000
 11
       26.020004
 21
     -100.000000
 31
        0.000000
  0
LINE
  8
LVL0000
 62
  3
 10
       23.520004
 20
     -104.600008
 30
        0.000000
 11
       23.520004
 21
     -100.000000
 31
        0.000000
  0
LINE
  8
LVL0000
 62
  3
 10
       21.020004
 20
     -104.600008
 30
        0.000000
 11
       21.020004
 21
     -100.000000
 31
        0.000000
  0
LINE
  8
LVL0000
 62
  3
 10
      -23.520004
 20
     -104.600008
 30
        0.000000
 11
      -23.520004
 21
     -100.000000
 31
        0.000000
  0
LINE
  8
LVL0000
 62
  3
 10
      -26.020004
 20
     -104.600008
 30
        0.000000
 11
      -26.020004
 21
     -100.000000
 31
        0.000000
  0
LINE
  8
LVL0000
 62
  3
 10
      -21.020004
 20
     -104.600008
 30
        0.000000
 11
      -21.020004
 21
     -100.000000
 31
        0.000000
  0
LINE
  8
LVL0000
 62
  3
 10
       99.610451
 20
      -50.000000
 30
        0.000000
 11
       99.610451
 21
       -1.000000
 31
        0.000000
  0
ARC
  8
LVL0000
 62
  3
 10
       98.610451
 20
      -99.000000
 30
        0.000000
 40
        1.000000
 50
      270.000000
 51
      360.000000
  0
LINE
  8
LVL0000
 62
  3
 10
       99.610451
 20
      -50.000000
 30
        0.000000
 11
       99.610451
 21
      -99.000000
 31
        0.000000
  0
ARC
  8
LVL0000
 62
  3
 10
       98.610451
 20
       -1.000000
 30
        0.000000
 40
        1.000000
 50
        0.000000
 51
       90.000000
  0
LINE
  8
LVL0000
 62
  3
 10
       98.610451
 20
        0.000000
 30
        0.000000
 11
       74.910451
 21
        0.000000
 31
        0.000000
  0
LINE
  8
LVL0000
 62
  3
 10
       74.610451
 20
      -50.000000
 30
        0.000000
 11
       74.610451
 21
       -0.300000
 31
        0.000000
  0
ARC
  8
LVL0000
 62
  3
 10
       74.910451
 20
       -0.300000
 30
        0.000000
 40
        0.300000
 50
       90.000000
 51
      179.999990
  0
LINE
  8
LVL0000
 62
  3
 10
       74.610451
 20
      -50.000000
 30
        0.000000
 11
       74.610451
 21
      -99.700000
 31
        0.000000
  0
LINE
  8
LVL0000
 62
  3
 10
       98.610451
 20
     -100.000000
 30
        0.000000
 11
       74.910451
 21
     -100.000000
 31
        0.000000
  0
ARC
  8
LVL0000
 62
  3
 10
       74.910451
 20
      -99.700000
 30
        0.000000
 40
        0.300000
 50
      179.999990
 51
      270.000000
  0
LINE
  8
LVL0000
 62
  3
 10
       88.510451
 20
      -50.000000
 30
        0.000000
 11
       88.510451
 21
      -46.500000
 31
        0.000000
  0
LINE
  8
LVL0000
 62
  3
 10
       91.010451
 20
      -50.000000
 30
        0.000000
 11
       91.010451
 21
      -46.500000
 31
        0.000000
  0
LINE
  8
LVL0000
 62
  3
 10
       88.510451
 20
      -46.500000
 30
        0.000000
 11
       91.010451
 21
      -46.500000
 31
        0.000000
  0
LINE
  8
LVL0000
 62
  3
 10
       88.510451
 20
      -53.500000
 30
        0.000000
 11
       91.010451
 21
      -53.500000
 31
        0.000000
  0
LINE
  8
LVL0000
 62
  3
 10
       91.010451
 20
      -50.000000
 30
        0.000000
 11
       91.010451
 21
      -53.500000
 31
        0.000000
  0
LINE
  8
LVL0000
 62
  3
 10
       88.510451
 20
      -50.000000
 30
        0.000000
 11
       88.510451
 21
      -53.500000
 31
        0.000000
  0
LINE
  8
LVL0000
 62
  3
 10
       89.010451
 20
      -48.250000
 30
        0.000000
 11
       90.510451
 21
      -48.250000
 31
        0.000000
  0
LINE
  8
LVL0000
 62
  3
 10
       89.010451
 20
      -49.750000
 30
        0.000000
 11
       89.010451
 21
      -48.250000
 31
        0.000000
  0
LINE
  8
LVL0000
 62
  3
 10
       90.510451
 20
      -49.750000
 30
        0.000000
 11
       90.510451
 21
      -48.250000
 31
        0.000000
  0
LINE
  8
LVL0000
 62
  3
 10
       89.010451
 20
      -49.750000
 30
        0.000000
 11
       90.510451
 21
      -49.750000
 31
        0.000000
  0
LINE
  8
LVL0000
 62
  3
 10
        0.000000
 20
       52.403048
 30
        0.000000
 11
      -33.000000
 21
       52.403048
 31
        0.000000
  0
LINE
  8
LVL0000
 62
  3
 10
      -34.000000
 20
       52.403048
 30
        0.000000
 11
      -35.000000
 21
       52.403048
 31
        0.000000
  0
ARC
  8
LVL0000
 62
  3
 10
      -33.000000
 20
       51.403048
 30
        0.000000
 40
        1.000000
 50
       90.000000
 51
      179.999990
  0
ARC
  8
LVL0000
 62
  3
 10
       33.000000
 20
       51.403048
 30
        0.000000
 40
        1.000000
 50
        0.000000
 51
       90.000000
  0
LINE
  8
LVL0000
 62
  3
 10
       34.000000
 20
       52.403048
 30
        0.000000
 11
       35.000000
 21
       52.403048
 31
        0.000000
  0
LINE
  8
LVL0000
 62
  3
 10
        0.000000
 20
       52.403048
 30
        0.000000
 11
       33.000000
 21
       52.403048
 31
        0.000000
  0
LINE
  8
LVL0000
 62
  3
 10
        0.000000
 20
       28.403048
 30
        0.000000
 11
      -34.000000
 21
       28.403048
 31
        0.000000
  0
LINE
  8
LVL0000
 62
  3
 10
        0.000000
 20
       27.403048
 30
        0.000000
 11
      -34.000000
 21
       27.403048
 31
        0.000000
  0
LINE
  8
LVL0000
 62
  3
 10
      -34.000000
 20
       52.403048
 30
        0.000000
 11
      -34.000000
 21
       28.403048
 31
        0.000000
  0
LINE
  8
LVL0000
 62
  3
 10
      -35.000000
 20
       52.403048
 30
        0.000000
 11
      -35.000000
 21
       28.403048
 31
        0.000000
  0
LINE
  8
LVL0000
 62
  3
 10
      -34.000000
 20
       52.403048
 30
        0.000000
 11
      -34.000000
 21
       28.403048
 31
        0.000000
  0
ARC
  8
LVL0000
 62
  3
 10
      -34.000000
 20
       28.403048
 30
        0.000000
 40
        1.000000
 50
      179.999990
 51
      270.000000
  0
ARC
  8
LVL0000
 62
  3
 10
       34.000000
 20
       28.403048
 30
        0.000000
 40
        1.000000
 50
      270.000000
 51
      360.000000
  0
LINE
  8
LVL0000
 62
  3
 10
       34.000000
 20
       52.403048
 30
        0.000000
 11
       34.000000
 21
       28.403048
 31
        0.000000
  0
LINE
  8
LVL0000
 62
  3
 10
       35.000000
 20
       52.403048
 30
        0.000000
 11
       35.000000
 21
       28.403048
 31
        0.000000
  0
LINE
  8
LVL0000
 62
  3
 10
       34.000000
 20
       52.403048
 30
        0.000000
 11
       34.000000
 21
       28.403048
 31
        0.000000
  0
LINE
  8
LVL0000
 62
  3
 10
        0.000000
 20
       27.403048
 30
        0.000000
 11
       34.000000
 21
       27.403048
 31
        0.000000
  0
LINE
  8
LVL0000
 62
  3
 10
        0.000000
 20
       28.403048
 30
        0.000000
 11
       34.000000
 21
       28.403048
 31
        0.000000
  0
CIRCLE
  8
LVL0000
 62
  3
 10
       12.000025
 20
       39.903048
 30
        0.000000
 40
        7.500000
  0
CIRCLE
  8
LVL0000
 62
  3
 10
      -12.000025
 20
       39.903048
 30
        0.000000
 40
        7.500000
  0
CIRCLE
  8
LVL0000
 62
  3
 10
       27.000000
 20
      -41.500000
 30
        0.000000
 40
        1.600000
  0
CIRCLE
  8
LVL0000
 62
  3
 10
      -14.380025
 20
       38.523048
 30
        0.000000
 40
        0.500000
  0
CIRCLE
  8
LVL0000
 62
  3
 10
       -9.620025
 20
       38.523048
 30
        0.000000
 40
        0.500000
  0
CIRCLE
  8
LVL0000
 62
  3
 10
      -12.950025
 20
       37.323048
 30
        0.000000
 40
        0.500000
  0
CIRCLE
  8
LVL0000
 62
  3
 10
      -11.050025
 20
       37.323048
 30
        0.000000
 40
        0.500000
  0
CIRCLE
  8
LVL0000
 62
  3
 10
      -14.710025
 20
       40.383048
 30
        0.000000
 40
        0.500000
  0
CIRCLE
  8
LVL0000
 62
  3
 10
       -9.290025
 20
       40.383048
 30
        0.000000
 40
        0.500000
  0
CIRCLE
  8
LVL0000
 62
  3
 10
      -13.770025
 20
       42.013048
 30
        0.000000
 40
        0.500000
  0
CIRCLE
  8
LVL0000
 62
  3
 10
      -10.230025
 20
       42.013048
 30
        0.000000
 40
        0.500000
  0
CIRCLE
  8
LVL0000
 62
  3
 10
      -12.000025
 20
       42.653048
 30
        0.000000
 40
        0.500000
  0
CIRCLE
  8
LVL0000
 62
  3
 10
      -12.950025
 20
       40.453048
 30
        0.000000
 40
        0.500000
  0
CIRCLE
  8
LVL0000
 62
  3
 10
      -11.050025
 20
       40.453048
 30
        0.000000
 40
        0.500000
  0
CIRCLE
  8
LVL0000
 62
  3
 10
      -12.000025
 20
       38.803048
 30
        0.000000
 40
        0.500000
  0
CIRCLE
  8
LVL0000
 62
  3
 10
      -12.000025
 20
       39.903048
 30
        0.000000
 40
        5.949890
  0
CIRCLE
  8
LVL0000
 62
  3
 10
      -12.000025
 20
       39.903048
 30
        0.000000
 40
        7.000000
  0
CIRCLE
  8
LVL0000
 62
  3
 10
      -12.000025
 20
       39.903048
 30
        0.000000
 40
        4.799988
  0
CIRCLE
  8
LVL0000
 62
  3
 10
      -12.000025
 20
       39.903048
 30
        0.000000
 40
        3.800049
  0
CIRCLE
  8
LVL0000
 62
  3
 10
       14.380025
 20
       38.523048
 30
        0.000000
 40
        0.500000
  0
CIRCLE
  8
LVL0000
 62
  3
 10
        9.620025
 20
       38.523048
 30
        0.000000
 40
        0.500000
  0
CIRCLE
  8
LVL0000
 62
  3
 10
       12.950025
 20
       37.323048
 30
        0.000000
 40
        0.500000
  0
CIRCLE
  8
LVL0000
 62
  3
 10
       11.050025
 20
       37.323048
 30
        0.000000
 40
        0.500000
  0
CIRCLE
  8
LVL0000
 62
  3
 10
       14.710025
 20
       40.383048
 30
        0.000000
 40
        0.500000
  0
CIRCLE
  8
LVL0000
 62
  3
 10
        9.290025
 20
       40.383048
 30
        0.000000
 40
        0.500000
  0
CIRCLE
  8
LVL0000
 62
  3
 10
       13.770025
 20
       42.013048
 30
        0.000000
 40
        0.500000
  0
CIRCLE
  8
LVL0000
 62
  3
 10
       10.230025
 20
       42.013048
 30
        0.000000
 40
        0.500000
  0
CIRCLE
  8
LVL0000
 62
  3
 10
       12.000025
 20
       42.653048
 30
        0.000000
 40
        0.500000
  0
CIRCLE
  8
LVL0000
 62
  3
 10
       12.950025
 20
       40.453048
 30
        0.000000
 40
        0.500000
  0
CIRCLE
  8
LVL0000
 62
  3
 10
       11.050025
 20
       40.453048
 30
        0.000000
 40
        0.500000
  0
CIRCLE
  8
LVL0000
 62
  3
 10
       12.000025
 20
       38.803048
 30
        0.000000
 40
        0.500000
  0
CIRCLE
  8
LVL0000
 62
  3
 10
       12.000025
 20
       39.903048
 30
        0.000000
 40
        5.949890
  0
CIRCLE
  8
LVL0000
 62
  3
 10
       12.000025
 20
       39.903048
 30
        0.000000
 40
        7.000000
  0
CIRCLE
  8
LVL0000
 62
  3
 10
       12.000025
 20
       39.903048
 30
        0.000000
 40
        4.799988
  0
CIRCLE
  8
LVL0000
 62
  3
 10
       12.000025
 20
       39.903048
 30
        0.000000
 40
        3.800049
  0
LINE
  8
LVL0000
 62
  3
 10
       96.410435
 20
      -14.685684
 30
        0.000000
 11
       96.410435
 21
      -15.314316
 31
        0.000000
  0
LINE
  8
LVL0000
 62
  3
 10
       95.535721
 20
      -15.329582
 30
        0.000000
 11
       96.410435
 21
      -15.314316
 31
        0.000000
  0
LINE
  8
LVL0000
 62
  3
 10
       95.129460
 20
      -15.519024
 30
        0.000000
 11
       95.535721
 21
      -15.329582
 31
        0.000000
  0
LINE
  8
LVL0000
 62
  3
 10
       95.129458
 20
      -15.519024
 30
        0.000000
 11
       94.940016
 21
      -15.925285
 31
        0.000000
  0
LINE
  8
LVL0000
 62
  3
 10
       94.940016
 20
      -15.925285
 30
        0.000000
 11
       94.924747
 21
      -16.799999
 31
        0.000000
  0
LINE
  8
LVL0000
 62
  3
 10
       94.924747
 20
      -16.799999
 30
        0.000000
 11
       94.610451
 21
      -16.799999
 31
        0.000000
  0
LINE
  8
LVL0000
 62
  3
 10
       94.296155
 20
      -16.799999
 30
        0.000000
 11
       94.610451
 21
      -16.799999
 31
        0.000000
  0
LINE
  8
LVL0000
 62
  3
 10
       94.280887
 20
      -15.925285
 30
        0.000000
 11
       94.296155
 21
      -16.799999
 31
        0.000000
  0
LINE
  8
LVL0000
 62
  3
 10
       94.091444
 20
      -15.519024
 30
        0.000000
 11
       94.280887
 21
      -15.925285
 31
        0.000000
  0
LINE
  8
LVL0000
 62
  3
 10
       94.091442
 20
      -15.519024
 30
        0.000000
 11
       93.685181
 21
      -15.329582
 31
        0.000000
  0
LINE
  8
LVL0000
 62
  3
 10
       93.685181
 20
      -15.329582
 30
        0.000000
 11
       92.810467
 21
      -15.314316
 31
        0.000000
  0
LINE
  8
LVL0000
 62
  3
 10
       92.810467
 20
      -15.314316
 30
        0.000000
 11
       92.810467
 21
      -15.000019
 31
        0.000000
  0
LINE
  8
LVL0000
 62
  3
 10
       94.924747
 20
      -13.200001
 30
        0.000000
 11
       94.610451
 21
      -13.200001
 31
        0.000000
  0
LINE
  8
LVL0000
 62
  3
 10
       94.940016
 20
      -14.074715
 30
        0.000000
 11
       94.924747
 21
      -13.200001
 31
        0.000000
  0
LINE
  8
LVL0000
 62
  3
 10
       95.129458
 20
      -14.480976
 30
        0.000000
 11
       94.940016
 21
      -14.074715
 31
        0.000000
  0
LINE
  8
LVL0000
 62
  3
 10
       95.129460
 20
      -14.480976
 30
        0.000000
 11
       95.535721
 21
      -14.670418
 31
        0.000000
  0
LINE
  8
LVL0000
 62
  3
 10
       95.535721
 20
      -14.670418
 30
        0.000000
 11
       96.410435
 21
      -14.685684
 31
        0.000000
  0
LINE
  8
LVL0000
 62
  3
 10
       92.810467
 20
      -14.685684
 30
        0.000000
 11
       92.810467
 21
      -14.999981
 31
        0.000000
  0
LINE
  8
LVL0000
 62
  3
 10
       93.685181
 20
      -14.670418
 30
        0.000000
 11
       92.810467
 21
      -14.685684
 31
        0.000000
  0
LINE
  8
LVL0000
 62
  3
 10
       94.091442
 20
      -14.480976
 30
        0.000000
 11
       93.685181
 21
      -14.670418
 31
        0.000000
  0
LINE
  8
LVL0000
 62
  3
 10
       94.296155
 20
      -13.200001
 30
        0.000000
 11
       94.610451
 21
      -13.200001
 31
        0.000000
  0
LINE
  8
LVL0000
 62
  3
 10
       94.280887
 20
      -14.074715
 30
        0.000000
 11
       94.296155
 21
      -13.200001
 31
        0.000000
  0
LINE
  8
LVL0000
 62
  3
 10
       94.091444
 20
      -14.480976
 30
        0.000000
 11
       94.280887
 21
      -14.074715
 31
        0.000000
  0
CIRCLE
  8
LVL0000
 62
  3
 10
       94.610451
 20
      -15.000000
 30
        0.000000
 40
        3.150000
  0
LINE
  8
LVL0000
 62
  3
 10
       96.410435
 20
      -84.685684
 30
        0.000000
 11
       96.410435
 21
      -85.314316
 31
        0.000000
  0
LINE
  8
LVL0000
 62
  3
 10
       95.535721
 20
      -85.329582
 30
        0.000000
 11
       96.410435
 21
      -85.314316
 31
        0.000000
  0
LINE
  8
LVL0000
 62
  3
 10
       95.129460
 20
      -85.519024
 30
        0.000000
 11
       95.535721
 21
      -85.329582
 31
        0.000000
  0
LINE
  8
LVL0000
 62
  3
 10
       95.129458
 20
      -85.519024
 30
        0.000000
 11
       94.940016
 21
      -85.925285
 31
        0.000000
  0
LINE
  8
LVL0000
 62
  3
 10
       94.940016
 20
      -85.925285
 30
        0.000000
 11
       94.924747
 21
      -86.799999
 31
        0.000000
  0
LINE
  8
LVL0000
 62
  3
 10
       94.924747
 20
      -86.799999
 30
        0.000000
 11
       94.610451
 21
      -86.799999
 31
        0.000000
  0
LINE
  8
LVL0000
 62
  3
 10
       94.296155
 20
      -86.799999
 30
        0.000000
 11
       94.610451
 21
      -86.799999
 31
        0.000000
  0
LINE
  8
LVL0000
 62
  3
 10
       94.280887
 20
      -85.925285
 30
        0.000000
 11
       94.296155
 21
      -86.799999
 31
        0.000000
  0
LINE
  8
LVL0000
 62
  3
 10
       94.091444
 20
      -85.519024
 30
        0.000000
 11
       94.280887
 21
      -85.925285
 31
        0.000000
  0
LINE
  8
LVL0000
 62
  3
 10
       94.091442
 20
      -85.519024
 30
        0.000000
 11
       93.685181
 21
      -85.329582
 31
        0.000000
  0
LINE
  8
LVL0000
 62
  3
 10
       93.685181
 20
      -85.329582
 30
        0.000000
 11
       92.810467
 21
      -85.314316
 31
        0.000000
  0
LINE
  8
LVL0000
 62
  3
 10
       92.810467
 20
      -85.314316
 30
        0.000000
 11
       92.810467
 21
      -85.000019
 31
        0.000000
  0
LINE
  8
LVL0000
 62
  3
 10
       94.924747
 20
      -83.200001
 30
        0.000000
 11
       94.610451
 21
      -83.200001
 31
        0.000000
  0
LINE
  8
LVL0000
 62
  3
 10
       94.940016
 20
      -84.074715
 30
        0.000000
 11
       94.924747
 21
      -83.200001
 31
        0.000000
  0
LINE
  8
LVL0000
 62
  3
 10
       95.129458
 20
      -84.480976
 30
        0.000000
 11
       94.940016
 21
      -84.074715
 31
        0.000000
  0
LINE
  8
LVL0000
 62
  3
 10
       95.129460
 20
      -84.480976
 30
        0.000000
 11
       95.535721
 21
      -84.670418
 31
        0.000000
  0
LINE
  8
LVL0000
 62
  3
 10
       95.535721
 20
      -84.670418
 30
        0.000000
 11
       96.410435
 21
      -84.685684
 31
        0.000000
  0
LINE
  8
LVL0000
 62
  3
 10
       92.810467
 20
      -84.685684
 30
        0.000000
 11
       92.810467
 21
      -84.999981
 31
        0.000000
  0
LINE
  8
LVL0000
 62
  3
 10
       93.685181
 20
      -84.670418
 30
        0.000000
 11
       92.810467
 21
      -84.685684
 31
        0.000000
  0
LINE
  8
LVL0000
 62
  3
 10
       94.091442
 20
      -84.480976
 30
        0.000000
 11
       93.685181
 21
      -84.670418
 31
        0.000000
  0
LINE
  8
LVL0000
 62
  3
 10
       94.296155
 20
      -83.200001
 30
        0.000000
 11
       94.610451
 21
      -83.200001
 31
        0.000000
  0
LINE
  8
LVL0000
 62
  3
 10
       94.280887
 20
      -84.074715
 30
        0.000000
 11
       94.296155
 21
      -83.200001
 31
        0.000000
  0
LINE
  8
LVL0000
 62
  3
 10
       94.091444
 20
      -84.480976
 30
        0.000000
 11
       94.280887
 21
      -84.074715
 31
        0.000000
  0
CIRCLE
  8
LVL0000
 62
  3
 10
       94.610451
 20
      -85.000000
 30
        0.000000
 40
        3.150000
  0
DIMENSION
  8
LVL0000
  2
BLK0010
 10
       74.610451
 20
     -116.801506
 11
       84.084541
 21
     -116.101501
 13
       74.610451
 23
      -99.699997
 14
       99.610451
 24
      -99.000000
 50
        0.0
 70
  0
  0
LINE
  8
LVL0000
 62
  3
 10
       18.999975
 20
        0.000049
 30
        0.000000
 11
        4.999975
 21
        0.000049
 31
        0.000000
  0
LINE
  8
LVL0000
 62
  3
 10
       -5.000025
 20
        0.000049
 30
        0.000000
 11
      -19.000025
 21
        0.000049
 31
        0.000000
  0
LINE
  8
LVL0000
 62
  3
 10
      -22.300000
 20
      -45.600000
 30
        0.000000
 11
      -33.800000
 21
      -45.600000
 31
        0.000000
  0
LINE
  8
LVL0000
 62
  3
 10
      -26.032233
 20
      -41.410051
 30
        0.000000
 11
      -26.810051
 21
      -40.632233
 31
        0.000000
  0
LINE
  8
LVL0000
 62
  3
 10
      -28.789949
 20
      -44.167767
 30
        0.000000
 11
      -29.567767
 21
      -43.389949
 31
        0.000000
  0
LINE
  8
LVL0000
 62
  3
 10
      -28.789949
 20
      -40.632233
 30
        0.000000
 11
      -29.567767
 21
      -41.410051
 31
        0.000000
  0
LINE
  8
LVL0000
 62
  3
 10
      -26.032233
 20
      -43.389949
 30
        0.000000
 11
      -26.810051
 21
      -44.167767
 31
        0.000000
  0
LINE
  8
LVL0000
 62
  3
 10
      -26.774695
 20
      -42.647487
 30
        0.000000
 11
      -26.774695
 21
      -42.152513
 31
        0.000000
  0
LINE
  8
LVL0000
 62
  3
 10
      -27.552513
 20
      -43.425305
 30
        0.000000
 11
      -28.047487
 21
      -43.425305
 31
        0.000000
  0
LINE
  8
LVL0000
 62
  3
 10
      -28.825305
 20
      -42.647487
 30
        0.000000
 11
      -28.825305
 21
      -42.152513
 31
        0.000000
  0
LINE
  8
LVL0000
 62
  3
 10
      -28.047487
 20
      -43.425305
 30
        0.000000
 11
      -29.316347
 21
      -44.694165
 31
        0.000000
  0
LINE
  8
LVL0000
 62
  3
 10
      -28.825305
 20
      -42.647487
 30
        0.000000
 11
      -30.094165
 21
      -43.916347
 31
        0.000000
  0
LINE
  8
LVL0000
 62
  3
 10
      -25.505835
 20
      -40.883653
 30
        0.000000
 11
      -26.774695
 21
      -42.152513
 31
        0.000000
  0
LINE
  8
LVL0000
 62
  3
 10
      -26.283653
 20
      -40.105835
 30
        0.000000
 11
      -27.552513
 21
      -41.374695
 31
        0.000000
  0
LINE
  8
LVL0000
 62
  3
 10
      -28.047487
 20
      -41.374695
 30
        0.000000
 11
      -27.552513
 21
      -41.374695
 31
        0.000000
  0
LINE
  8
LVL0000
 62
  3
 10
      -26.032233
 20
      -43.389949
 30
        0.000000
 11
      -26.774695
 21
      -42.647487
 31
        0.000000
  0
LINE
  8
LVL0000
 62
  3
 10
      -28.047487
 20
      -41.374695
 30
        0.000000
 11
      -28.789949
 21
      -40.632233
 31
        0.000000
  0
LINE
  8
LVL0000
 62
  3
 10
      -26.810051
 20
      -44.167767
 30
        0.000000
 11
      -27.552513
 21
      -43.425305
 31
        0.000000
  0
LINE
  8
LVL0000
 62
  3
 10
      -28.825305
 20
      -42.152513
 30
        0.000000
 11
      -29.567767
 21
      -41.410051
 31
        0.000000
  0
CIRCLE
  8
LVL0000
 62
  3
 10
      -27.800000
 20
      -42.400000
 30
        0.000000
 40
        2.750000
  0
LINE
  8
LVL0000
 62
  3
 10
      -31.800000
 20
      -46.800000
 30
        0.000000
 11
      -31.800000
 21
      -37.980000
 31
        0.000000
  0
LINE
  8
LVL0000
 62
  3
 10
      -33.800000
 20
      -62.600000
 30
        0.000000
 11
      -33.800000
 21
      -37.400000
 31
        0.000000
  0
LINE
  8
LVL0000
 62
  3
 10
      -31.800000
 20
      -54.400000
 30
        0.000000
 11
      -31.800000
 21
      -53.200000
 31
        0.000000
  0
LINE
  8
LVL0000
 62
  3
 10
      -22.300000
 20
      -60.800000
 30
        0.000000
 11
      -22.300000
 21
      -54.400000
 31
        0.000000
  0
LINE
  8
LVL0000
 62
  3
 10
      -31.800000
 20
      -53.200000
 30
        0.000000
 11
      -31.800000
 21
      -46.800000
 31
        0.000000
  0
LINE
  8
LVL0000
 62
  3
 10
      -31.800000
 20
      -60.800000
 30
        0.000000
 11
      -31.800000
 21
      -54.400000
 31
        0.000000
  0
LINE
  8
LVL0000
 62
  3
 10
      -33.800000
 20
      -48.720000
 30
        0.000000
 11
      -33.800000
 21
      -58.880000
 31
        0.000000
  0
LINE
  8
LVL0000
 62
  3
 10
      -31.800000
 20
      -62.020000
 30
        0.000000
 11
      -31.800000
 21
      -60.800000
 31
        0.000000
  0
CIRCLE
  8
LVL0000
 62
  3
 10
      -27.800000
 20
      -57.600000
 30
        0.000000
 40
        2.750000
  0
LINE
  8
LVL0000
 62
  3
 10
      -28.825305
 20
      -57.352513
 30
        0.000000
 11
      -29.567767
 21
      -56.610051
 31
        0.000000
  0
LINE
  8
LVL0000
 62
  3
 10
      -26.810051
 20
      -59.367767
 30
        0.000000
 11
      -27.552513
 21
      -58.625305
 31
        0.000000
  0
LINE
  8
LVL0000
 62
  3
 10
      -28.047487
 20
      -56.574695
 30
        0.000000
 11
      -28.789949
 21
      -55.832233
 31
        0.000000
  0
LINE
  8
LVL0000
 62
  3
 10
      -26.032233
 20
      -58.589949
 30
        0.000000
 11
      -26.774695
 21
      -57.847487
 31
        0.000000
  0
LINE
  8
LVL0000
 62
  3
 10
      -28.047487
 20
      -56.574695
 30
        0.000000
 11
      -27.552513
 21
      -56.574695
 31
        0.000000
  0
LINE
  8
LVL0000
 62
  3
 10
      -26.283653
 20
      -55.305835
 30
        0.000000
 11
      -27.552513
 21
      -56.574695
 31
        0.000000
  0
LINE
  8
LVL0000
 62
  3
 10
      -25.505835
 20
      -56.083653
 30
        0.000000
 11
      -26.774695
 21
      -57.352513
 31
        0.000000
  0
LINE
  8
LVL0000
 62
  3
 10
      -28.825305
 20
      -57.847487
 30
        0.000000
 11
      -30.094165
 21
      -59.116347
 31
        0.000000
  0
LINE
  8
LVL0000
 62
  3
 10
      -28.047487
 20
      -58.625305
 30
        0.000000
 11
      -29.316347
 21
      -59.894165
 31
        0.000000
  0
LINE
  8
LVL0000
 62
  3
 10
      -28.825305
 20
      -57.847487
 30
        0.000000
 11
      -28.825305
 21
      -57.352513
 31
        0.000000
  0
LINE
  8
LVL0000
 62
  3
 10
      -27.552513
 20
      -58.625305
 30
        0.000000
 11
      -28.047487
 21
      -58.625305
 31
        0.000000
  0
LINE
  8
LVL0000
 62
  3
 10
      -26.774695
 20
      -57.847487
 30
        0.000000
 11
      -26.774695
 21
      -57.352513
 31
        0.000000
  0
LINE
  8
LVL0000
 62
  3
 10
      -26.032233
 20
      -58.589949
 30
        0.000000
 11
      -26.810051
 21
      -59.367767
 31
        0.000000
  0
LINE
  8
LVL0000
 62
  3
 10
      -28.789949
 20
      -55.832233
 30
        0.000000
 11
      -29.567767
 21
      -56.610051
 31
        0.000000
  0
LINE
  8
LVL0000
 62
  3
 10
      -28.789949
 20
      -59.367767
 30
        0.000000
 11
      -29.567767
 21
      -58.589949
 31
        0.000000
  0
LINE
  8
LVL0000
 62
  3
 10
      -26.032233
 20
      -56.610051
 30
        0.000000
 11
      -26.810051
 21
      -55.832233
 31
        0.000000
  0
CIRCLE
  8
LVL0000
 62
  3
 10
      -27.800000
 20
      -50.000000
 30
        0.000000
 40
        2.750000
  0
LINE
  8
LVL0000
 62
  3
 10
      -28.825305
 20
      -49.752513
 30
        0.000000
 11
      -29.567767
 21
      -49.010051
 31
        0.000000
  0
LINE
  8
LVL0000
 62
  3
 10
      -26.810051
 20
      -51.767767
 30
        0.000000
 11
      -27.552513
 21
      -51.025305
 31
        0.000000
  0
LINE
  8
LVL0000
 62
  3
 10
      -28.047487
 20
      -48.974695
 30
        0.000000
 11
      -28.789949
 21
      -48.232233
 31
        0.000000
  0
LINE
  8
LVL0000
 62
  3
 10
      -26.032233
 20
      -50.989949
 30
        0.000000
 11
      -26.774695
 21
      -50.247487
 31
        0.000000
  0
LINE
  8
LVL0000
 62
  3
 10
      -28.047487
 20
      -48.974695
 30
        0.000000
 11
      -27.552513
 21
      -48.974695
 31
        0.000000
  0
LINE
  8
LVL0000
 62
  3
 10
      -26.283653
 20
      -47.705835
 30
        0.000000
 11
      -27.552513
 21
      -48.974695
 31
        0.000000
  0
LINE
  8
LVL0000
 62
  3
 10
      -25.505835
 20
      -48.483653
 30
        0.000000
 11
      -26.774695
 21
      -49.752513
 31
        0.000000
  0
LINE
  8
LVL0000
 62
  3
 10
      -28.825305
 20
      -50.247487
 30
        0.000000
 11
      -30.094165
 21
      -51.516347
 31
        0.000000
  0
LINE
  8
LVL0000
 62
  3
 10
      -28.047487
 20
      -51.025305
 30
        0.000000
 11
      -29.316347
 21
      -52.294165
 31
        0.000000
  0
LINE
  8
LVL0000
 62
  3
 10
      -28.825305
 20
      -50.247487
 30
        0.000000
 11
      -28.825305
 21
      -49.752513
 31
        0.000000
  0
LINE
  8
LVL0000
 62
  3
 10
      -27.552513
 20
      -51.025305
 30
        0.000000
 11
      -28.047487
 21
      -51.025305
 31
        0.000000
  0
LINE
  8
LVL0000
 62
  3
 10
      -26.774695
 20
      -50.247487
 30
        0.000000
 11
      -26.774695
 21
      -49.752513
 31
        0.000000
  0
LINE
  8
LVL0000
 62
  3
 10
      -26.032233
 20
      -50.989949
 30
        0.000000
 11
      -26.810051
 21
      -51.767767
 31
        0.000000
  0
LINE
  8
LVL0000
 62
  3
 10
      -28.789949
 20
      -48.232233
 30
        0.000000
 11
      -29.567767
 21
      -49.010051
 31
        0.000000
  0
LINE
  8
LVL0000
 62
  3
 10
      -28.789949
 20
      -51.767767
 30
        0.000000
 11
      -29.567767
 21
      -50.989949
 31
        0.000000
  0
LINE
  8
LVL0000
 62
  3
 10
      -26.032233
 20
      -49.010051
 30
        0.000000
 11
      -26.810051
 21
      -48.232233
 31
        0.000000
  0
LINE
  8
LVL0000
 62
  3
 10
      -22.300000
 20
      -54.400000
 30
        0.000000
 11
      -33.800000
 21
      -54.400000
 31
        0.000000
  0
LINE
  8
LVL0000
 62
  3
 10
      -22.300000
 20
      -53.200000
 30
        0.000000
 11
      -33.800000
 21
      -53.200000
 31
        0.000000
  0
LINE
  8
LVL0000
 62
  3
 10
      -23.300000
 20
      -60.800000
 30
        0.000000
 11
      -23.300000
 21
      -54.400000
 31
        0.000000
  0
LINE
  8
LVL0000
 62
  3
 10
      -22.300000
 20
      -62.600000
 30
        0.000000
 11
      -22.300000
 21
      -62.020000
 31
        0.000000
  0
LINE
  8
LVL0000
 62
  3
 10
      -23.300000
 20
      -53.200000
 30
        0.000000
 11
      -23.300000
 21
      -46.800000
 31
        0.000000
  0
LINE
  8
LVL0000
 62
  3
 10
      -22.300000
 20
      -53.200000
 30
        0.000000
 11
      -22.300000
 21
      -46.800000
 31
        0.000000
  0
LINE
  8
LVL0000
 62
  3
 10
      -22.300000
 20
      -62.020000
 30
        0.000000
 11
      -33.800000
 21
      -62.020000
 31
        0.000000
  0
LINE
  8
LVL0000
 62
  3
 10
      -22.300000
 20
      -60.800000
 30
        0.000000
 11
      -33.800000
 21
      -60.800000
 31
        0.000000
  0
LINE
  8
LVL0000
 62
  3
 10
      -20.800000
 20
      -62.600000
 30
        0.000000
 11
      -33.800000
 21
      -62.600000
 31
        0.000000
  0
LINE
  8
LVL0000
 62
  3
 10
      -22.300000
 20
      -46.800000
 30
        0.000000
 11
      -33.800000
 21
      -46.800000
 31
        0.000000
  0
LINE
  8
LVL0000
 62
  3
 10
      -22.300000
 20
      -37.980000
 30
        0.000000
 11
      -22.300000
 21
      -37.400000
 31
        0.000000
  0
LINE
  8
LVL0000
 62
  3
 10
      -20.800000
 20
      -37.400000
 30
        0.000000
 11
      -33.800000
 21
      -37.400000
 31
        0.000000
  0
LINE
  8
LVL0000
 62
  3
 10
      -22.300000
 20
      -37.980000
 30
        0.000000
 11
      -33.800000
 21
      -37.980000
 31
        0.000000
  0
LINE
  8
LVL0000
 62
  3
 10
      -22.300000
 20
      -45.600000
 30
        0.000000
 11
      -22.300000
 21
      -39.200000
 31
        0.000000
  0
LINE
  8
LVL0000
 62
  3
 10
      -23.300000
 20
      -45.600000
 30
        0.000000
 11
      -23.300000
 21
      -39.200000
 31
        0.000000
  0
LINE
  8
LVL0000
 62
  3
 10
      -22.300000
 20
      -39.200000
 30
        0.000000
 11
      -33.800000
 21
      -39.200000
 31
        0.000000
  0
LINE
  8
LVL0000
 62
  3
 10
      -20.800000
 20
      -62.600000
 30
        0.000000
 11
      -20.800000
 21
      -37.400000
 31
        0.000000
  0
LINE
  8
LVL0000
 62
  3
 10
       35.000000
 20
     -100.000000
 30
        0.000000
 11
      -35.000000
 21
     -100.000000
 31
        0.000000
  0
LINE
  8
LVL0000
 62
  3
 10
       35.000000
 20
        0.000000
 30
        0.000000
 11
      -35.000000
 21
        0.000000
 31
        0.000000
  0
ENDSEC
  0
EOF
