  0
SECTION
  2
HEADER
  9
$ACADVER
  1
AC1006
  9
$INSBASE
 10
0.0
 20
0.0
 30
0.0
  9
$EXTMIN
 10
     -241.052917
 20
     -242.752930
  9
$EXTMAX
 10
      115.750000
 20
        6.000000
  9
$LIMMIN
 10
     -241.052917
 20
     -242.752930
  9
$LIMMAX
 10
      115.750000
 20
        6.000000
  9
$VIEWCTR
 10
      -62.651459
 20
      -62.651459
  9
$ORTHOMODE
 70
     0
  9
$ANGBASE
 50
0.0
  9
$ANGDIR
 70
     0
  9
$SPLINETYPE
 70
     6
  9
$SPLINESEGS
 70
     8
9
$DIMASZ
 40
        3.000000
9
$DIMEXE
 40
        0.175000
9
$DIMEXO
 40
        0.350000
9
$DIMTXT
 40
        3.500000
9
$DIMGAP
 40
        0.175000
9
$DIMTAD
 70
1
9
$DIMTIH
 70
0
9
$DIMTOH
 70
0
  0
ENDSEC
  0
SECTION
  2
TABLES
  0
TABLE
  2
LTYPE
 70
     5
  0
LTYPE
  2
CONTINUOUS
 70
    64
  3
SOLID LINE
 72
    65
 73
     0
 40
0.0
  0
LTYPE
  2
DASHED
 70
    64
  3
-- -- -- -- -- --
 72
    65
 73
     2
 40
  0.75  
 49
  0.50  
 49
 -0.25  
  0
LTYPE
  2
DOT
 70
    64
  3
....................
 72
    65
 73
     2
 40
  0.25  
 49
  0.02  
 49
 -0.23  
  0
LTYPE
  2
CENTER
 70
    64
  3
-- . -- . -- . -- .
 72
    65
 73
    4
 40
  2.00  
 49
  1.25  
 49
 -0.25  
 49
  0.25  
 49
 -0.25  
  0
LTYPE
  2
PHANTOM
 70
    64
  3
-- .. -- .. -- ..
 72
    65
 73
    6
 40
  2.50  
 49
  1.25  
 49
 -0.25  
 49
  0.25  
 49
 -0.25  
 49
  0.25  
 49
 -0.25  
  0
ENDTAB
  0
TABLE
  2
LAYER
 70
     1
  0
LAYER
  2
LVL0000
 70
    64
 62
     3
  6
CONTINUOUS
  0
ENDTAB
  0
TABLE
  2
STYLE
 70
     2
  0
STYLE
  2
STANDARD
 70
    64
 40
0.0
 41
1.0
 50
0.0
 71
     0
 42
5.0
  3
ROMANS
  4
BIGFONT
  0
STYLE
  2
BIGFONT
 70
    64
 40
0.0
 41
1.0
 50
0.0
 71
     0
 42
5.0
  3
ROMANS
  4
BIGFONT
  0
ENDTAB
  0
TABLE
  2
VIEW
 70
     0
  0
ENDTAB
  0
TABLE
  2
UCS
 70
     0
  0
ENDTAB
  0
TABLE
  2
DWGMGR
 70
     0
  0
ENDTAB
  0
ENDSEC
  0
SECTION
  2
BLOCKS
  0
BLOCK
  8
0
  2
BLK0001
 70
    64
 10
        0.000000
 20
        0.000000
  0
TEXT
  8
LVL0000
 62
  4
 10
       95.336586
 20
     -204.252457
 30
        0.000000
 40
        3.500000
  1
２２．３６
 50
        0.000000
 41
        0.835000
 51
        0.000000
  7
BIGFONT
  0
LINE
  8
LVL0000
 62
  4
 10
       93.389999
 20
     -161.852936
 30
        0.000000
 11
       93.389999
 21
     -204.602463
 31
        0.000000
  0
LINE
  8
LVL0000
 62
  4
 10
      115.750000
 20
     -161.852936
 30
        0.000000
 11
      115.750000
 21
     -204.602463
 31
        0.000000
  0
LINE
  8
LVL0000
 62
  4
 10
       96.389999
 20
     -203.642059
 30
        0.000000
 11
       93.389999
 21
     -204.427460
 31
        0.000000
  0
LINE
  8
LVL0000
 62
  4
 10
       93.389999
 20
     -204.427460
 30
        0.000000
 11
       96.389999
 21
     -205.212860
 31
        0.000000
  0
LINE
  8
LVL0000
 62
  4
 10
      112.750000
 20
     -205.212860
 30
        0.000000
 11
      115.750000
 21
     -204.427460
 31
        0.000000
  0
LINE
  8
LVL0000
 62
  4
 10
      115.750000
 20
     -204.427460
 30
        0.000000
 11
      112.750000
 21
     -203.642059
 31
        0.000000
  0
LINE
  8
LVL0000
 62
  4
 10
       93.389999
 20
     -204.427460
 30
        0.000000
 11
      115.750000
 21
     -204.427460
 31
        0.000000
  0
ENDBLK
  0
BLOCK
  8
0
  2
BLK0002
 70
    64
 10
        0.000000
 20
        0.000000
  0
POLYLINE
  8
LVL0000
 66
1
 70
4
 75
6
  0
VERTEX
  8
LVL0000
 10
       -2.249955
 20
      -76.646949
 70
 16
  0
VERTEX
  8
LVL0000
 10
       -1.719814
 20
      -76.039691
 70
 16
  0
VERTEX
  8
LVL0000
 10
       -1.145361
 20
      -75.681704
 70
 16
  0
VERTEX
  8
LVL0000
 10
       -0.798617
 20
      -75.813747
 70
 16
  0
VERTEX
  8
LVL0000
 10
       -2.249955
 20
      -76.646949
 70
  8
  0
VERTEX
  8
LVL0000
 10
       -2.049606
 20
      -76.431382
 70
  8
  0
VERTEX
  8
LVL0000
 10
       -1.848291
 20
      -76.242006
 70
  8
  0
VERTEX
  8
LVL0000
 10
       -1.649197
 20
      -76.081641
 70
  8
  0
VERTEX
  8
LVL0000
 10
       -1.455512
 20
      -75.953110
 70
  8
  0
VERTEX
  8
LVL0000
 10
       -1.270424
 20
      -75.859234
 70
  8
  0
VERTEX
  8
LVL0000
 10
       -1.097120
 20
      -75.802833
 70
  8
  0
VERTEX
  8
LVL0000
 10
       -0.938789
 20
      -75.786731
 70
  8
  0
VERTEX
  8
LVL0000
 10
       -0.798617
 20
      -75.813747
 70
  8
  0
SEQEND
  0
POLYLINE
  8
LVL0000
 66
1
 70
4
 75
6
  0
VERTEX
  8
LVL0000
 10
       -0.798617
 20
      -75.813747
 70
 16
  0
VERTEX
  8
LVL0000
 10
       -0.170640
 20
      -76.052885
 70
 16
  0
VERTEX
  8
LVL0000
 10
        0.258992
 20
      -77.477426
 70
 16
  0
VERTEX
  8
LVL0000
 10
        1.045191
 20
      -78.219207
 70
 16
  0
VERTEX
  8
LVL0000
 10
       -0.798617
 20
      -75.813747
 70
  8
  0
VERTEX
  8
LVL0000
 10
       -0.571339
 20
      -75.955340
 70
  8
  0
VERTEX
  8
LVL0000
 10
       -0.356153
 20
      -76.186173
 70
  8
  0
VERTEX
  8
LVL0000
 10
       -0.146557
 20
      -76.484352
 70
  8
  0
VERTEX
  8
LVL0000
 10
        0.063954
 20
      -76.827986
 70
  8
  0
VERTEX
  8
LVL0000
 10
        0.281881
 20
      -77.195180
 70
  8
  0
VERTEX
  8
LVL0000
 10
        0.513728
 20
      -77.564044
 70
  8
  0
VERTEX
  8
LVL0000
 10
        0.765997
 20
      -77.912683
 70
  8
  0
VERTEX
  8
LVL0000
 10
        1.045191
 20
      -78.219207
 70
  8
  0
SEQEND
  0
POLYLINE
  8
LVL0000
 66
1
 70
4
 75
6
  0
VERTEX
  8
LVL0000
 10
        1.045191
 20
      -78.219207
 70
 16
  0
VERTEX
  8
LVL0000
 10
        1.391769
 20
      -78.546204
 70
 16
  0
VERTEX
  8
LVL0000
 10
        1.801182
 20
      -78.719608
 70
 16
  0
VERTEX
  8
LVL0000
 10
        2.249949
 20
      -78.796819
 70
 16
  0
VERTEX
  8
LVL0000
 10
        1.045191
 20
      -78.219207
 70
  8
  0
VERTEX
  8
LVL0000
 10
        1.178057
 20
      -78.334743
 70
  8
  0
VERTEX
  8
LVL0000
 10
        1.316539
 20
      -78.436553
 70
  8
  0
VERTEX
  8
LVL0000
 10
        1.460362
 20
      -78.525309
 70
  8
  0
VERTEX
  8
LVL0000
 10
        1.609249
 20
      -78.601683
 70
  8
  0
VERTEX
  8
LVL0000
 10
        1.762927
 20
      -78.666348
 70
  8
  0
VERTEX
  8
LVL0000
 10
        1.921120
 20
      -78.719978
 70
  8
  0
VERTEX
  8
LVL0000
 10
        2.083552
 20
      -78.763244
 70
  8
  0
VERTEX
  8
LVL0000
 10
        2.249949
 20
      -78.796819
 70
  8
  0
SEQEND
  0
ENDBLK
  0
BLOCK
  8
0
  2
BLK0003
 70
    64
 10
        0.000000
 20
        0.000000
  0
POLYLINE
  8
LVL0000
 66
1
 70
4
 75
6
  0
VERTEX
  8
LVL0000
 10
       -2.249955
 20
      -79.646949
 70
 16
  0
VERTEX
  8
LVL0000
 10
       -1.719814
 20
      -79.039691
 70
 16
  0
VERTEX
  8
LVL0000
 10
       -1.145361
 20
      -78.681704
 70
 16
  0
VERTEX
  8
LVL0000
 10
       -0.798617
 20
      -78.813747
 70
 16
  0
VERTEX
  8
LVL0000
 10
       -2.249955
 20
      -79.646949
 70
  8
  0
VERTEX
  8
LVL0000
 10
       -2.049606
 20
      -79.431382
 70
  8
  0
VERTEX
  8
LVL0000
 10
       -1.848291
 20
      -79.242006
 70
  8
  0
VERTEX
  8
LVL0000
 10
       -1.649197
 20
      -79.081641
 70
  8
  0
VERTEX
  8
LVL0000
 10
       -1.455512
 20
      -78.953110
 70
  8
  0
VERTEX
  8
LVL0000
 10
       -1.270424
 20
      -78.859234
 70
  8
  0
VERTEX
  8
LVL0000
 10
       -1.097120
 20
      -78.802833
 70
  8
  0
VERTEX
  8
LVL0000
 10
       -0.938789
 20
      -78.786731
 70
  8
  0
VERTEX
  8
LVL0000
 10
       -0.798617
 20
      -78.813747
 70
  8
  0
SEQEND
  0
POLYLINE
  8
LVL0000
 66
1
 70
4
 75
6
  0
VERTEX
  8
LVL0000
 10
       -0.798617
 20
      -78.813747
 70
 16
  0
VERTEX
  8
LVL0000
 10
       -0.170640
 20
      -79.052885
 70
 16
  0
VERTEX
  8
LVL0000
 10
        0.258992
 20
      -80.477426
 70
 16
  0
VERTEX
  8
LVL0000
 10
        1.045191
 20
      -81.219207
 70
 16
  0
VERTEX
  8
LVL0000
 10
       -0.798617
 20
      -78.813747
 70
  8
  0
VERTEX
  8
LVL0000
 10
       -0.571339
 20
      -78.955340
 70
  8
  0
VERTEX
  8
LVL0000
 10
       -0.356153
 20
      -79.186173
 70
  8
  0
VERTEX
  8
LVL0000
 10
       -0.146557
 20
      -79.484352
 70
  8
  0
VERTEX
  8
LVL0000
 10
        0.063954
 20
      -79.827986
 70
  8
  0
VERTEX
  8
LVL0000
 10
        0.281881
 20
      -80.195180
 70
  8
  0
VERTEX
  8
LVL0000
 10
        0.513728
 20
      -80.564044
 70
  8
  0
VERTEX
  8
LVL0000
 10
        0.765997
 20
      -80.912683
 70
  8
  0
VERTEX
  8
LVL0000
 10
        1.045191
 20
      -81.219207
 70
  8
  0
SEQEND
  0
POLYLINE
  8
LVL0000
 66
1
 70
4
 75
6
  0
VERTEX
  8
LVL0000
 10
        1.045191
 20
      -81.219207
 70
 16
  0
VERTEX
  8
LVL0000
 10
        1.391769
 20
      -81.546204
 70
 16
  0
VERTEX
  8
LVL0000
 10
        1.801182
 20
      -81.719608
 70
 16
  0
VERTEX
  8
LVL0000
 10
        2.249949
 20
      -81.796819
 70
 16
  0
VERTEX
  8
LVL0000
 10
        1.045191
 20
      -81.219207
 70
  8
  0
VERTEX
  8
LVL0000
 10
        1.178057
 20
      -81.334743
 70
  8
  0
VERTEX
  8
LVL0000
 10
        1.316539
 20
      -81.436553
 70
  8
  0
VERTEX
  8
LVL0000
 10
        1.460362
 20
      -81.525309
 70
  8
  0
VERTEX
  8
LVL0000
 10
        1.609249
 20
      -81.601683
 70
  8
  0
VERTEX
  8
LVL0000
 10
        1.762927
 20
      -81.666348
 70
  8
  0
VERTEX
  8
LVL0000
 10
        1.921120
 20
      -81.719978
 70
  8
  0
VERTEX
  8
LVL0000
 10
        2.083552
 20
      -81.763244
 70
  8
  0
VERTEX
  8
LVL0000
 10
        2.249949
 20
      -81.796819
 70
  8
  0
SEQEND
  0
ENDBLK
  0
BLOCK
  8
0
  2
BLK0004
 70
    64
 10
        0.000000
 20
        0.000000
  0
POLYLINE
  8
LVL0000
 66
1
 70
4
 75
6
  0
VERTEX
  8
LVL0000
 10
      102.750045
 20
      -76.646949
 70
 16
  0
VERTEX
  8
LVL0000
 10
      103.280186
 20
      -76.039691
 70
 16
  0
VERTEX
  8
LVL0000
 10
      103.854639
 20
      -75.681704
 70
 16
  0
VERTEX
  8
LVL0000
 10
      104.201383
 20
      -75.813747
 70
 16
  0
VERTEX
  8
LVL0000
 10
      102.750045
 20
      -76.646949
 70
  8
  0
VERTEX
  8
LVL0000
 10
      102.950394
 20
      -76.431382
 70
  8
  0
VERTEX
  8
LVL0000
 10
      103.151709
 20
      -76.242006
 70
  8
  0
VERTEX
  8
LVL0000
 10
      103.350803
 20
      -76.081641
 70
  8
  0
VERTEX
  8
LVL0000
 10
      103.544488
 20
      -75.953110
 70
  8
  0
VERTEX
  8
LVL0000
 10
      103.729576
 20
      -75.859234
 70
  8
  0
VERTEX
  8
LVL0000
 10
      103.902880
 20
      -75.802833
 70
  8
  0
VERTEX
  8
LVL0000
 10
      104.061211
 20
      -75.786731
 70
  8
  0
VERTEX
  8
LVL0000
 10
      104.201383
 20
      -75.813747
 70
  8
  0
SEQEND
  0
POLYLINE
  8
LVL0000
 66
1
 70
4
 75
6
  0
VERTEX
  8
LVL0000
 10
      104.201383
 20
      -75.813747
 70
 16
  0
VERTEX
  8
LVL0000
 10
      104.829360
 20
      -76.052885
 70
 16
  0
VERTEX
  8
LVL0000
 10
      105.258992
 20
      -77.477426
 70
 16
  0
VERTEX
  8
LVL0000
 10
      106.045191
 20
      -78.219207
 70
 16
  0
VERTEX
  8
LVL0000
 10
      104.201383
 20
      -75.813747
 70
  8
  0
VERTEX
  8
LVL0000
 10
      104.428661
 20
      -75.955340
 70
  8
  0
VERTEX
  8
LVL0000
 10
      104.643847
 20
      -76.186173
 70
  8
  0
VERTEX
  8
LVL0000
 10
      104.853443
 20
      -76.484352
 70
  8
  0
VERTEX
  8
LVL0000
 10
      105.063954
 20
      -76.827986
 70
  8
  0
VERTEX
  8
LVL0000
 10
      105.281881
 20
      -77.195180
 70
  8
  0
VERTEX
  8
LVL0000
 10
      105.513728
 20
      -77.564044
 70
  8
  0
VERTEX
  8
LVL0000
 10
      105.765997
 20
      -77.912683
 70
  8
  0
VERTEX
  8
LVL0000
 10
      106.045191
 20
      -78.219207
 70
  8
  0
SEQEND
  0
POLYLINE
  8
LVL0000
 66
1
 70
4
 75
6
  0
VERTEX
  8
LVL0000
 10
      106.045191
 20
      -78.219207
 70
 16
  0
VERTEX
  8
LVL0000
 10
      106.391769
 20
      -78.546204
 70
 16
  0
VERTEX
  8
LVL0000
 10
      106.801182
 20
      -78.719608
 70
 16
  0
VERTEX
  8
LVL0000
 10
      107.249949
 20
      -78.796819
 70
 16
  0
VERTEX
  8
LVL0000
 10
      106.045191
 20
      -78.219207
 70
  8
  0
VERTEX
  8
LVL0000
 10
      106.178057
 20
      -78.334743
 70
  8
  0
VERTEX
  8
LVL0000
 10
      106.316539
 20
      -78.436553
 70
  8
  0
VERTEX
  8
LVL0000
 10
      106.460362
 20
      -78.525309
 70
  8
  0
VERTEX
  8
LVL0000
 10
      106.609249
 20
      -78.601683
 70
  8
  0
VERTEX
  8
LVL0000
 10
      106.762927
 20
      -78.666348
 70
  8
  0
VERTEX
  8
LVL0000
 10
      106.921120
 20
      -78.719978
 70
  8
  0
VERTEX
  8
LVL0000
 10
      107.083552
 20
      -78.763244
 70
  8
  0
VERTEX
  8
LVL0000
 10
      107.249949
 20
      -78.796819
 70
  8
  0
SEQEND
  0
ENDBLK
  0
BLOCK
  8
0
  2
BLK0005
 70
    64
 10
        0.000000
 20
        0.000000
  0
POLYLINE
  8
LVL0000
 66
1
 70
4
 75
6
  0
VERTEX
  8
LVL0000
 10
      102.750045
 20
      -79.646949
 70
 16
  0
VERTEX
  8
LVL0000
 10
      103.280186
 20
      -79.039691
 70
 16
  0
VERTEX
  8
LVL0000
 10
      103.854639
 20
      -78.681704
 70
 16
  0
VERTEX
  8
LVL0000
 10
      104.201383
 20
      -78.813747
 70
 16
  0
VERTEX
  8
LVL0000
 10
      102.750045
 20
      -79.646949
 70
  8
  0
VERTEX
  8
LVL0000
 10
      102.950394
 20
      -79.431382
 70
  8
  0
VERTEX
  8
LVL0000
 10
      103.151709
 20
      -79.242006
 70
  8
  0
VERTEX
  8
LVL0000
 10
      103.350803
 20
      -79.081641
 70
  8
  0
VERTEX
  8
LVL0000
 10
      103.544488
 20
      -78.953110
 70
  8
  0
VERTEX
  8
LVL0000
 10
      103.729576
 20
      -78.859234
 70
  8
  0
VERTEX
  8
LVL0000
 10
      103.902880
 20
      -78.802833
 70
  8
  0
VERTEX
  8
LVL0000
 10
      104.061211
 20
      -78.786731
 70
  8
  0
VERTEX
  8
LVL0000
 10
      104.201383
 20
      -78.813747
 70
  8
  0
SEQEND
  0
POLYLINE
  8
LVL0000
 66
1
 70
4
 75
6
  0
VERTEX
  8
LVL0000
 10
      104.201383
 20
      -78.813747
 70
 16
  0
VERTEX
  8
LVL0000
 10
      104.829360
 20
      -79.052885
 70
 16
  0
VERTEX
  8
LVL0000
 10
      105.258992
 20
      -80.477426
 70
 16
  0
VERTEX
  8
LVL0000
 10
      106.045191
 20
      -81.219207
 70
 16
  0
VERTEX
  8
LVL0000
 10
      104.201383
 20
      -78.813747
 70
  8
  0
VERTEX
  8
LVL0000
 10
      104.428661
 20
      -78.955340
 70
  8
  0
VERTEX
  8
LVL0000
 10
      104.643847
 20
      -79.186173
 70
  8
  0
VERTEX
  8
LVL0000
 10
      104.853443
 20
      -79.484352
 70
  8
  0
VERTEX
  8
LVL0000
 10
      105.063954
 20
      -79.827986
 70
  8
  0
VERTEX
  8
LVL0000
 10
      105.281881
 20
      -80.195180
 70
  8
  0
VERTEX
  8
LVL0000
 10
      105.513728
 20
      -80.564044
 70
  8
  0
VERTEX
  8
LVL0000
 10
      105.765997
 20
      -80.912683
 70
  8
  0
VERTEX
  8
LVL0000
 10
      106.045191
 20
      -81.219207
 70
  8
  0
SEQEND
  0
POLYLINE
  8
LVL0000
 66
1
 70
4
 75
6
  0
VERTEX
  8
LVL0000
 10
      106.045191
 20
      -81.219207
 70
 16
  0
VERTEX
  8
LVL0000
 10
      106.391769
 20
      -81.546204
 70
 16
  0
VERTEX
  8
LVL0000
 10
      106.801182
 20
      -81.719608
 70
 16
  0
VERTEX
  8
LVL0000
 10
      107.249949
 20
      -81.796819
 70
 16
  0
VERTEX
  8
LVL0000
 10
      106.045191
 20
      -81.219207
 70
  8
  0
VERTEX
  8
LVL0000
 10
      106.178057
 20
      -81.334743
 70
  8
  0
VERTEX
  8
LVL0000
 10
      106.316539
 20
      -81.436553
 70
  8
  0
VERTEX
  8
LVL0000
 10
      106.460362
 20
      -81.525309
 70
  8
  0
VERTEX
  8
LVL0000
 10
      106.609249
 20
      -81.601683
 70
  8
  0
VERTEX
  8
LVL0000
 10
      106.762927
 20
      -81.666348
 70
  8
  0
VERTEX
  8
LVL0000
 10
      106.921120
 20
      -81.719978
 70
  8
  0
VERTEX
  8
LVL0000
 10
      107.083552
 20
      -81.763244
 70
  8
  0
VERTEX
  8
LVL0000
 10
      107.249949
 20
      -81.796819
 70
  8
  0
SEQEND
  0
ENDBLK
  0
BLOCK
  8
0
  2
BLK0006
 70
    64
 10
        0.000000
 20
        0.000000
  0
TEXT
  8
LVL0000
 62
  4
 10
       -2.250000
 20
     -207.606232
 30
        0.000000
 40
        3.500000
  1
１３０
 50
        0.000000
 41
        0.835000
 51
        0.000000
  7
BIGFONT
  0
LINE
  8
LVL0000
 62
  4
 10
      -65.000000
 20
     -161.852936
 30
        0.000000
 11
      -65.000000
 21
     -207.956238
 31
        0.000000
  0
LINE
  8
LVL0000
 62
  4
 10
       65.000000
 20
     -161.852936
 30
        0.000000
 11
       65.000000
 21
     -207.956238
 31
        0.000000
  0
LINE
  8
LVL0000
 62
  4
 10
      -63.000000
 20
     -207.257629
 30
        0.000000
 11
      -65.000000
 21
     -207.781235
 31
        0.000000
  0
LINE
  8
LVL0000
 62
  4
 10
      -65.000000
 20
     -207.781235
 30
        0.000000
 11
      -63.000000
 21
     -208.304840
 31
        0.000000
  0
LINE
  8
LVL0000
 62
  4
 10
       63.000000
 20
     -208.304840
 30
        0.000000
 11
       65.000000
 21
     -207.781235
 31
        0.000000
  0
LINE
  8
LVL0000
 62
  4
 10
       65.000000
 20
     -207.781235
 30
        0.000000
 11
       63.000000
 21
     -207.257629
 31
        0.000000
  0
LINE
  8
LVL0000
 62
  4
 10
      -65.000000
 20
     -207.781235
 30
        0.000000
 11
       65.000000
 21
     -207.781235
 31
        0.000000
  0
ENDBLK
  0
BLOCK
  8
0
  2
BLK0007
 70
    64
 10
        0.000000
 20
        0.000000
  0
TEXT
  8
LVL0000
 62
  4
 10
       77.549370
 20
     -163.002930
 30
        0.000000
 40
        3.500000
  1
６１
 50
       90.000000
 41
        0.835000
 51
        0.000000
  7
BIGFONT
  0
LINE
  8
LVL0000
 62
  4
 10
       63.795555
 20
     -131.002930
 30
        0.000000
 11
       77.899368
 21
     -131.002930
 31
        0.000000
  0
LINE
  8
LVL0000
 62
  4
 10
        0.350000
 20
     -192.002930
 30
        0.000000
 11
       77.899368
 21
     -192.002930
 31
        0.000000
  0
LINE
  8
LVL0000
 62
  4
 10
       78.247963
 20
     -133.002930
 30
        0.000000
 11
       77.724365
 21
     -131.002930
 31
        0.000000
  0
LINE
  8
LVL0000
 62
  4
 10
       77.724365
 20
     -131.002930
 30
        0.000000
 11
       77.200768
 21
     -133.002930
 31
        0.000000
  0
LINE
  8
LVL0000
 62
  4
 10
       77.200768
 20
     -190.002930
 30
        0.000000
 11
       77.724365
 21
     -192.002930
 31
        0.000000
  0
LINE
  8
LVL0000
 62
  4
 10
       77.724365
 20
     -192.002930
 30
        0.000000
 11
       78.247963
 21
     -190.002930
 31
        0.000000
  0
LINE
  8
LVL0000
 62
  4
 10
       77.724365
 20
     -131.002930
 30
        0.000000
 11
       77.724365
 21
     -192.002930
 31
        0.000000
  0
ENDBLK
  0
BLOCK
  8
0
  2
BLK0008
 70
    64
 10
        0.000000
 20
        0.000000
  0
TEXT
  8
LVL0000
 62
  4
 10
       77.568474
 20
     -109.780296
 30
        0.000000
 40
        3.500000
  1
３０００
 50
       90.000000
 41
        0.835000
 51
        0.000000
  7
BIGFONT
  0
LINE
  8
LVL0000
 62
  4
 10
        5.350000
 20
      -53.000000
 30
        0.000000
 11
       77.918472
 21
      -53.000000
 31
        0.000000
  0
LINE
  8
LVL0000
 62
  4
 10
       60.618095
 20
     -131.002930
 30
        0.000000
 11
       77.918472
 21
     -131.002930
 31
        0.000000
  0
LINE
  8
LVL0000
 62
  4
 10
       78.528870
 20
      -56.000000
 30
        0.000000
 11
       77.743469
 21
      -53.000000
 31
        0.000000
  0
LINE
  8
LVL0000
 62
  4
 10
       77.743469
 20
      -53.000000
 30
        0.000000
 11
       76.958069
 21
      -56.000000
 31
        0.000000
  0
LINE
  8
LVL0000
 62
  4
 10
       76.958069
 20
     -128.002930
 30
        0.000000
 11
       77.743469
 21
     -131.002930
 31
        0.000000
  0
LINE
  8
LVL0000
 62
  4
 10
       77.743469
 20
     -131.002930
 30
        0.000000
 11
       78.528870
 21
     -128.002930
 31
        0.000000
  0
LINE
  8
LVL0000
 62
  4
 10
       77.743469
 20
      -53.000000
 30
        0.000000
 11
       77.743469
 21
     -131.002930
 31
        0.000000
  0
ENDBLK
  0
ENDSEC
  0
SECTION
  2
ENTITIES
  0
LINE
  8
LVL0000
 10
       22.076676
 20
     -160.941706
 30
        0.000000
 11
       40.429267
 21
     -156.024144
 31
        0.000000
  0
ARC
  8
LVL0000
 10
       42.176295
 20
     -162.544143
 30
        0.000000
 40
        6.750000
 50
      285.000002
 51
      464.999997
  0
LINE
  8
LVL0000
 10
       43.923324
 20
     -169.064143
 30
        0.000000
 11
       25.570733
 21
     -173.981705
 31
        0.000000
  0
ARC
  8
LVL0000
 10
       23.823705
 20
     -167.461705
 30
        0.000000
 40
        6.750000
 50
      104.999997
 51
      285.000002
  0
LINE
  8
LVL0000
 10
       37.686283
 20
     -151.582744
 30
        0.000000
 11
       22.231470
 21
     -155.723848
 31
        0.000000
  0
ARC
  8
LVL0000
 10
       36.068664
 20
     -145.545707
 30
        0.000000
 40
        6.250000
 50
      285.000002
 51
      464.999997
  0
LINE
  8
LVL0000
 10
       18.996232
 20
     -143.649775
 30
        0.000000
 11
       34.451045
 21
     -139.508671
 31
        0.000000
  0
ARC
  8
LVL0000
 10
       20.613851
 20
     -149.686812
 30
        0.000000
 40
        6.250000
 50
      104.999997
 51
      285.000002
  0
TEXT
  8
LVL0000
 62
  2
 10
      -61.614075
 20
      -50.755058
 30
        0.000000
 40
        4.000000
  1
ＩＶＳ３０ＲＫ１
 50
        0.000000
 41
        0.835000
 51
        0.000000
  7
BIGFONT
  0
DIMENSION
  8
LVL0000
 62
  4
  2
BLK0001
 10
       93.389999
 20
     -204.427460
 11
       95.336586
 21
     -204.252457
 13
       93.389999
 23
     -161.502930
 14
      115.750000
 24
     -161.502930
 50
        0.0
 70
  0
  0
LINE
  8
LVL0000
 10
      -16.000000
 20
      -23.000000
 30
        0.000000
 11
       16.000000
 21
      -23.000000
 31
        0.000000
  0
LINE
  8
LVL0000
 10
       -7.500000
 20
      -29.000000
 30
        0.000000
 11
        7.500000
 21
      -29.000000
 31
        0.000000
  0
LINE
  8
LVL0000
 10
       -7.000000
 20
      -29.000000
 30
        0.000000
 11
       -5.000000
 21
      -53.000000
 31
        0.000000
  0
LINE
  8
LVL0000
 10
        5.000000
 20
      -53.000000
 30
        0.000000
 11
        7.000000
 21
      -29.000000
 31
        0.000000
  0
LINE
  8
LVL0000
 10
       -5.000000
 20
      -53.000000
 30
        0.000000
 11
        5.000000
 21
      -53.000000
 31
        0.000000
  0
INSERT
  8
LVL0000
 62
  2
  2
BLK0002
 10
        0.000000
 20
        0.000000
  0
INSERT
  8
LVL0000
 62
  2
  2
BLK0003
 10
        0.000000
 20
        0.000000
  0
LINE
  8
LVL0000
 10
       -2.250000
 20
      -76.646949
 30
        0.000000
 11
       -2.250000
 21
      -53.000000
 31
        0.000000
  0
LINE
  8
LVL0000
 10
        2.250000
 20
      -78.796819
 30
        0.000000
 11
        2.250000
 21
      -53.000000
 31
        0.000000
  0
LINE
  8
LVL0000
 10
        3.500000
 20
     -112.002924
 30
        0.000000
 11
        4.000000
 21
     -127.502924
 31
        0.000000
  0
LINE
  8
LVL0000
 10
       -3.500000
 20
     -112.002924
 30
        0.000000
 11
       -4.000000
 21
     -127.502924
 31
        0.000000
  0
ARC
  8
LVL0000
 10
        6.698793
 20
     -127.583649
 30
        0.000000
 40
        2.700000
 50
      178.286719
 51
      243.640792
  0
ARC
  8
LVL0000
 10
       -6.698793
 20
     -127.583649
 30
        0.000000
 40
        2.700000
 50
      296.359213
 51
      361.713276
  0
LINE
  8
LVL0000
 10
       -3.500000
 20
     -112.002924
 30
        0.000000
 11
        3.500000
 21
     -112.002924
 31
        0.000000
  0
LINE
  8
LVL0000
 10
       -4.000000
 20
     -127.502924
 30
        0.000000
 11
        4.000000
 21
     -127.502924
 31
        0.000000
  0
LINE
  8
LVL0000
 10
       -5.500000
 20
     -130.002924
 30
        0.000000
 11
        5.500000
 21
     -130.002924
 31
        0.000000
  0
LINE
  8
LVL0000
 10
       -5.500000
 20
     -131.002924
 30
        0.000000
 11
       -5.500000
 21
     -130.002924
 31
        0.000000
  0
LINE
  8
LVL0000
 10
        5.500000
 20
     -131.002924
 30
        0.000000
 11
        5.500000
 21
     -130.002924
 31
        0.000000
  0
LINE
  8
LVL0000
 10
       -2.250000
 20
     -112.002924
 30
        0.000000
 11
       -2.250000
 21
      -79.646949
 31
        0.000000
  0
LINE
  8
LVL0000
 10
        2.250000
 20
     -112.002924
 30
        0.000000
 11
        2.250000
 21
      -81.796819
 31
        0.000000
  0
ARC
  8
LVL0000
 10
      111.318454
 20
     -188.421694
 30
        0.000000
 40
        3.000000
 50
      278.461140
 51
      353.911732
  0
ARC
  8
LVL0000
 10
      102.931557
 20
     -132.042088
 30
        0.000000
 40
       60.000000
 50
      273.000002
 51
      278.461140
  0
ARC
  8
LVL0000
 10
      111.318454
 20
     -134.584155
 30
        0.000000
 40
        3.000000
 50
        6.088268
 51
       81.538860
  0
ARC
  8
LVL0000
 10
      102.931557
 20
     -190.963761
 30
        0.000000
 40
       60.000000
 50
       81.538860
 51
       86.999998
  0
LINE
  8
LVL0000
 10
      105.250000
 20
     -192.002924
 30
        0.000000
 11
      106.071714
 21
     -191.959860
 31
        0.000000
  0
LINE
  8
LVL0000
 10
      105.250000
 20
     -186.861669
 30
        0.000000
 11
      106.071714
 21
     -186.818604
 31
        0.000000
  0
ARC
  8
LVL0000
 10
      111.174599
 20
     -183.301650
 30
        0.000000
 40
        3.000000
 50
      278.314974
 51
      357.264572
  0
ARC
  8
LVL0000
 10
      102.931557
 20
     -126.900832
 30
        0.000000
 40
       60.000000
 50
      273.000002
 51
      278.314974
  0
ARC
  8
LVL0000
 10
     -398.873539
 20
     -158.932296
 30
        0.000000
 40
      513.629972
 50
      357.264572
 51
      362.735428
  0
LINE
  8
LVL0000
 10
      105.250000
 20
     -131.002924
 30
        0.000000
 11
      106.071714
 21
     -131.045989
 31
        0.000000
  0
ARC
  8
LVL0000
 10
      111.174599
 20
     -134.562943
 30
        0.000000
 40
        3.000000
 50
        2.735428
 51
       81.685026
  0
LINE
  8
LVL0000
 10
      103.900581
 20
     -191.958408
 30
        0.000000
 11
      104.750000
 21
     -192.002924
 31
        0.000000
  0
LINE
  8
LVL0000
 10
      103.900581
 20
     -186.817152
 30
        0.000000
 11
      104.750000
 21
     -186.861669
 31
        0.000000
  0
ARC
  8
LVL0000
 10
      154.370358
 20
     -175.070339
 30
        0.000000
 40
       60.000000
 50
      184.475955
 51
      191.535048
  0
ARC
  8
LVL0000
 10
       98.104630
 20
     -189.283948
 30
        0.000000
 40
        2.000000
 50
      192.753110
 51
      259.905887
  0
ARC
  8
LVL0000
 10
      106.517379
 20
     -142.026931
 30
        0.000000
 40
       50.000000
 50
      259.905887
 51
      267.000003
  0
ARC
  8
LVL0000
 10
      220.848188
 20
     -161.502924
 30
        0.000000
 40
      127.848188
 50
      191.535048
 51
      192.753110
  0
ARC
  8
LVL0000
 10
       98.140726
 20
     -189.290360
 30
        0.000000
 40
        2.000000
 50
      191.306781
 51
      259.949648
  0
ARC
  8
LVL0000
 10
      237.117712
 20
     -161.502924
 30
        0.000000
 40
      143.727712
 50
      168.556163
 51
      191.306781
  0
ARC
  8
LVL0000
 10
       98.310282
 20
     -184.178842
 30
        0.000000
 40
        2.000000
 50
      184.859590
 51
      260.155130
  0
ARC
  8
LVL0000
 10
      106.517379
 20
     -136.885676
 30
        0.000000
 40
       50.000000
 50
      260.155130
 51
      267.000003
  0
ARC
  8
LVL0000
 10
      395.259565
 20
     -158.932296
 30
        0.000000
 40
      300.020578
 50
      175.066671
 51
      184.859590
  0
ARC
  8
LVL0000
 10
       97.844872
 20
     -133.260602
 30
        0.000000
 40
        1.500000
 50
      100.300717
 51
      175.066671
  0
ARC
  8
LVL0000
 10
      106.517379
 20
     -180.978917
 30
        0.000000
 40
       50.000000
 50
       92.999997
 51
      100.486221
  0
LINE
  8
LVL0000
 10
      103.900581
 20
     -131.047440
 30
        0.000000
 11
      104.750000
 21
     -131.002924
 31
        0.000000
  0
ARC
  8
LVL0000
 10
       97.690423
 20
     -133.288930
 30
        0.000000
 40
        1.500000
 50
      100.486221
 51
      167.096857
  0
ARC
  8
LVL0000
 10
      220.848188
 20
     -161.502924
 30
        0.000000
 40
      127.848188
 50
      167.096857
 51
      168.464952
  0
ARC
  8
LVL0000
 10
       97.717533
 20
     -133.283921
 30
        0.000000
 40
        1.500000
 50
      100.453651
 51
      168.556163
  0
ARC
  8
LVL0000
 10
      154.370358
 20
     -147.935510
 30
        0.000000
 40
       60.000000
 50
      168.464952
 51
      175.524045
  0
LINE
  8
LVL0000
 10
      105.250000
 20
     -192.002924
 30
        0.000000
 11
      105.250000
 21
     -131.002924
 31
        0.000000
  0
LINE
  8
LVL0000
 10
      104.750000
 20
     -192.002924
 30
        0.000000
 11
      104.750000
 21
     -131.002924
 31
        0.000000
  0
LINE
  8
LVL0000
 10
      104.750000
 20
     -131.502924
 30
        0.000000
 11
      105.250000
 21
     -131.502924
 31
        0.000000
  0
LINE
  8
LVL0000
 10
      104.750000
 20
     -186.361669
 30
        0.000000
 11
      105.250000
 21
     -186.361669
 31
        0.000000
  0
LINE
  8
LVL0000
 10
      104.750000
 20
     -191.502924
 30
        0.000000
 11
      105.250000
 21
     -191.502924
 31
        0.000000
  0
ARC
  8
LVL0000
 10
      114.500000
 20
     -182.002924
 30
        0.000000
 40
        1.250000
 50
      271.355745
 51
      442.979172
  0
ARC
  8
LVL0000
 10
     -141.055882
 20
     -161.502924
 30
        0.000000
 40
      256.805882
 50
      353.911732
 51
      355.151549
  0
ARC
  8
LVL0000
 10
     -141.055882
 20
     -161.502924
 30
        0.000000
 40
      256.805882
 50
      355.675868
 51
      364.977605
  0
ARC
  8
LVL0000
 10
      114.500000
 20
     -138.002924
 30
        0.000000
 40
        1.250000
 50
      270.137903
 51
      456.354557
  0
ARC
  8
LVL0000
 10
     -141.055882
 20
     -161.502924
 30
        0.000000
 40
      256.805882
 50
        5.530271
 51
        6.088268
  0
ARC
  8
LVL0000
 10
     -299.829762
 20
     -161.502924
 30
        0.000000
 40
      414.929762
 50
      356.995312
 51
      357.339604
  0
ARC
  8
LVL0000
 10
     -299.829762
 20
     -161.502924
 30
        0.000000
 40
      414.929762
 50
        3.073877
 51
        3.418583
  0
INSERT
  8
LVL0000
 62
  2
  2
BLK0004
 10
        0.000000
 20
        0.000000
  0
INSERT
  8
LVL0000
 62
  2
  2
BLK0005
 10
        0.000000
 20
        0.000000
  0
LINE
  8
LVL0000
 10
      107.250000
 20
     -112.002924
 30
        0.000000
 11
      107.250000
 21
      -81.796819
 31
        0.000000
  0
LINE
  8
LVL0000
 10
      102.750000
 20
     -112.002924
 30
        0.000000
 11
      102.750000
 21
      -79.646949
 31
        0.000000
  0
LINE
  8
LVL0000
 10
       99.500000
 20
     -130.002924
 30
        0.000000
 11
      110.500000
 21
     -130.002924
 31
        0.000000
  0
LINE
  8
LVL0000
 10
      101.000000
 20
     -127.502924
 30
        0.000000
 11
      109.000000
 21
     -127.502924
 31
        0.000000
  0
LINE
  8
LVL0000
 10
      101.500000
 20
     -112.002924
 30
        0.000000
 11
      108.500000
 21
     -112.002924
 31
        0.000000
  0
ARC
  8
LVL0000
 10
       98.301207
 20
     -127.583649
 30
        0.000000
 40
        2.700000
 50
      296.359213
 51
      361.713276
  0
ARC
  8
LVL0000
 10
      111.698793
 20
     -127.583649
 30
        0.000000
 40
        2.700000
 50
      178.286719
 51
      243.640792
  0
LINE
  8
LVL0000
 10
      101.500000
 20
     -112.002924
 30
        0.000000
 11
      101.000000
 21
     -127.502924
 31
        0.000000
  0
LINE
  8
LVL0000
 10
      108.500000
 20
     -112.002924
 30
        0.000000
 11
      109.000000
 21
     -127.502924
 31
        0.000000
  0
LINE
  8
LVL0000
 10
      107.250000
 20
      -78.796819
 30
        0.000000
 11
      107.250000
 21
      -53.000000
 31
        0.000000
  0
LINE
  8
LVL0000
 10
      102.750000
 20
      -76.646949
 30
        0.000000
 11
      102.750000
 21
      -53.000000
 31
        0.000000
  0
LINE
  8
LVL0000
 10
      100.000000
 20
      -53.000000
 30
        0.000000
 11
      110.000000
 21
      -53.000000
 31
        0.000000
  0
LINE
  8
LVL0000
 10
      110.000000
 20
      -53.000000
 30
        0.000000
 11
      112.000000
 21
      -29.000000
 31
        0.000000
  0
LINE
  8
LVL0000
 10
       98.000000
 20
      -29.000000
 30
        0.000000
 11
      100.000000
 21
      -53.000000
 31
        0.000000
  0
LINE
  8
LVL0000
 10
      110.500000
 20
     -131.443019
 30
        0.000000
 11
      110.500000
 21
     -130.002924
 31
        0.000000
  0
LINE
  8
LVL0000
 10
       99.500000
 20
     -131.473802
 30
        0.000000
 11
       99.500000
 21
     -130.002924
 31
        0.000000
  0
LINE
  8
LVL0000
 10
      109.500000
 20
        0.000000
 30
        0.000000
 11
      109.500000
 21
        6.000000
 31
        0.000000
  0
LINE
  8
LVL0000
 10
      100.500000
 20
        6.000000
 30
        0.000000
 11
      109.500000
 21
        6.000000
 31
        0.000000
  0
LINE
  8
LVL0000
 10
      100.500000
 20
        0.000000
 30
        0.000000
 11
      100.500000
 21
        6.000000
 31
        0.000000
  0
LINE
  8
LVL0000
 10
       97.000000
 20
      -23.000000
 30
        0.000000
 11
      113.000000
 21
      -23.000000
 31
        0.000000
  0
LINE
  8
LVL0000
 10
       97.000000
 20
        0.000000
 30
        0.000000
 11
      113.000000
 21
        0.000000
 31
        0.000000
  0
LINE
  8
LVL0000
 10
       97.000000
 20
       -1.000000
 30
        0.000000
 11
      113.000000
 21
       -1.000000
 31
        0.000000
  0
LINE
  8
LVL0000
 10
       97.000000
 20
      -29.000000
 30
        0.000000
 11
       97.000000
 21
        0.000000
 31
        0.000000
  0
LINE
  8
LVL0000
 10
      113.000000
 20
      -29.000000
 30
        0.000000
 11
      113.000000
 21
        0.000000
 31
        0.000000
  0
LINE
  8
LVL0000
 10
       97.000000
 20
      -29.000000
 30
        0.000000
 11
      113.000000
 21
      -29.000000
 31
        0.000000
  0
DIMENSION
  8
LVL0000
 62
  4
  2
BLK0006
 10
      -65.000000
 20
     -207.781235
 11
       -2.250000
 21
     -207.606232
 13
      -65.000000
 23
     -161.502930
 14
       65.000000
 24
     -161.502930
 50
        0.0
 70
  0
  0
DIMENSION
  8
LVL0000
 62
  4
  2
BLK0007
 10
       77.724365
 20
     -131.002930
 11
       77.549370
 21
     -163.002930
 13
       63.445557
 23
     -131.002930
 14
        0.000000
 24
     -192.002930
 50
       90.0
 70
  0
  0
DIMENSION
  8
LVL0000
 62
  4
  2
BLK0008
 10
       77.743469
 20
      -53.000000
 11
       77.568474
 21
     -109.780296
 13
        5.000000
 23
      -53.000000
 14
       60.268097
 24
     -131.002930
 50
       90.0
 70
  0
  0
ARC
  8
LVL0000
 10
       60.021131
 20
     -238.052924
 30
        0.000000
 40
        3.000000
 50
      270.000000
 51
      341.780076
  0
LINE
  8
LVL0000
 10
       64.919742
 20
     -233.784334
 30
        0.000000
 11
       65.000000
 21
     -232.252924
 31
        0.000000
  0
LINE
  8
LVL0000
 10
       65.000000
 20
     -231.752924
 30
        0.000000
 11
       64.919742
 21
     -230.221514
 31
        0.000000
  0
ARC
  8
LVL0000
 10
      -61.840250
 20
     -223.726799
 30
        0.000000
 40
        1.500000
 50
       91.582148
 51
      155.943006
  0
ARC
  8
LVL0000
 10
      -44.947152
 20
     -231.268234
 30
        0.000000
 40
       20.000000
 50
      155.943006
 51
      176.999995
  0
ARC
  8
LVL0000
 10
        0.000000
 20
    -2462.631106
 30
        0.000000
 40
     2241.258182
 50
       88.417847
 51
       91.582148
  0
ARC
  8
LVL0000
 10
       61.840250
 20
     -223.726799
 30
        0.000000
 40
        1.500000
 50
       24.056989
 51
       88.417847
  0
ARC
  8
LVL0000
 10
       44.947152
 20
     -231.268234
 30
        0.000000
 40
       20.000000
 50
        3.000000
 51
       24.056989
  0
ARC
  8
LVL0000
 10
      -22.543444
 20
     -450.395461
 30
        0.000000
 40
      230.000000
 50
       84.714702
 51
       91.995114
  0
ARC
  8
LVL0000
 10
       22.543444
 20
     -450.395461
 30
        0.000000
 40
      230.000000
 50
       88.004881
 51
       95.285293
  0
LINE
  8
LVL0000
 10
      -64.919742
 20
     -233.784334
 30
        0.000000
 11
      -65.000000
 21
     -232.252924
 31
        0.000000
  0
LINE
  8
LVL0000
 10
      -65.000000
 20
     -231.752924
 30
        0.000000
 11
      -64.919742
 21
     -230.221514
 31
        0.000000
  0
ARC
  8
LVL0000
 10
        0.000000
 20
    -1097.536813
 30
        0.000000
 40
      877.533889
 50
       85.953222
 51
       88.004881
  0
ARC
  8
LVL0000
 10
        0.000000
 20
    -1097.536813
 30
        0.000000
 40
      877.533889
 50
       91.995114
 51
       94.046773
  0
LINE
  8
LVL0000
 10
      -63.426302
 20
     -231.752924
 30
        0.000000
 11
      -63.426302
 21
     -232.252924
 31
        0.000000
  0
LINE
  8
LVL0000
 10
      -63.565815
 20
     -224.874420
 30
        0.000000
 11
      -63.926302
 21
     -231.752924
 31
        0.000000
  0
ARC
  8
LVL0000
 10
      -62.067871
 20
     -224.952924
 30
        0.000000
 40
        1.500000
 50
       90.000000
 51
      176.999995
  0
LINE
  8
LVL0000
 10
      -62.067871
 20
     -223.452924
 30
        0.000000
 11
       62.067871
 21
     -223.452924
 31
        0.000000
  0
LINE
  8
LVL0000
 10
       63.426302
 20
     -231.752924
 30
        0.000000
 11
       63.426302
 21
     -232.252924
 31
        0.000000
  0
ARC
  8
LVL0000
 10
       62.067871
 20
     -224.952924
 30
        0.000000
 40
        1.500000
 50
        3.000000
 51
       90.000000
  0
LINE
  8
LVL0000
 10
       63.565815
 20
     -224.874420
 30
        0.000000
 11
       63.926302
 21
     -231.752924
 31
        0.000000
  0
ARC
  8
LVL0000
 10
       36.906760
 20
     -222.727054
 30
        0.000000
 40
       20.000000
 50
      264.805568
 51
      271.632662
  0
ARC
  8
LVL0000
 10
        0.000000
 20
     -628.700964
 30
        0.000000
 40
      387.648039
 50
       84.805563
 51
       95.194432
  0
ARC
  8
LVL0000
 10
      -36.906760
 20
     -222.727054
 30
        0.000000
 40
       20.000000
 50
      268.367343
 51
      275.194437
  0
ARC
  8
LVL0000
 10
      -60.812904
 20
     -238.843179
 30
        0.000000
 40
        3.000000
 50
      201.048058
 51
      267.344053
  0
ARC
  8
LVL0000
 10
      -44.947152
 20
     -232.737615
 30
        0.000000
 40
       20.000000
 50
      183.000005
 51
      201.048058
  0
ARC
  8
LVL0000
 10
       60.812904
 20
     -238.843179
 30
        0.000000
 40
        3.000000
 50
      272.655952
 51
      338.951947
  0
ARC
  8
LVL0000
 10
       44.947152
 20
     -232.737615
 30
        0.000000
 40
       20.000000
 50
      338.951947
 51
      357.000000
  0
ARC
  8
LVL0000
 10
      -61.822462
 20
     -223.687079
 30
        0.000000
 40
        1.500000
 50
       94.046773
 51
      155.808218
  0
ARC
  8
LVL0000
 10
       61.822462
 20
     -223.687079
 30
        0.000000
 40
        1.500000
 50
       24.191777
 51
       85.953222
  0
LINE
  8
LVL0000
 10
      -65.000000
 20
     -231.752924
 30
        0.000000
 11
       65.000000
 21
     -231.752924
 31
        0.000000
  0
LINE
  8
LVL0000
 10
      -65.000000
 20
     -232.252924
 30
        0.000000
 11
       65.000000
 21
     -232.252924
 31
        0.000000
  0
LINE
  8
LVL0000
 10
      -64.500000
 20
     -232.252924
 30
        0.000000
 11
      -64.500000
 21
     -231.752924
 31
        0.000000
  0
LINE
  8
LVL0000
 10
       64.500000
 20
     -232.252924
 30
        0.000000
 11
       64.500000
 21
     -231.752924
 31
        0.000000
  0
CIRCLE
  8
LVL0000
 10
       42.176295
 20
     -162.544143
 30
        0.000000
 40
        5.250000
  0
CIRCLE
  8
LVL0000
 10
       42.176295
 20
     -162.544143
 30
        0.000000
 40
        5.750000
  0
CIRCLE
  8
LVL0000
 10
       36.068664
 20
     -145.545707
 30
        0.000000
 40
        4.750000
  0
CIRCLE
  8
LVL0000
 10
       36.068664
 20
     -145.545707
 30
        0.000000
 40
        5.250000
  0
CIRCLE
  8
LVL0000
 10
       20.613851
 20
     -149.686812
 30
        0.000000
 40
        5.250000
  0
CIRCLE
  8
LVL0000
 10
       20.613851
 20
     -149.686812
 30
        0.000000
 40
        4.750000
  0
CIRCLE
  8
LVL0000
 10
       23.823705
 20
     -167.461705
 30
        0.000000
 40
        5.750000
  0
CIRCLE
  8
LVL0000
 10
       23.823705
 20
     -167.461705
 30
        0.000000
 40
        5.250000
  0
ARC
  8
LVL0000
 10
      -30.000000
 20
     -157.002924
 30
        0.000000
 40
        4.000000
 50
      323.428081
 51
      366.571920
  0
ARC
  8
LVL0000
 10
      -25.529570
 20
     -156.487898
 30
        0.000000
 40
        0.500000
 50
       96.408682
 51
      186.571925
  0
ARC
  8
LVL0000
 10
      -23.352988
 20
     -175.866043
 30
        0.000000
 40
       20.000000
 50
       74.999998
 51
       96.408682
  0
LINE
  8
LVL0000
 10
      -15.640877
 20
     -164.473906
 30
        0.000000
 11
      -19.988341
 21
     -163.309007
 31
        0.000000
  0
ARC
  8
LVL0000
 10
      -15.382058
 20
     -163.507981
 30
        0.000000
 40
        1.000000
 50
      255.000003
 51
      336.010701
  0
ARC
  8
LVL0000
 10
      -30.000000
 20
     -157.002924
 30
        0.000000
 40
       17.000000
 50
      336.010701
 51
      353.989300
  0
LINE
  8
LVL0000
 10
      -13.829143
 20
     -157.712426
 30
        0.000000
 11
      -18.176607
 21
     -156.547526
 31
        0.000000
  0
ARC
  8
LVL0000
 10
      -30.000000
 20
     -157.002924
 30
        0.000000
 40
       11.500000
 50
      147.281064
 51
      182.718937
  0
ARC
  8
LVL0000
 10
      -44.617942
 20
     -150.497868
 30
        0.000000
 40
        1.000000
 50
       74.999998
 51
      156.010696
  0
LINE
  8
LVL0000
 10
      -44.359123
 20
     -149.531942
 30
        0.000000
 11
      -40.011659
 21
     -150.696842
 31
        0.000000
  0
ARC
  8
LVL0000
 10
      -30.000000
 20
     -157.002924
 30
        0.000000
 40
       17.000000
 50
      156.010696
 51
      173.989295
  0
ARC
  8
LVL0000
 10
      -45.912038
 20
     -155.327497
 30
        0.000000
 40
        1.000000
 50
      173.989295
 51
      255.000003
  0
LINE
  8
LVL0000
 10
      -46.170857
 20
     -156.293423
 30
        0.000000
 11
      -41.823393
 21
     -157.458322
 31
        0.000000
  0
ARC
  8
LVL0000
 10
      -45.188040
 20
     -170.015358
 30
        0.000000
 40
       20.000000
 50
       53.591314
 51
       74.999998
  0
ARC
  8
LVL0000
 10
      -33.613993
 20
     -154.321683
 30
        0.000000
 40
        0.500000
 50
      323.428081
 51
      413.591314
  0
ARC
  8
LVL0000
 10
      -30.000000
 20
     -157.002924
 30
        0.000000
 40
        4.000000
 50
      143.428076
 51
      186.571925
  0
ARC
  8
LVL0000
 10
      -34.470430
 20
     -157.517951
 30
        0.000000
 40
        0.500000
 50
      276.408687
 51
      366.571920
  0
ARC
  8
LVL0000
 10
      -36.647012
 20
     -138.139806
 30
        0.000000
 40
       20.000000
 50
      255.000003
 51
      276.408687
  0
ARC
  8
LVL0000
 10
      -27.318759
 20
     -153.388931
 30
        0.000000
 40
        1.000000
 50
      233.428083
 51
      323.591317
  0
ARC
  8
LVL0000
 10
      -43.012434
 20
     -141.814884
 30
        0.000000
 40
       20.500000
 50
      323.591317
 51
      345.000000
  0
LINE
  8
LVL0000
 10
      -23.210954
 20
     -147.120675
 30
        0.000000
 11
      -22.046055
 21
     -142.773210
 31
        0.000000
  0
ARC
  8
LVL0000
 10
      -23.494944
 20
     -142.384982
 30
        0.000000
 40
        1.500000
 50
      345.000000
 51
      426.010699
  0
ARC
  8
LVL0000
 10
      -30.000000
 20
     -157.002924
 30
        0.000000
 40
       17.500000
 50
       66.010699
 51
       83.989297
  0
ARC
  8
LVL0000
 10
      -28.324573
 20
     -141.090887
 30
        0.000000
 40
        1.500000
 50
       83.989297
 51
      164.999995
  0
LINE
  8
LVL0000
 10
      -29.773462
 20
     -140.702658
 30
        0.000000
 11
      -30.938361
 21
     -145.050122
 31
        0.000000
  0
ARC
  8
LVL0000
 10
      -11.136882
 20
     -150.355913
 30
        0.000000
 40
       20.500000
 50
      164.999995
 51
      186.408689
  0
ARC
  8
LVL0000
 10
      -30.515026
 20
     -152.532494
 30
        0.000000
 40
        1.000000
 50
      186.408689
 51
      276.571923
  0
ARC
  8
LVL0000
 10
      -30.000000
 20
     -157.002924
 30
        0.000000
 40
        3.500000
 50
       53.428078
 51
       96.571918
  0
ARC
  8
LVL0000
 10
      -45.188040
 20
     -170.015358
 30
        0.000000
 40
       20.500000
 50
       53.591314
 51
       74.999998
  0
LINE
  8
LVL0000
 10
      -39.882250
 20
     -150.213879
 30
        0.000000
 11
      -44.229714
 21
     -149.048979
 31
        0.000000
  0
ARC
  8
LVL0000
 10
      -44.617942
 20
     -150.497868
 30
        0.000000
 40
        1.500000
 50
       74.999998
 51
      156.010696
  0
ARC
  8
LVL0000
 10
      -30.000000
 20
     -157.002924
 30
        0.000000
 40
       17.500000
 50
      156.010696
 51
      173.989295
  0
ARC
  8
LVL0000
 10
      -45.912038
 20
     -155.327497
 30
        0.000000
 40
        1.500000
 50
      173.989295
 51
      255.000003
  0
LINE
  8
LVL0000
 10
      -46.300266
 20
     -156.776386
 30
        0.000000
 11
      -41.952802
 21
     -157.941285
 31
        0.000000
  0
ARC
  8
LVL0000
 10
      -36.647012
 20
     -138.139806
 30
        0.000000
 40
       20.500000
 50
      255.000003
 51
      276.408687
  0
ARC
  8
LVL0000
 10
      -34.470430
 20
     -157.517951
 30
        0.000000
 40
        1.000000
 50
      276.408687
 51
      366.571920
  0
ARC
  8
LVL0000
 10
      -30.000000
 20
     -157.002924
 30
        0.000000
 40
        3.500000
 50
      143.428076
 51
      186.571925
  0
ARC
  8
LVL0000
 10
      -33.613993
 20
     -154.321683
 30
        0.000000
 40
        1.000000
 50
      323.428081
 51
      413.591314
  0
ARC
  8
LVL0000
 10
      -16.987566
 20
     -172.190965
 30
        0.000000
 40
       20.500000
 50
      143.591312
 51
      164.999995
  0
LINE
  8
LVL0000
 10
      -36.789046
 20
     -166.885174
 30
        0.000000
 11
      -37.953945
 21
     -171.232638
 31
        0.000000
  0
ARC
  8
LVL0000
 10
      -36.505056
 20
     -171.620867
 30
        0.000000
 40
        1.500000
 50
      164.999995
 51
      246.010704
  0
ARC
  8
LVL0000
 10
      -30.000000
 20
     -157.002924
 30
        0.000000
 40
       17.500000
 50
      246.010704
 51
      263.989302
  0
ARC
  8
LVL0000
 10
      -31.675427
 20
     -172.914962
 30
        0.000000
 40
        1.500000
 50
      263.989302
 51
      345.000000
  0
LINE
  8
LVL0000
 10
      -30.226538
 20
     -173.303191
 30
        0.000000
 11
      -29.061639
 21
     -168.955726
 31
        0.000000
  0
ARC
  8
LVL0000
 10
      -48.863118
 20
     -163.649936
 30
        0.000000
 40
       20.500000
 50
      345.000000
 51
      366.408684
  0
ARC
  8
LVL0000
 10
      -29.484974
 20
     -161.473355
 30
        0.000000
 40
        1.000000
 50
        6.408684
 51
       96.571918
  0
ARC
  8
LVL0000
 10
      -30.000000
 20
     -157.002924
 30
        0.000000
 40
        3.500000
 50
      233.428083
 51
      276.571923
  0
ARC
  8
LVL0000
 10
      -32.681241
 20
     -160.616917
 30
        0.000000
 40
        1.000000
 50
       53.428078
 51
      143.591312
  0
ARC
  8
LVL0000
 10
      -14.811960
 20
     -143.990490
 30
        0.000000
 40
       20.500000
 50
      233.591319
 51
      255.000003
  0
LINE
  8
LVL0000
 10
      -20.117750
 20
     -163.791970
 30
        0.000000
 11
      -15.770286
 21
     -164.956869
 31
        0.000000
  0
ARC
  8
LVL0000
 10
      -15.382058
 20
     -163.507981
 30
        0.000000
 40
        1.500000
 50
      255.000003
 51
      336.010701
  0
ARC
  8
LVL0000
 10
      -30.000000
 20
     -157.002924
 30
        0.000000
 40
       17.500000
 50
      336.010701
 51
      353.989300
  0
ARC
  8
LVL0000
 10
      -14.087962
 20
     -158.678352
 30
        0.000000
 40
        1.500000
 50
      353.989300
 51
      434.999998
  0
LINE
  8
LVL0000
 10
      -13.699734
 20
     -157.229463
 30
        0.000000
 11
      -18.047198
 21
     -156.064563
 31
        0.000000
  0
ARC
  8
LVL0000
 10
      -23.352988
 20
     -175.866043
 30
        0.000000
 40
       20.500000
 50
       74.999998
 51
       96.408682
  0
ARC
  8
LVL0000
 10
      -25.529570
 20
     -156.487898
 30
        0.000000
 40
        1.000000
 50
       96.408682
 51
      186.571925
  0
ARC
  8
LVL0000
 10
      -30.000000
 20
     -157.002924
 30
        0.000000
 40
        3.500000
 50
      323.428081
 51
      366.571920
  0
ARC
  8
LVL0000
 10
      -26.386007
 20
     -159.684165
 30
        0.000000
 40
        1.000000
 50
      143.428076
 51
      233.591319
  0
ARC
  8
LVL0000
 10
      -11.136882
 20
     -150.355913
 30
        0.000000
 40
       20.000000
 50
      164.999995
 51
      186.408689
  0
ARC
  8
LVL0000
 10
      -30.515026
 20
     -152.532494
 30
        0.000000
 40
        0.500000
 50
      186.408689
 51
      276.571923
  0
ARC
  8
LVL0000
 10
      -30.000000
 20
     -157.002924
 30
        0.000000
 40
        4.000000
 50
       53.428078
 51
       96.571918
  0
ARC
  8
LVL0000
 10
      -27.318759
 20
     -153.388931
 30
        0.000000
 40
        0.500000
 50
      233.428083
 51
      323.591317
  0
ARC
  8
LVL0000
 10
      -43.012434
 20
     -141.814884
 30
        0.000000
 40
       20.000000
 50
      323.591317
 51
      345.000000
  0
LINE
  8
LVL0000
 10
      -29.290499
 20
     -140.832068
 30
        0.000000
 11
      -30.455398
 21
     -145.179532
 31
        0.000000
  0
ARC
  8
LVL0000
 10
      -28.324573
 20
     -141.090887
 30
        0.000000
 40
        1.000000
 50
       83.989297
 51
      164.999995
  0
ARC
  8
LVL0000
 10
      -30.000000
 20
     -157.002924
 30
        0.000000
 40
       17.000000
 50
       66.010699
 51
       83.989297
  0
LINE
  8
LVL0000
 10
      -22.529018
 20
     -142.643801
 30
        0.000000
 11
      -23.693917
 21
     -146.991265
 31
        0.000000
  0
ARC
  8
LVL0000
 10
      -23.494944
 20
     -142.384982
 30
        0.000000
 40
        1.000000
 50
      345.000000
 51
      426.010699
  0
ARC
  8
LVL0000
 10
      -30.000000
 20
     -157.002924
 30
        0.000000
 40
       11.500000
 50
       57.281067
 51
       92.718929
  0
LINE
  8
LVL0000
 10
      -30.709501
 20
     -173.173781
 30
        0.000000
 11
      -29.544602
 21
     -168.826317
 31
        0.000000
  0
ARC
  8
LVL0000
 10
      -30.000000
 20
     -157.002924
 30
        0.000000
 40
       17.000000
 50
      246.010704
 51
      263.989302
  0
ARC
  8
LVL0000
 10
      -36.505056
 20
     -171.620867
 30
        0.000000
 40
        1.000000
 50
      164.999995
 51
      246.010704
  0
LINE
  8
LVL0000
 10
      -37.470982
 20
     -171.362048
 30
        0.000000
 11
      -36.306083
 21
     -167.014584
 31
        0.000000
  0
ARC
  8
LVL0000
 10
      -48.863118
 20
     -163.649936
 30
        0.000000
 40
       20.000000
 50
      345.000000
 51
      366.408684
  0
ARC
  8
LVL0000
 10
      -29.484974
 20
     -161.473355
 30
        0.000000
 40
        0.500000
 50
        6.408684
 51
       96.571918
  0
ARC
  8
LVL0000
 10
      -30.000000
 20
     -157.002924
 30
        0.000000
 40
        4.000000
 50
      233.428083
 51
      276.571923
  0
ARC
  8
LVL0000
 10
      -32.681241
 20
     -160.616917
 30
        0.000000
 40
        0.500000
 50
       53.428078
 51
      143.591312
  0
ARC
  8
LVL0000
 10
      -16.987566
 20
     -172.190965
 30
        0.000000
 40
       20.000000
 50
      143.591312
 51
      164.999995
  0
ARC
  8
LVL0000
 10
      -30.000000
 20
     -157.002924
 30
        0.000000
 40
       11.500000
 50
      237.281072
 51
      272.718934
  0
ARC
  8
LVL0000
 10
      -31.675427
 20
     -172.914962
 30
        0.000000
 40
        1.000000
 50
      263.989302
 51
      345.000000
  0
ARC
  8
LVL0000
 10
      -14.087962
 20
     -158.678352
 30
        0.000000
 40
        1.000000
 50
      353.989300
 51
      434.999998
  0
ARC
  8
LVL0000
 10
      -30.000000
 20
     -157.002924
 30
        0.000000
 40
       11.500000
 50
      327.281069
 51
      362.718932
  0
ARC
  8
LVL0000
 10
      -14.811960
 20
     -143.990490
 30
        0.000000
 40
       20.000000
 50
      233.591319
 51
      255.000003
  0
ARC
  8
LVL0000
 10
      -26.386007
 20
     -159.684165
 30
        0.000000
 40
        0.500000
 50
      143.428076
 51
      233.591319
  0
ARC
  8
LVL0000
 10
      -60.268099
 20
     -134.502924
 30
        0.000000
 40
        3.500000
 50
       90.000000
 51
      174.775266
  0
LINE
  8
LVL0000
 10
      -60.268099
 20
     -131.002924
 30
        0.000000
 11
       60.268099
 21
     -131.002924
 31
        0.000000
  0
ARC
  8
LVL0000
 10
       60.268099
 20
     -134.502924
 30
        0.000000
 40
        3.500000
 50
        5.224729
 51
       90.000000
  0
ARC
  8
LVL0000
 10
      235.000000
 20
     -161.502924
 30
        0.000000
 40
      300.000000
 50
      174.775266
 51
      183.932264
  0
ARC
  8
LVL0000
 10
      -58.307873
 20
     -181.664562
 30
        0.000000
 40
        6.000000
 50
      183.932264
 51
      261.489568
  0
ARC
  8
LVL0000
 10
        0.000000
 20
      207.997076
 30
        0.000000
 40
      400.000000
 50
      261.489568
 51
      278.510437
  0
ARC
  8
LVL0000
 10
     -235.000000
 20
     -161.502924
 30
        0.000000
 40
      300.000000
 50
      356.067741
 51
      365.224729
  0
ARC
  8
LVL0000
 10
       58.307873
 20
     -181.664562
 30
        0.000000
 40
        6.000000
 50
      278.510437
 51
      356.067741
  0
ARC
  8
LVL0000
 10
        0.000000
 20
     1072.110409
 30
        0.000000
 40
     1315.363333
 50
      267.650270
 51
      268.367343
  0
ARC
  8
LVL0000
 10
        0.000000
 20
     1072.110409
 30
        0.000000
 40
     1315.363333
 50
      267.344053
 51
      267.554673
  0
ARC
  8
LVL0000
 10
      -55.000000
 20
     -241.502924
 30
        0.000000
 40
        1.250000
 50
      195.668229
 51
      342.925396
  0
ARC
  8
LVL0000
 10
        0.000000
 20
     1072.110409
 30
        0.000000
 40
     1315.363333
 50
      271.632662
 51
      272.349735
  0
ARC
  8
LVL0000
 10
        0.000000
 20
     1072.110409
 30
        0.000000
 40
     1315.363333
 50
      272.445332
 51
      272.655952
  0
ARC
  8
LVL0000
 10
       55.000000
 20
     -241.502924
 30
        0.000000
 40
        1.250000
 50
      197.074609
 51
      344.331776
  0
LINE
  8
LVL0000
 10
       63.926302
 20
     -232.252924
 30
        0.000000
 11
       63.846044
 21
     -233.784334
 31
        0.000000
  0
ARC
  8
LVL0000
 10
       43.873454
 20
     -232.737615
 30
        0.000000
 40
       20.000000
 50
      341.780076
 51
      357.000000
  0
ARC
  8
LVL0000
 10
      -60.021131
 20
     -238.052924
 30
        0.000000
 40
        3.000000
 50
      198.219929
 51
      270.000000
  0
LINE
  8
LVL0000
 10
      -60.021131
 20
     -241.052924
 30
        0.000000
 11
       60.021131
 21
     -241.052924
 31
        0.000000
  0
ARC
  8
LVL0000
 10
      -43.873454
 20
     -232.737615
 30
        0.000000
 40
       20.000000
 50
      183.000005
 51
      198.219929
  0
LINE
  8
LVL0000
 10
      -63.926302
 20
     -232.252924
 30
        0.000000
 11
      -63.846044
 21
     -233.784334
 31
        0.000000
  0
ARC
  8
LVL0000
 10
        0.000000
 20
     4239.663439
 30
        0.000000
 40
     4481.856364
 50
      269.281481
 51
      269.312145
  0
ARC
  8
LVL0000
 10
        0.000000
 20
     4239.663439
 30
        0.000000
 40
     4481.856364
 50
      270.687860
 51
      270.718524
  0
ARC
  8
LVL0000
 10
       55.222312
 20
     -135.502924
 30
        0.000000
 40
        3.500000
 50
       12.724029
 51
       90.000000
  0
LINE
  8
LVL0000
 10
      -55.222312
 20
     -132.002924
 30
        0.000000
 11
       55.222312
 21
     -132.002924
 31
        0.000000
  0
ARC
  8
LVL0000
 10
      -55.222312
 20
     -135.502924
 30
        0.000000
 40
        3.500000
 50
       90.000000
 51
      167.275966
  0
ARC
  8
LVL0000
 10
      136.452091
 20
     -178.783095
 30
        0.000000
 40
      200.000000
 50
      167.275966
 51
      180.569172
  0
ARC
  8
LVL0000
 10
      -57.538337
 20
     -180.710227
 30
        0.000000
 40
        6.000000
 50
      180.569172
 51
      261.466609
  0
ARC
  8
LVL0000
 10
        0.000000
 20
      202.758780
 30
        0.000000
 40
      393.761704
 50
      261.466609
 51
      278.533396
  0
ARC
  8
LVL0000
 10
     -136.452091
 20
     -178.783095
 30
        0.000000
 40
      200.000000
 50
      359.430833
 51
      372.724029
  0
ARC
  8
LVL0000
 10
       57.538337
 20
     -180.710227
 30
        0.000000
 40
        6.000000
 50
      278.533396
 51
      359.430833
  0
LINE
  8
LVL0000
 10
       -9.000000
 20
        6.000000
 30
        0.000000
 11
        9.000000
 21
        6.000000
 31
        0.000000
  0
LINE
  8
LVL0000
 10
      -16.000000
 20
       -1.000000
 30
        0.000000
 11
       16.000000
 21
       -1.000000
 31
        0.000000
  0
LINE
  8
LVL0000
 10
      -16.000000
 20
        0.000000
 30
        0.000000
 11
       16.000000
 21
        0.000000
 31
        0.000000
  0
LINE
  8
LVL0000
 10
       16.000000
 20
      -23.000000
 30
        0.000000
 11
       16.000000
 21
        0.000000
 31
        0.000000
  0
LINE
  8
LVL0000
 10
      -16.000000
 20
      -23.000000
 30
        0.000000
 11
      -16.000000
 21
        0.000000
 31
        0.000000
  0
LINE
  8
LVL0000
 10
       -9.000000
 20
        0.000000
 30
        0.000000
 11
       -9.000000
 21
        6.000000
 31
        0.000000
  0
LINE
  8
LVL0000
 10
        9.000000
 20
        0.000000
 30
        0.000000
 11
        9.000000
 21
        6.000000
 31
        0.000000
  0
LINE
  8
LVL0000
 10
        9.000000
 20
      -23.000000
 30
        0.000000
 11
        7.500000
 21
      -29.000000
 31
        0.000000
  0
LINE
  8
LVL0000
 10
       -9.000000
 20
      -23.000000
 30
        0.000000
 11
       -7.500000
 21
      -29.000000
 31
        0.000000
  0
ENDSEC
  0
EOF
